找回密码

蓝光电影网

查看: 169|回复: 4

[10bit.SDR] 钢铁侠/钢铁人 Iron.Man.2008.2160p.US.BluRay.x265.10bit.SDR.DTS-HD.MA.TrueHD.7.1.Atmos-SWTYBLZ 30.55GB

[复制链接]

 成长值: 1015

发表于 2019-8-10 14:52:40 | 显示全部楼层 |阅读模式
钢铁侠/钢铁人 Iron.Man.2008.2160p.US.BluRay.x265.10bit.SDR.DTS-HD.MA.TrueHD.7.1.Atmos-SWTYBLZ 30.55GB-1.png

译  名 钢铁侠 / 钢铁人(台) / 铁人 / 铁甲奇侠(港)
片  名 Iron Man
年  代 2008
产  地 美国
类  别 动作 / 科幻 / 惊悚 / 冒险
语  言 英语 / 波斯语 / 乌尔都语 / 阿拉伯语
上映日期 2008-04-14(悉尼首映) / 2008-04-30(中国大陆) / 2008-05-02(美国)
IMDb评分  7.9/10 from 873040 users
IMDb链接  http://www.imdb.com/title/tt0371746
豆瓣评分 8.2/10 from 397473 users
豆瓣链接 https://movie.douban.com/subject/1432146/
片  长 126 分钟
导  演 乔恩·费儒 Jon Favreau
编  剧 特·马库姆 Art Marcum / 马特?霍洛维 Matt Holloway / 马克·弗格斯 Mark Fergus / 霍克·奥斯比 Hawk Ostby
主  演 小罗伯特·唐尼 Robert Downey Jr.
      泰伦斯·霍华德 Terrence Howard
      格温妮斯·帕特洛 Gwyneth Paltrow
      杰夫·布里吉斯 Jeff Bridges
      莱丝莉·比伯 Leslie Bibb
      肖恩·托布  Shaun Toub
      保罗·贝坦尼 Paul Bettany
      乔恩·费儒 Jon Favreau
      克拉克·格雷格 Clark Gregg


标  签 科幻 | 美国 | 动作 | 超级英雄 | 漫威 | marvel | 2008 | 漫画改编

简  介  

  斯塔克军火公司是美军在全球范围内第一大军火供应商,其新任掌门人托尼?斯塔克(小罗伯特·唐尼 Robert Downey Jr. 饰)风流倜傥,天资聪颖。他与公司元老俄巴迪亚?斯坦(杰夫·布里吉斯 Jeff Bridges 饰)合作无间,共同将斯塔克公司的业务推向顶峰。现 实生活中的托尼热衷收集名贵跑车,搞点儿发明创造,当然露水姻缘更不可少。所幸他身边有维吉尼亚?波茨(格温妮斯·帕特洛 Gwyneth Paltrow 饰)这样的好助手细心打理一切,才让他能自由自在过着贵公子的生活。
在前往中东为军方展示新型武器的途中,托尼一众遭到恐怖分子袭击。他被弹片击中险些丧命,在英森博士的帮助下,托尼体内移植了一颗核动力的人工心脏。恐怖分子要求托尼制造强大的杀伤性武器,他和英森虚与委蛇,暗中制造了一套由聚变能源驱动的钢铁盔甲。穿上盔甲托尼大闹恐怖分子的基地,回到美国后又对其进行了改进。却不知,接下来有更为黑暗的阴谋等着他……

获奖情况  

  第81届奥斯卡金像奖(2009)
  最佳视觉效果(提名) 约翰·尼尔森 / Ben Snow / 丹尼尔·萨迪克 / Shane Mahan
  最佳音效剪辑(提名) Frank E. Eulner / 克里斯托弗·博伊斯

  第18届MTV电影奖(2009)
  MTV电影奖 年度电影(提名)
  MTV电影奖 最佳男演员(提名) 小罗伯特·唐尼

  第17届MTV电影奖(2008)
  MTV电影奖 迄今最佳暑期电影

  第9届美国电影学会奖(2008)
  年度佳片



  1. Video
  2. ID                                       : 1
  3. Format                                   : HEVC
  4. Format/Info                              : High Efficiency Video Coding
  5. Format profile                           : Main <a href="/cdn-cgi/l/email-protection" class="__cf_email__" data-cfemail="0d3c3d4d4138233c">[email protected]</a>@High
  6. Codec ID                                 : V_MPEGH/ISO/HEVC
  7. Duration                                 : 2 h 6 min
  8. Bit rate                                 : 24.7 Mb/s
  9. Width                                    : 3 840 pixels
  10. Height                                   : 1 600 pixels
  11. Display aspect ratio                     : 2.40:1
  12. Frame rate mode                          : Constant
  13. Frame rate                               : 23.976 (24000/1001) FPS
  14. Color space                              : YUV
  15. Chroma subsampling                       : 4:2:0
  16. Bit depth                                : 10 bits
  17. Bits/(Pixel*Frame)                       : 0.168
  18. Stream size                              : 21.8 GiB (71%)
  19. Title                                    : Iron.Man.2008.US.2160p.BluRay.x265.10bit.SDR.DTS-HD.MA.TrueHD.7.1.Atmos-SWTYBLZ
  20. Writing library                          : x265 3.0ed72af837053:[Windows][GCC 8.2.0][64 bit] 10bit
  21. Encoding settings                        : cpuid=1111039 / frame-threads=16 / numa-pools=44,44 / wpp / no-pmode / no-pme / no-psnr / no-ssim / log-level=2 / input-csp=1 / input-res=3840x1600 / interlace=0 / total-frames=181266 / level-idc=51 / high-tier=1 / uhd-bd=0 / ref=3 / no-allow-non-conformance / repeat-headers / annexb / aud / hrd / info / hash=0 / no-temporal-layers / no-open-gop / min-keyint=1 / keyint=24 / gop-lookahead=0 / bframes=4 / b-adapt=2 / b-pyramid / bframe-bias=0 / rc-lookahead=25 / lookahead-slices=4 / scenecut=40 / radl=0 / no-splice / no-intra-refresh / ctu=64 / min-cu-size=8 / no-rect / no-amp / max-tu-size=32 / tu-inter-depth=1 / tu-intra-depth=1 / limit-tu=0 / rdoq-level=0 / dynamic-rd=0.00 / no-ssim-rd / signhide / no-tskip / nr-intra=0 / nr-inter=0 / no-constrained-intra / strong-intra-smoothing / max-merge=2 / limit-refs=3 / no-limit-modes / me=1 / subme=2 / merange=57 / temporal-mvp / weightp / no-weightb / no-analyze-src-pics / deblock=0:0 / no-sao / no-sao-non-deblock / rd=3 / no-early-skip / rskip / no-fast-intra / no-tskip-fast / no-cu-lossless / no-b-intra / no-splitrd-skip / rdpenalty=0 / psy-rd=2.00 / psy-rdoq=0.00 / no-rd-refine / no-lossless / cbqpoffs=0 / crqpoffs=0 / rc=crf / crf=16.0 / qcomp=0.60 / qpstep=4 / stats-write=0 / stats-read=0 / vbv-maxrate=160000 / vbv-bufsize=160000 / vbv-init=0.9 / crf-max=0.0 / crf-min=0.0 / ipratio=1.40 / pbratio=1.30 / aq-mode=1 / aq-strength=1.00 / cutree / zone-count=0 / no-strict-cbr / qg-size=32 / no-rc-grain / qpmax=69 / qpmin=0 / no-const-vbv / sar=1 / overscan=0 / videoformat=5 / range=0 / colorprim=2 / transfer=2 / colormatrix=2 / chromaloc=0 / display-window=0 / max-cll=0,0 / min-luma=0 / max-luma=1023 / log2-max-poc-lsb=8 / vui-timing-info / vui-hrd-info / slices=1 / opt-qp-pps / opt-ref-list-length-pps / no-multi-pass-opt-rps / scenecut-bias=0.05 / no-opt-cu-delta-qp / no-aq-motion / no-hdr / no-hdr-opt / no-dhdr10-opt / no-idr-recovery-sei / analysis-reuse-level=5 / scale-factor=0 / refine-intra=0 / refine-inter=0 / refine-mv=0 / refine-ctu-distortion=0 / no-limit-sao / ctu-info=0 / no-lowpass-dct / refine-analysis-type=0 / copy-pic=1 / max-ausize-factor=1.0 / no-dynamic-refine / no-single-sei / no-hevc-aq / qp-adaptation-range=1.00
  22. Default                                  : Yes
  23. Forced                                   : No

  24. Audio #1
  25. ID                                       : 2
  26. Format                                   : MLP FBA 16-ch
  27. Format/Info                              : Meridian Lossless Packing FBA with 16-channel presentation
  28. Commercial name                          : Dolby TrueHD with Dolby Atmos
  29. Codec ID                                 : A_TRUEHD
  30. Duration                                 : 2 h 6 min
  31. Bit rate mode                            : Variable
  32. Bit rate                                 : 4 725 kb/s
  33. Maximum bit rate                         : 7 551 kb/s
  34. Channel(s)                               : 8 channels
  35. Channel layout                           : L R C LFE Ls Rs Lb Rb
  36. Sampling rate                            : 48.0 kHz
  37. Frame rate                               : 1 200.000 FPS (40 SPF)
  38. Compression mode                         : Lossless
  39. Stream size                              : 4.16 GiB (14%)
  40. Title                                    : Iron.Man.2008.US.2160p.BluRay.x265.10bit.SDR.DTS-HD.MA.TrueHD.7.1.Atmos-SWTYBLZ
  41. Language                                 : English
  42. Default                                  : Yes
  43. Forced                                   : No
  44. Number of dynamic objects                : 13
  45. Bed channel count                        : 1 channel
  46. Bed channel configuration                : LFE

  47. Audio #2
  48. ID                                       : 3
  49. Format                                   : DTS XLL
  50. Format/Info                              : Digital Theater Systems
  51. Commercial name                          : DTS-HD Master Audio
  52. Codec ID                                 : A_DTS
  53. Duration                                 : 2 h 6 min
  54. Bit rate mode                            : Variable
  55. Bit rate                                 : 4 368 kb/s
  56. Channel(s)                               : 8 channels
  57. Channel layout                           : C L R LFE Lb Rb Lss Rss
  58. Sampling rate                            : 48.0 kHz
  59. Frame rate                               : 93.750 FPS (512 SPF)
  60. Bit depth                                : 24 bits
  61. Compression mode                         : Lossless
  62. Stream size                              : 3.84 GiB (13%)
  63. Title                                    : Iron.Man.2008.US.2160p.BluRay.x265.10bit.SDR.DTS-HD.MA.TrueHD.7.1.Atmos-SWTYBLZ
  64. Language                                 : English
  65. Default                                  : No
  66. Forced                                   : No

  67. Audio #3
  68. ID                                       : 4
  69. Format                                   : AC-3
  70. Format/Info                              : Audio Coding 3
  71. Commercial name                          : Dolby Digital
  72. Codec ID                                 : A_AC3
  73. Duration                                 : 2 h 6 min
  74. Bit rate mode                            : Constant
  75. Bit rate                                 : 640 kb/s
  76. Channel(s)                               : 6 channels
  77. Channel layout                           : L R C LFE Ls Rs
  78. Sampling rate                            : 48.0 kHz
  79. Frame rate                               : 31.250 FPS (1536 SPF)
  80. Bit depth                                : 16 bits
  81. Compression mode                         : Lossy
  82. Stream size                              : 577 MiB (2%)
  83. Title                                    : Iron.Man.2008.US.2160p.BluRay.x265.10bit.SDR.DTS-HD.MA.TrueHD.7.1.Atmos-SWTYBLZ
  84. Language                                 : English
  85. Service kind                             : Complete Main
  86. Default                                  : No
  87. Forced                                   : No

  88. Text #1
  89. ID                                       : 5
  90. Format                                   : UTF-8
  91. Codec ID                                 : S_TEXT/UTF8
  92. Codec ID/Info                            : UTF-8 Plain Text
  93. Duration                                 : 1 h 3 min
  94. Bit rate                                 : 1 b/s
  95. Count of elements                        : 38
  96. Stream size                              : 750 Bytes (0%)
  97. Title                                    : English-FORCED-SRT
  98. Language                                 : English
  99. Default                                  : Yes
  100. Forced                                   : No

  101. Text #2
  102. ID                                       : 6
  103. Format                                   : UTF-8
  104. Codec ID                                 : S_TEXT/UTF8
  105. Codec ID/Info                            : UTF-8 Plain Text
  106. Duration                                 : 2 h 4 min
  107. Bit rate                                 : 58 b/s
  108. Count of elements                        : 1357
  109. Stream size                              : 53.1 KiB (0%)
  110. Title                                    : English-SRT
  111. Language                                 : English
  112. Default                                  : No
  113. Forced                                   : No

  114. Text #3
  115. ID                                       : 7
  116. Format                                   : PGS
  117. Muxing mode                              : zlib
  118. Codec ID                                 : S_HDMV/PGS
  119. Codec ID/Info                            : Picture based subtitle format used on BDs/HD-DVDs
  120. Duration                                 : 1 h 3 min
  121. Bit rate                                 : 729 b/s
  122. Count of elements                        : 73
  123. Stream size                              : 339 KiB (0%)
  124. Title                                    : English-FORCED-PGS
  125. Language                                 : English
  126. Default                                  : No
  127. Forced                                   : No

  128. Text #4
  129. ID                                       : 8
  130. Format                                   : PGS
  131. Muxing mode                              : zlib
  132. Codec ID                                 : S_HDMV/PGS
  133. Codec ID/Info                            : Picture based subtitle format used on BDs/HD-DVDs
  134. Duration                                 : 2 h 4 min
  135. Bit rate                                 : 33.9 kb/s
  136. Count of elements                        : 2678
  137. Stream size                              : 30.1 MiB (0%)
  138. Title                                    : English-PGS
  139. Language                                 : English
  140. Default                                  : No
  141. Forced                                   : No

  142. Text #5
  143. ID                                       : 9
  144. Format                                   : PGS
  145. Muxing mode                              : zlib
  146. Codec ID                                 : S_HDMV/PGS
  147. Codec ID/Info                            : Picture based subtitle format used on BDs/HD-DVDs
  148. Duration                                 : 2 h 4 min
  149. Bit rate                                 : 44.7 kb/s
  150. Count of elements                        : 2999
  151. Stream size                              : 39.9 MiB (0%)
  152. Title                                    : English-PGS
  153. Language                                 : English
  154. Default                                  : No
  155. Forced                                   : No

  156. Text #6
  157. ID                                       : 10
  158. Format                                   : PGS
  159. Muxing mode                              : zlib
  160. Codec ID                                 : S_HDMV/PGS
  161. Codec ID/Info                            : Picture based subtitle format used on BDs/HD-DVDs
  162. Duration                                 : 2 h 4 min
  163. Bit rate                                 : 38.1 kb/s
  164. Count of elements                        : 2685
  165. Stream size                              : 34.0 MiB (0%)
  166. Title                                    : French-PGS
  167. Language                                 : French
  168. Default                                  : No
  169. Forced                                   : No

  170. Text #7
  171. ID                                       : 11
  172. Format                                   : PGS
  173. Muxing mode                              : zlib
  174. Codec ID                                 : S_HDMV/PGS
  175. Codec ID/Info                            : Picture based subtitle format used on BDs/HD-DVDs
  176. Duration                                 : 2 h 4 min
  177. Bit rate                                 : 36.5 kb/s
  178. Count of elements                        : 2689
  179. Stream size                              : 32.6 MiB (0%)
  180. Title                                    : Italian-PGS
  181. Language                                 : Italian
  182. Default                                  : No
  183. Forced                                   : No

  184. Text #8
  185. ID                                       : 12
  186. Format                                   : PGS
  187. Muxing mode                              : zlib
  188. Codec ID                                 : S_HDMV/PGS
  189. Codec ID/Info                            : Picture based subtitle format used on BDs/HD-DVDs
  190. Duration                                 : 2 h 4 min
  191. Bit rate                                 : 28.5 kb/s
  192. Count of elements                        : 2529
  193. Stream size                              : 25.4 MiB (0%)
  194. Title                                    : Norwegian-PGS
  195. Language                                 : Norwegian
  196. Default                                  : No
  197. Forced                                   : No

  198. Text #9
  199. ID                                       : 13
  200. Format                                   : PGS
  201. Muxing mode                              : zlib
  202. Codec ID                                 : S_HDMV/PGS
  203. Codec ID/Info                            : Picture based subtitle format used on BDs/HD-DVDs
  204. Duration                                 : 2 h 4 min
  205. Bit rate                                 : 33.4 kb/s
  206. Count of elements                        : 2569
  207. Stream size                              : 29.8 MiB (0%)
  208. Title                                    : Swedish-PGS
  209. Language                                 : Swedish
  210. Default                                  : No
  211. Forced                                   : No

  212. Menu
  213. 00:00:00.000                             : en:Chapter 01
  214. 00:09:04.169                             : en:Chapter 02
  215. 00:17:58.577                             : en:Chapter 03
  216. 00:26:47.940                             : en:Chapter 04
  217. 00:34:59.848                             : en:Chapter 05
  218. 00:43:13.257                             : en:Chapter 06
  219. 00:52:36.487                             : en:Chapter 07
  220. 00:59:22.642                             : en:Chapter 08
  221. 01:07:30.421                             : en:Chapter 09
  222. 01:11:42.298                             : en:Chapter 10
  223. 01:18:29.204                             : en:Chapter 11
  224. 01:24:38.573                             : en:Chapter 12
  225. 01:34:58.109                             : en:Chapter 13
  226. 01:44:27.344                             : en:Chapter 14
  227. 01:53:29.469                             : en:Chapter 15
复制代码

钢铁侠/钢铁人 Iron.Man.2008.2160p.US.BluRay.x265.10bit.SDR.DTS-HD.MA.TrueHD.7.1.Atmos-SWTYBLZ 30.55GB-2.png 钢铁侠/钢铁人 Iron.Man.2008.2160p.US.BluRay.x265.10bit.SDR.DTS-HD.MA.TrueHD.7.1.Atmos-SWTYBLZ 30.55GB-3.png 钢铁侠/钢铁人 Iron.Man.2008.2160p.US.BluRay.x265.10bit.SDR.DTS-HD.MA.TrueHD.7.1.Atmos-SWTYBLZ 30.55GB-4.png 钢铁侠/钢铁人 Iron.Man.2008.2160p.US.BluRay.x265.10bit.SDR.DTS-HD.MA.TrueHD.7.1.Atmos-SWTYBLZ 30.55GB-5.png 钢铁侠/钢铁人 Iron.Man.2008.2160p.US.BluRay.x265.10bit.SDR.DTS-HD.MA.TrueHD.7.1.Atmos-SWTYBLZ 30.55GB-6.png 钢铁侠/钢铁人 Iron.Man.2008.2160p.US.BluRay.x265.10bit.SDR.DTS-HD.MA.TrueHD.7.1.Atmos-SWTYBLZ 30.55GB-7.png 钢铁侠/钢铁人 Iron.Man.2008.2160p.US.BluRay.x265.10bit.SDR.DTS-HD.MA.TrueHD.7.1.Atmos-SWTYBLZ 30.55GB-8.png







开通VIP免费下载本站所有资源---点这里
新手必看:资源下载、资源播放、字幕使用、等常见问题---点这里
回复

使用道具 举报

发表于 2019-8-10 16:22:26 | 显示全部楼层
经典影片,值得收藏
开通VIP免费下载本站所有资源---点这里
新手必看:资源下载、资源播放、字幕使用、等常见问题---点这里
回复 支持 反对

使用道具 举报

发表于 2019-8-10 21:18:14 | 显示全部楼层
看看怎么样
开通VIP免费下载本站所有资源---点这里
新手必看:资源下载、资源播放、字幕使用、等常见问题---点这里
回复 支持 反对

使用道具 举报

发表于 2019-8-12 10:10:44 | 显示全部楼层

这个帖子不回对不起自己!我想我是一天也不能离开蓝光电影网
开通VIP免费下载本站所有资源---点这里
新手必看:资源下载、资源播放、字幕使用、等常见问题---点这里
回复 支持 反对

使用道具 举报

发表于 2019-8-17 15:45:15 | 显示全部楼层

这个帖子不回对不起自己!我想我是一天也不能离开蓝光电影网
开通VIP免费下载本站所有资源---点这里
新手必看:资源下载、资源播放、字幕使用、等常见问题---点这里
回复 支持 反对

使用道具 举报

懒得打字嘛,点击右侧快捷回复 【右侧内容,后台自定义】
您需要登录后才可以回帖 登录 | 立即加入

本版积分规则

现在加入蓝光电影网,注册一个账号

QQ| 手机版|小黑屋| 蓝光电影网 |网站地图

Copyright © 2015-2019 Comsenz Inc.  Template by 蓝光电影网 All Rights Reserved.

Powered by 蓝光电影网 X3.4

特别声明:本站所有资源均由网上收集而来,版权归原影音公司所有,如果侵犯了你的权益,请通知我们,我们会及时删除侵权内容.

快速回复 返回顶部 返回列表