找回密码

蓝光电影网

查看: 153|回复: 4

[8bit.SDR] 钢铁侠3/钢铁人3 Iron.Man.3.2013.2160p.US.BluRay.x264.8bit.SDR.DTS-HD.MA.TrueHD.7.1.Atmos-SWTYBLZ 31.81GB

[复制链接]

 成长值: 1000

发表于 2019-8-10 14:50:52 | 显示全部楼层 |阅读模式
钢铁侠3/钢铁人3 Iron.Man.3.2013.2160p.US.BluRay.x264.8bit.SDR.DTS-HD.MA.TrueHD.7.1.Atmos-SWTYBLZ 31.81GB-1.jpg

译  名 钢铁侠3 / 钢铁人3(台) / 铁人3 / 铁甲奇侠3(港)
片  名 Iron Man 3
年  代 2013
产  地 美国 / 中国大陆
类  别 动作 / 科幻
语  言 英语 / 汉语普通话
上映日期 2013-04-18(伦敦首映) / 2013-05-01(中国大陆) / 2013-05-03(美国)
IMDb评分  7.2/10 from 700775 users
IMDb链接  http://www.imdb.com/title/tt1300854
豆瓣评分 7.8/10 from 331644 users
豆瓣链接 https://movie.douban.com/subject/3231742/
片  长 134分钟(中国大陆)
导  演 沙恩·布莱克 Shane Black
编  剧 沙恩·布莱克 Shane Black / 德鲁·皮尔斯 Drew Pearce / 斯坦·李 Stan Lee / 唐·赫克 Don Heck / 拉里·利伯 Larry Lieber / 杰克·科比 Jack Kirby
主  演 小罗伯特·唐尼 Robert Downey Jr.
       盖·皮尔斯 Guy Pearce
       格温妮斯·帕特洛 Gwyneth Paltrow
       本·金斯利 Ben Kingsley
       唐·钱德尔 Don Cheadle
       保罗·贝坦尼 Paul Bettany
       丽贝卡·豪尔 Rebecca Hall
       乔恩·费儒 Jon Favreau
       威廉姆·赛德勒 William Sadler
       詹姆斯·戴尔 James Badge Dale
       伊芳·齐玛 Yvonne Zima
       泰·辛普金斯 Ty Simpkins
       阿什利·汉弥尔顿 Ashley Hamilton
       王学圻 Xueqi Wang
       范冰冰 Bingbing Fan


标  签 科幻 | 钢铁侠 | 美国 | 超级英雄 | 动作 | MARVEL | 2013 | 漫画改编

简  介  

  自纽约事件以来,托尼·斯塔克(小罗伯特·唐尼 Robert Downey Jr. 饰)为前所未有的焦虑症所困扰。他疯狂投入钢铁侠升级版的研发,为此废寝忘食,甚至忽略了女友佩珀·波茨(格温妮斯·帕特洛 Gwyneth Paltrow 饰)的感受。与此同时,臭名昭著的恐怖头目曼达林(本·金斯利 Ben Kingsley 饰)制造了一连串的爆炸袭击事件,托尼当年最忠诚的保镖即在最近的一次袭击中身负重伤。未过多久,托尼、佩珀以及曾与他有过一面之缘的女植物学家玛雅(丽贝卡·豪尔 Rebecca Hall 饰)在家中遭到猛烈的炮火袭击,几乎丧命,而这一切似乎都与22年前那名偶然邂逅的科学家阿尔德里奇·基连(盖·皮尔斯 Guy Pearce 饰)及其终极生物的研究有关。
  即使有精密先进的铠甲护身,也无法排遣发自心底的焦虑。被击碎一切的托尼,如何穿越来自地狱的熊熊烈火……

获奖情况  

  第86届奥斯卡金像奖(2014)
  最佳视觉效果(提名) 盖伊·威廉斯 / 克里斯托弗·汤森 / Erik Nash / 丹尼尔·萨迪克

  第23届MTV电影奖(2014)
  MTV电影奖 最佳客串表演(提名) 琼·里弗斯
  MTV电影奖 最佳英雄形象(提名) 小罗伯特·唐尼

  第61届美国音效剪辑协会奖(2014)
  金卷轴奖 最佳电影音效剪辑(提名) John T. Cucci / Charlie Campagna / 丹·奥康奈尔 / Tim Walston / Alan Rankin / Karen Vassar / 安德鲁·克里斯托法罗 / Ann Scibelli / Shannon Mills / 马克·P·施特金格尔

  第12届美国视觉效果协会奖(2014)
  最佳特效电影视觉效果(提名) 布莱恩·吉尔 / 盖伊·威廉斯 / Mark G. Soper / 克里斯托弗·汤森
  最佳真人电影CG背景(提名) John Stevenson-Galvin
  最佳电影虚拟摄影(提名) Thelvin Cabezas
  最佳电影视觉效果合成(提名) Justin van der Lek / Stefano Trivelli

  第50届美国声音效果协会奖(2014)
  真人电影最佳音效(提名) Joel Iwataki / Mike Prestwood Smith / Michael Keller

  第19届美国评论家选择电影奖(2014)
  最佳动作片(提名)
  动作片最佳男主角(提名) 小罗伯特·唐尼
  动作片最佳女主角(提名) 格温妮斯·帕特洛
  最佳视觉效果(提名)

  第17届好莱坞电影奖(2013)
  年度电影(提名) 沙恩·布莱克

  第15届美国青少年选择奖(2013)
  最佳动作片
  最佳动作片男演员 小罗伯特·唐尼
  最佳动作片女演员(提名) 格温妮斯·帕特洛
  最佳科幻/奇幻电影(提名)
  最佳科幻/奇幻电影男演员(提名) 小罗伯特·唐尼
  最佳科幻/奇幻电影女演员(提名) 格温妮斯·帕特洛
  最佳电影反派(提名) 本·金斯利
  最佳银幕拍档(提名) 小罗伯特·唐尼 / 唐·钱德尔

  第4届豆瓣电影鑫像奖(2014)
  鑫豆单元 最佳科幻/动作片(提名)
  1. Video
  2. ID                                       : 1
  3. Format                                   : AVC
  4. Format/Info                              : Advanced Video Codec
  5. Format profile                           : <a href="/cdn-cgi/l/email-protection" class="__cf_email__" data-cfemail="82caebe5eac2ceb7acb3">[email protected]</a>
  6. Format settings                          : CABAC / 5 Ref Frames
  7. Format settings, CABAC                   : Yes
  8. Format settings, Reference frames        : 5 frames
  9. Codec ID                                 : V_MPEG4/ISO/AVC
  10. Duration                                 : 2 h 10 min
  11. Bit rate                                 : 25.5 Mb/s
  12. Width                                    : 3 840 pixels
  13. Height                                   : 1 600 pixels
  14. Display aspect ratio                     : 2.40:1
  15. Frame rate mode                          : Constant
  16. Frame rate                               : 23.976 (24000/1001) FPS
  17. Color space                              : YUV
  18. Chroma subsampling                       : 4:2:0
  19. Bit depth                                : 8 bits
  20. Scan type                                : Progressive
  21. Bits/(Pixel*Frame)                       : 0.173
  22. Stream size                              : 23.3 GiB (73%)
  23. Title                                    : Iron.Man.3.2013.2160p.US.BluRay.x264.8bit.SDR.DTS-HD.MA.TrueHD.7.1.Atmos-SWTYBLZ
  24. Writing library                          : x264 core 157 r2935 545de2f
  25. Encoding settings                        : cabac=1 / ref=5 / deblock=1:-1:-1 / analyse=0x3:0x113 / me=umh / subme=10 / psy=1 / psy_rd=1.00:0.15 / mixed_ref=1 / me_range=48 / chroma_me=1 / trellis=2 / 8x8dct=1 / cqm=0 / deadzone=21,11 / fast_pskip=1 / chroma_qp_offset=-3 / threads=48 / lookahead_threads=4 / sliced_threads=0 / nr=0 / decimate=0 / interlaced=0 / bluray_compat=0 / constrained_intra=0 / bframes=3 / b_pyramid=2 / b_adapt=2 / b_bias=0 / direct=3 / weightb=1 / open_gop=0 / weightp=2 / keyint=250 / keyint_min=23 / scenecut=40 / intra_refresh=0 / rc_lookahead=50 / rc=crf / mbtree=1 / crf=15.0 / qcomp=0.60 / qpmin=0 / qpmax=69 / qpstep=4 / ip_ratio=1.40 / aq=1:1.00
  26. Default                                  : Yes
  27. Forced                                   : No

  28. Audio #1
  29. ID                                       : 2
  30. Format                                   : MLP FBA 16-ch
  31. Format/Info                              : Meridian Lossless Packing FBA with 16-channel presentation
  32. Commercial name                          : Dolby TrueHD with Dolby Atmos
  33. Codec ID                                 : A_TRUEHD
  34. Duration                                 : 2 h 10 min
  35. Bit rate mode                            : Variable
  36. Bit rate                                 : 4 826 kb/s
  37. Maximum bit rate                         : 7 887 kb/s
  38. Channel(s)                               : 8 channels
  39. Channel layout                           : L R C LFE Ls Rs Lb Rb
  40. Sampling rate                            : 48.0 kHz
  41. Frame rate                               : 1 200.000 FPS (40 SPF)
  42. Compression mode                         : Lossless
  43. Stream size                              : 4.40 GiB (14%)
  44. Title                                    : Iron.Man.3.2013.2160p.US.BluRay.x264.8bit.SDR.DTS-HD.MA.TrueHD.7.1.Atmos-SWTYBLZ
  45. Language                                 : English
  46. Default                                  : Yes
  47. Forced                                   : No
  48. Number of dynamic objects                : 13
  49. Bed channel count                        : 1 channel
  50. Bed channel configuration                : LFE

  51. Audio #2
  52. ID                                       : 3
  53. Format                                   : DTS XLL
  54. Format/Info                              : Digital Theater Systems
  55. Commercial name                          : DTS-HD Master Audio
  56. Codec ID                                 : A_DTS
  57. Duration                                 : 2 h 10 min
  58. Bit rate mode                            : Variable
  59. Bit rate                                 : 3 597 kb/s
  60. Channel(s)                               : 8 channels
  61. Channel layout                           : C L R LFE Lb Rb Lss Rss
  62. Sampling rate                            : 48.0 kHz
  63. Frame rate                               : 93.750 FPS (512 SPF)
  64. Bit depth                                : 24 bits
  65. Compression mode                         : Lossless
  66. Stream size                              : 3.28 GiB (10%)
  67. Title                                    : Iron.Man.3.2013.2160p.US.BluRay.x264.8bit.SDR.DTS-HD.MA.TrueHD.7.1.Atmos-SWTYBLZ
  68. Language                                 : English
  69. Default                                  : No
  70. Forced                                   : No

  71. Audio #3
  72. ID                                       : 4
  73. Format                                   : AC-3
  74. Format/Info                              : Audio Coding 3
  75. Commercial name                          : Dolby Digital
  76. Codec ID                                 : A_AC3
  77. Duration                                 : 2 h 10 min
  78. Bit rate mode                            : Constant
  79. Bit rate                                 : 640 kb/s
  80. Channel(s)                               : 6 channels
  81. Channel layout                           : L R C LFE Ls Rs
  82. Sampling rate                            : 48.0 kHz
  83. Frame rate                               : 31.250 FPS (1536 SPF)
  84. Bit depth                                : 16 bits
  85. Compression mode                         : Lossy
  86. Stream size                              : 597 MiB (2%)
  87. Title                                    : Iron.Man.3.2013.2160p.US.BluRay.x264.8bit.SDR.DTS-HD.MA.TrueHD.7.1.Atmos-SWTYBLZ
  88. Language                                 : English
  89. Service kind                             : Complete Main
  90. Default                                  : No
  91. Forced                                   : No

  92. Text #1
  93. ID                                       : 5
  94. Format                                   : UTF-8
  95. Codec ID                                 : S_TEXT/UTF8
  96. Codec ID/Info                            : UTF-8 Plain Text
  97. Duration                                 : 2 h 10 min
  98. Bit rate                                 : 58 b/s
  99. Count of elements                        : 1733
  100. Stream size                              : 56.0 KiB (0%)
  101. Title                                    : English-SRT
  102. Language                                 : English
  103. Default                                  : Yes
  104. Forced                                   : No

  105. Text #2
  106. ID                                       : 6
  107. Format                                   : PGS
  108. Muxing mode                              : zlib
  109. Codec ID                                 : S_HDMV/PGS
  110. Codec ID/Info                            : Picture based subtitle format used on BDs/HD-DVDs
  111. Duration                                 : 2 h 10 min
  112. Bit rate                                 : 36.1 kb/s
  113. Count of elements                        : 3480
  114. Stream size                              : 33.5 MiB (0%)
  115. Title                                    : English-PGS
  116. Language                                 : English
  117. Default                                  : No
  118. Forced                                   : No

  119. Text #3
  120. ID                                       : 7
  121. Format                                   : PGS
  122. Muxing mode                              : zlib
  123. Codec ID                                 : S_HDMV/PGS
  124. Codec ID/Info                            : Picture based subtitle format used on BDs/HD-DVDs
  125. Duration                                 : 2 h 10 min
  126. Bit rate                                 : 53.2 kb/s
  127. Count of elements                        : 4336
  128. Stream size                              : 49.4 MiB (0%)
  129. Title                                    : English-SDH-PGS
  130. Language                                 : English
  131. Default                                  : No
  132. Forced                                   : No

  133. Text #4
  134. ID                                       : 8
  135. Format                                   : PGS
  136. Muxing mode                              : zlib
  137. Codec ID                                 : S_HDMV/PGS
  138. Codec ID/Info                            : Picture based subtitle format used on BDs/HD-DVDs
  139. Duration                                 : 2 h 10 min
  140. Bit rate                                 : 42.6 kb/s
  141. Count of elements                        : 3544
  142. Stream size                              : 39.7 MiB (0%)
  143. Title                                    : French-PGS
  144. Language                                 : French
  145. Default                                  : No
  146. Forced                                   : No

  147. Text #5
  148. ID                                       : 9
  149. Format                                   : PGS
  150. Muxing mode                              : zlib
  151. Codec ID                                 : S_HDMV/PGS
  152. Codec ID/Info                            : Picture based subtitle format used on BDs/HD-DVDs
  153. Duration                                 : 2 h 10 min
  154. Bit rate                                 : 34.3 kb/s
  155. Count of elements                        : 3414
  156. Stream size                              : 31.9 MiB (0%)
  157. Title                                    : French-PGS
  158. Language                                 : French
  159. Default                                  : No
  160. Forced                                   : No

  161. Text #6
  162. ID                                       : 10
  163. Format                                   : PGS
  164. Muxing mode                              : zlib
  165. Codec ID                                 : S_HDMV/PGS
  166. Codec ID/Info                            : Picture based subtitle format used on BDs/HD-DVDs
  167. Duration                                 : 2 h 10 min
  168. Bit rate                                 : 41.5 kb/s
  169. Count of elements                        : 3448
  170. Stream size                              : 38.7 MiB (0%)
  171. Title                                    : Italian-PGS
  172. Language                                 : Italian
  173. Default                                  : No
  174. Forced                                   : No

  175. Text #7
  176. ID                                       : 11
  177. Format                                   : PGS
  178. Muxing mode                              : zlib
  179. Codec ID                                 : S_HDMV/PGS
  180. Codec ID/Info                            : Picture based subtitle format used on BDs/HD-DVDs
  181. Duration                                 : 2 h 10 min
  182. Bit rate                                 : 20.0 kb/s
  183. Count of elements                        : 2892
  184. Stream size                              : 18.7 MiB (0%)
  185. Title                                    : Japanese-PGS
  186. Language                                 : Japanese
  187. Default                                  : No
  188. Forced                                   : No

  189. Text #8
  190. ID                                       : 12
  191. Format                                   : PGS
  192. Muxing mode                              : zlib
  193. Codec ID                                 : S_HDMV/PGS
  194. Codec ID/Info                            : Picture based subtitle format used on BDs/HD-DVDs
  195. Duration                                 : 2 h 10 min
  196. Bit rate                                 : 38.9 kb/s
  197. Count of elements                        : 3454
  198. Stream size                              : 36.3 MiB (0%)
  199. Title                                    : Norwegian-PGS
  200. Language                                 : Norwegian
  201. Default                                  : No
  202. Forced                                   : No

  203. Text #9
  204. ID                                       : 13
  205. Format                                   : PGS
  206. Muxing mode                              : zlib
  207. Codec ID                                 : S_HDMV/PGS
  208. Codec ID/Info                            : Picture based subtitle format used on BDs/HD-DVDs
  209. Duration                                 : 2 h 10 min
  210. Bit rate                                 : 33.2 kb/s
  211. Count of elements                        : 3434
  212. Stream size                              : 30.9 MiB (0%)
  213. Title                                    : Spanish-PGS
  214. Language                                 : Spanish
  215. Default                                  : No
  216. Forced                                   : No

  217. Text #10
  218. ID                                       : 14
  219. Format                                   : PGS
  220. Muxing mode                              : zlib
  221. Codec ID                                 : S_HDMV/PGS
  222. Codec ID/Info                            : Picture based subtitle format used on BDs/HD-DVDs
  223. Duration                                 : 2 h 10 min
  224. Bit rate                                 : 30.9 kb/s
  225. Count of elements                        : 2098
  226. Stream size                              : 28.8 MiB (0%)
  227. Title                                    : Swedish-PGS
  228. Language                                 : Swedish
  229. Default                                  : No
  230. Forced                                   : No

  231. Menu
  232. 00:00:00.000                             : en:Chapter 01
  233. 00:04:52.751                             : en:Chapter 02
  234. 00:07:55.433                             : en:Chapter 03
  235. 00:12:12.440                             : en:Chapter 04
  236. 00:19:04.101                             : en:Chapter 05
  237. 00:23:47.885                             : en:Chapter 06
  238. 00:29:47.703                             : en:Chapter 07
  239. 00:39:46.384                             : en:Chapter 08
  240. 00:45:56.045                             : en:Chapter 09
  241. 00:59:19.639                             : en:Chapter 10
  242. 01:01:56.922                             : en:Chapter 11
  243. 01:09:24.452                             : en:Chapter 12
  244. 01:18:41.508                             : en:Chapter 13
  245. 01:23:52.945                             : en:Chapter 14
  246. 01:37:55.995                             : en:Chapter 15
  247. 01:56:18.305                             : en:Chapter 16
  248. 01:59:38.755                             : en:Chapter 17
复制代码

钢铁侠3/钢铁人3 Iron.Man.3.2013.2160p.US.BluRay.x264.8bit.SDR.DTS-HD.MA.TrueHD.7.1.Atmos-SWTYBLZ 31.81GB-2.png 钢铁侠3/钢铁人3 Iron.Man.3.2013.2160p.US.BluRay.x264.8bit.SDR.DTS-HD.MA.TrueHD.7.1.Atmos-SWTYBLZ 31.81GB-3.png 钢铁侠3/钢铁人3 Iron.Man.3.2013.2160p.US.BluRay.x264.8bit.SDR.DTS-HD.MA.TrueHD.7.1.Atmos-SWTYBLZ 31.81GB-4.png 钢铁侠3/钢铁人3 Iron.Man.3.2013.2160p.US.BluRay.x264.8bit.SDR.DTS-HD.MA.TrueHD.7.1.Atmos-SWTYBLZ 31.81GB-5.png 钢铁侠3/钢铁人3 Iron.Man.3.2013.2160p.US.BluRay.x264.8bit.SDR.DTS-HD.MA.TrueHD.7.1.Atmos-SWTYBLZ 31.81GB-6.png 钢铁侠3/钢铁人3 Iron.Man.3.2013.2160p.US.BluRay.x264.8bit.SDR.DTS-HD.MA.TrueHD.7.1.Atmos-SWTYBLZ 31.81GB-7.png






开通VIP免费下载本站所有资源---点这里
新手必看:资源下载、资源播放、字幕使用、等常见问题---点这里
回复

使用道具 举报

发表于 2019-8-11 00:24:27 来自手机 | 显示全部楼层
Good job!
开通VIP免费下载本站所有资源---点这里
新手必看:资源下载、资源播放、字幕使用、等常见问题---点这里
回复

使用道具 举报

发表于 2019-8-11 02:20:59 | 显示全部楼层
2012][中国][动作][大上海][周润发/洪金宝/吴镇宇][720P-6.59G]
开通VIP免费下载本站所有资源---点这里
新手必看:资源下载、资源播放、字幕使用、等常见问题---点这里
回复 支持 反对

使用道具 举报

已抛锚 成长值: 5200

发表于 2019-8-13 08:20:00 | 显示全部楼层
多谢分享,好片好片!
开通VIP免费下载本站所有资源---点这里
新手必看:资源下载、资源播放、字幕使用、等常见问题---点这里
回复 支持 反对

使用道具 举报

发表于 2019-8-15 11:49:15 | 显示全部楼层
感谢分享 谢谢
开通VIP免费下载本站所有资源---点这里
新手必看:资源下载、资源播放、字幕使用、等常见问题---点这里
回复 支持 反对

使用道具 举报

懒得打字嘛,点击右侧快捷回复 【右侧内容,后台自定义】
您需要登录后才可以回帖 登录 | 立即加入

本版积分规则

现在加入蓝光电影网,注册一个账号

QQ| 手机版|小黑屋| 蓝光电影网 |网站地图

Copyright © 2015-2019 Comsenz Inc.  Template by 蓝光电影网 All Rights Reserved.

Powered by 蓝光电影网 X3.4

特别声明:本站所有资源均由网上收集而来,版权归原影音公司所有,如果侵犯了你的权益,请通知我们,我们会及时删除侵权内容.

快速回复 返回顶部 返回列表