找回密码

蓝光电影网

查看: 162|回复: 5

[REMUX.HEVC] 钢铁侠/钢铁人 Iron.Man.2008.2160p.US.BluRay.REMUX.HEVC.DTS-HD.MA.TrueHD.7.1.Atmos-FGT 60.78GB

[复制链接]

 成长值: 1015

发表于 2019-8-10 14:47:31 | 显示全部楼层 |阅读模式
钢铁侠/钢铁人 Iron.Man.2008.2160p.US.BluRay.REMUX.HEVC.DTS-HD.MA.TrueHD.7.1.Atmos-FGT 60.78GB-1.png

译  名 钢铁侠 / 钢铁人(台) / 铁人 / 铁甲奇侠(港)
片  名 Iron Man
年  代 2008
产  地 美国
类  别 动作 / 科幻 / 惊悚 / 冒险
语  言 英语 / 波斯语 / 乌尔都语 / 阿拉伯语
上映日期 2008-04-14(悉尼首映) / 2008-04-30(中国大陆) / 2008-05-02(美国)
IMDb评分  7.9/10 from 873040 users
IMDb链接  http://www.imdb.com/title/tt0371746
豆瓣评分 8.2/10 from 397473 users
豆瓣链接 https://movie.douban.com/subject/1432146/
片  长 126 分钟
导  演 乔恩·费儒 Jon Favreau
编  剧 特·马库姆 Art Marcum / 马特?霍洛维 Matt Holloway / 马克·弗格斯 Mark Fergus / 霍克·奥斯比 Hawk Ostby
主  演 小罗伯特·唐尼 Robert Downey Jr.
      泰伦斯·霍华德 Terrence Howard
      格温妮斯·帕特洛 Gwyneth Paltrow
      杰夫·布里吉斯 Jeff Bridges
      莱丝莉·比伯 Leslie Bibb
      肖恩·托布  Shaun Toub
      保罗·贝坦尼 Paul Bettany
      乔恩·费儒 Jon Favreau
      克拉克·格雷格 Clark Gregg


标  签 科幻 | 美国 | 动作 | 超级英雄 | 漫威 | marvel | 2008 | 漫画改编

简  介  

  斯塔克军火公司是美军在全球范围内第一大军火供应商,其新任掌门人托尼?斯塔克(小罗伯特·唐尼 Robert Downey Jr. 饰)风流倜傥,天资聪颖。他与公司元老俄巴迪亚?斯坦(杰夫·布里吉斯 Jeff Bridges 饰)合作无间,共同将斯塔克公司的业务推向顶峰。现 实生活中的托尼热衷收集名贵跑车,搞点儿发明创造,当然露水姻缘更不可少。所幸他身边有维吉尼亚?波茨(格温妮斯·帕特洛 Gwyneth Paltrow 饰)这样的好助手细心打理一切,才让他能自由自在过着贵公子的生活。
在前往中东为军方展示新型武器的途中,托尼一众遭到恐怖分子袭击。他被弹片击中险些丧命,在英森博士的帮助下,托尼体内移植了一颗核动力的人工心脏。恐怖分子要求托尼制造强大的杀伤性武器,他和英森虚与委蛇,暗中制造了一套由聚变能源驱动的钢铁盔甲。穿上盔甲托尼大闹恐怖分子的基地,回到美国后又对其进行了改进。却不知,接下来有更为黑暗的阴谋等着他……

获奖情况  

  第81届奥斯卡金像奖(2009)
  最佳视觉效果(提名) 约翰·尼尔森 / Ben Snow / 丹尼尔·萨迪克 / Shane Mahan
  最佳音效剪辑(提名) Frank E. Eulner / 克里斯托弗·博伊斯

  第18届MTV电影奖(2009)
  MTV电影奖 年度电影(提名)
  MTV电影奖 最佳男演员(提名) 小罗伯特·唐尼

  第17届MTV电影奖(2008)
  MTV电影奖 迄今最佳暑期电影

  第9届美国电影学会奖(2008)
  年度佳片



  1. Video
  2. ID                                       : 1
  3. Format                                   : HEVC
  4. Format/Info                              : High Efficiency Video Coding
  5. Format profile                           : Main <a href="/cdn-cgi/l/email-protection" class="__cf_email__" data-cfemail="4f7e7f0f037a617e">[email protected]</a>@High
  6. HDR format                               : SMPTE ST 2086, HDR10 compatible
  7. Codec ID                                 : V_MPEGH/ISO/HEVC
  8. Duration                                 : 2 h 6 min
  9. Bit rate                                 : 54.0 Mb/s
  10. Width                                    : 3 840 pixels
  11. Height                                   : 2 160 pixels
  12. Display aspect ratio                     : 16:9
  13. Frame rate mode                          : Constant
  14. Frame rate                               : 23.976 (24000/1001) FPS
  15. Color space                              : YUV
  16. Chroma subsampling                       : 4:2:0 (Type 2)
  17. Bit depth                                : 10 bits
  18. Bits/(Pixel*Frame)                       : 0.272
  19. Stream size                              : 47.6 GiB (78%)
  20. Title                                    : Iron.Man.2008.2160p.US.BluRay.REMUX.HEVC.DTS-HD.MA.TrueHD.7.1.Atmos-FGT
  21. Language                                 : English
  22. Default                                  : No
  23. Forced                                   : No
  24. Color range                              : Limited
  25. Color primaries                          : BT.2020
  26. Transfer characteristics                 : PQ
  27. Matrix coefficients                      : BT.2020 non-constant
  28. Mastering display color primaries        : Display P3
  29. Mastering display luminance              : min: 0.0050 cd/m2, max: 4000 cd/m2
  30. Maximum Content Light Level              : 826 cd/m2
  31. Maximum Frame-Average Light Level        : 819 cd/m2

  32. Audio #1
  33. ID                                       : 2
  34. Format                                   : MLP FBA 16-ch
  35. Format/Info                              : Meridian Lossless Packing FBA with 16-channel presentation
  36. Commercial name                          : Dolby TrueHD with Dolby Atmos
  37. Codec ID                                 : A_TRUEHD
  38. Duration                                 : 2 h 6 min
  39. Bit rate mode                            : Variable
  40. Bit rate                                 : 4 725 kb/s
  41. Maximum bit rate                         : 7 551 kb/s
  42. Channel(s)                               : 8 channels
  43. Channel layout                           : L R C LFE Ls Rs Lb Rb
  44. Sampling rate                            : 48.0 kHz
  45. Frame rate                               : 1 200.000 FPS (40 SPF)
  46. Compression mode                         : Lossless
  47. Stream size                              : 4.16 GiB (7%)
  48. Title                                    : Iron.Man.2008.2160p.US.BluRay.REMUX.HEVC.DTS-HD.MA.TrueHD.7.1.Atmos-FGT
  49. Language                                 : English
  50. Default                                  : Yes
  51. Forced                                   : No
  52. Number of dynamic objects                : 13
  53. Bed channel count                        : 1 channel
  54. Bed channel configuration                : LFE

  55. Audio #2
  56. ID                                       : 3
  57. Format                                   : DTS XLL
  58. Format/Info                              : Digital Theater Systems
  59. Commercial name                          : DTS-HD Master Audio
  60. Codec ID                                 : A_DTS
  61. Duration                                 : 2 h 6 min
  62. Bit rate mode                            : Variable
  63. Bit rate                                 : 4 368 kb/s
  64. Channel(s)                               : 8 channels
  65. Channel layout                           : C L R LFE Lb Rb Lss Rss
  66. Sampling rate                            : 48.0 kHz
  67. Frame rate                               : 93.750 FPS (512 SPF)
  68. Bit depth                                : 24 bits
  69. Compression mode                         : Lossless
  70. Stream size                              : 3.84 GiB (6%)
  71. Title                                    : Iron.Man.2008.2160p.US.BluRay.REMUX.HEVC.DTS-HD.MA.TrueHD.7.1.Atmos-FGT
  72. Language                                 : English
  73. Default                                  : No
  74. Forced                                   : No

  75. Audio #3
  76. ID                                       : 4
  77. Format                                   : AC-3
  78. Format/Info                              : Audio Coding 3
  79. Commercial name                          : Dolby Digital
  80. Codec ID                                 : A_AC3
  81. Duration                                 : 2 h 6 min
  82. Bit rate mode                            : Constant
  83. Bit rate                                 : 640 kb/s
  84. Channel(s)                               : 6 channels
  85. Channel layout                           : L R C LFE Ls Rs
  86. Sampling rate                            : 48.0 kHz
  87. Frame rate                               : 31.250 FPS (1536 SPF)
  88. Bit depth                                : 16 bits
  89. Compression mode                         : Lossy
  90. Stream size                              : 577 MiB (1%)
  91. Title                                    : Iron.Man.2008.2160p.US.BluRay.REMUX.HEVC.DTS-HD.MA.TrueHD.7.1.Atmos-FGT
  92. Language                                 : English
  93. Service kind                             : Complete Main
  94. Default                                  : No
  95. Forced                                   : No

  96. Audio #4
  97. ID                                       : 5
  98. Format                                   : AC-3
  99. Format/Info                              : Audio Coding 3
  100. Commercial name                          : Dolby Digital
  101. Codec ID                                 : A_AC3
  102. Duration                                 : 2 h 6 min
  103. Bit rate mode                            : Constant
  104. Bit rate                                 : 320 kb/s
  105. Channel(s)                               : 2 channels
  106. Channel layout                           : L R
  107. Sampling rate                            : 48.0 kHz
  108. Frame rate                               : 31.250 FPS (1536 SPF)
  109. Bit depth                                : 16 bits
  110. Compression mode                         : Lossy
  111. Stream size                              : 288 MiB (0%)
  112. Title                                    : Iron.Man.2008.2160p.US.BluRay.REMUX.HEVC.DTS-HD.MA.TrueHD.7.1.Atmos-FGT
  113. Language                                 : English
  114. Service kind                             : Complete Main
  115. Default                                  : No
  116. Forced                                   : No

  117. Audio #5
  118. ID                                       : 6
  119. Format                                   : E-AC-3
  120. Format/Info                              : Enhanced AC-3
  121. Commercial name                          : Dolby Digital Plus
  122. Format profile                           : Blu-ray Disc
  123. Codec ID                                 : A_EAC3
  124. Duration                                 : 2 h 6 min
  125. Bit rate mode                            : Constant
  126. Bit rate                                 : 1 024 kb/s
  127. Channel(s)                               : 8 channels
  128. Channel layout                           : L R C LFE Ls Rs Lb Rb
  129. Sampling rate                            : 48.0 kHz
  130. Frame rate                               : 31.250 FPS (1536 SPF)
  131. Compression mode                         : Lossy
  132. Stream size                              : 923 MiB (1%)
  133. Title                                    : Iron.Man.2008.2160p.US.BluRay.REMUX.HEVC.DTS-HD.MA.TrueHD.7.1.Atmos-FGT
  134. Language                                 : French
  135. Service kind                             : Complete Main
  136. Default                                  : No
  137. Forced                                   : No

  138. Audio #6
  139. ID                                       : 7
  140. Format                                   : AC-3
  141. Format/Info                              : Audio Coding 3
  142. Commercial name                          : Dolby Digital
  143. Codec ID                                 : A_AC3
  144. Duration                                 : 2 h 6 min
  145. Bit rate mode                            : Constant
  146. Bit rate                                 : 576 kb/s
  147. Channel(s)                               : 6 channels
  148. Channel layout                           : L R C LFE Ls Rs
  149. Sampling rate                            : 48.0 kHz
  150. Frame rate                               : 31.250 FPS (1536 SPF)
  151. Bit depth                                : 16 bits
  152. Compression mode                         : Lossy
  153. Stream size                              : 519 MiB (1%)
  154. Title                                    : Iron.Man.2008.2160p.US.BluRay.REMUX.HEVC.DTS-HD.MA.TrueHD.7.1.Atmos-FGT
  155. Language                                 : French
  156. Service kind                             : Complete Main
  157. Default                                  : No
  158. Forced                                   : No

  159. Audio #7
  160. ID                                       : 8
  161. Format                                   : E-AC-3
  162. Format/Info                              : Enhanced AC-3
  163. Commercial name                          : Dolby Digital Plus
  164. Format profile                           : Blu-ray Disc
  165. Codec ID                                 : A_EAC3
  166. Duration                                 : 2 h 6 min
  167. Bit rate mode                            : Constant
  168. Bit rate                                 : 1 024 kb/s
  169. Channel(s)                               : 8 channels
  170. Channel layout                           : L R C LFE Ls Rs Lb Rb
  171. Sampling rate                            : 48.0 kHz
  172. Frame rate                               : 31.250 FPS (1536 SPF)
  173. Compression mode                         : Lossy
  174. Stream size                              : 923 MiB (1%)
  175. Title                                    : Iron.Man.2008.2160p.US.BluRay.REMUX.HEVC.DTS-HD.MA.TrueHD.7.1.Atmos-FGT
  176. Language                                 : Spanish
  177. Service kind                             : Complete Main
  178. Default                                  : No
  179. Forced                                   : No

  180. Audio #8
  181. ID                                       : 9
  182. Format                                   : AC-3
  183. Format/Info                              : Audio Coding 3
  184. Commercial name                          : Dolby Digital
  185. Codec ID                                 : A_AC3
  186. Duration                                 : 2 h 6 min
  187. Bit rate mode                            : Constant
  188. Bit rate                                 : 576 kb/s
  189. Channel(s)                               : 6 channels
  190. Channel layout                           : L R C LFE Ls Rs
  191. Sampling rate                            : 48.0 kHz
  192. Frame rate                               : 31.250 FPS (1536 SPF)
  193. Bit depth                                : 16 bits
  194. Compression mode                         : Lossy
  195. Stream size                              : 519 MiB (1%)
  196. Title                                    : Iron.Man.2008.2160p.US.BluRay.REMUX.HEVC.DTS-HD.MA.TrueHD.7.1.Atmos-FGT
  197. Language                                 : Spanish
  198. Service kind                             : Complete Main
  199. Default                                  : No
  200. Forced                                   : No

  201. Audio #9
  202. ID                                       : 10
  203. Format                                   : E-AC-3
  204. Format/Info                              : Enhanced AC-3
  205. Commercial name                          : Dolby Digital Plus
  206. Format profile                           : Blu-ray Disc
  207. Codec ID                                 : A_EAC3
  208. Duration                                 : 2 h 6 min
  209. Bit rate mode                            : Constant
  210. Bit rate                                 : 1 024 kb/s
  211. Channel(s)                               : 8 channels
  212. Channel layout                           : L R C LFE Ls Rs Lb Rb
  213. Sampling rate                            : 48.0 kHz
  214. Frame rate                               : 31.250 FPS (1536 SPF)
  215. Compression mode                         : Lossy
  216. Stream size                              : 923 MiB (1%)
  217. Title                                    : Iron.Man.2008.2160p.US.BluRay.REMUX.HEVC.DTS-HD.MA.TrueHD.7.1.Atmos-FGT
  218. Language                                 : Italian
  219. Service kind                             : Complete Main
  220. Default                                  : No
  221. Forced                                   : No

  222. Audio #10
  223. ID                                       : 11
  224. Format                                   : AC-3
  225. Format/Info                              : Audio Coding 3
  226. Commercial name                          : Dolby Digital
  227. Codec ID                                 : A_AC3
  228. Duration                                 : 2 h 6 min
  229. Bit rate mode                            : Constant
  230. Bit rate                                 : 576 kb/s
  231. Channel(s)                               : 6 channels
  232. Channel layout                           : L R C LFE Ls Rs
  233. Sampling rate                            : 48.0 kHz
  234. Frame rate                               : 31.250 FPS (1536 SPF)
  235. Bit depth                                : 16 bits
  236. Compression mode                         : Lossy
  237. Stream size                              : 519 MiB (1%)
  238. Title                                    : Iron.Man.2008.2160p.US.BluRay.REMUX.HEVC.DTS-HD.MA.TrueHD.7.1.Atmos-FGT
  239. Language                                 : Italian
  240. Service kind                             : Complete Main
  241. Default                                  : No
  242. Forced                                   : No

  243. Text #1
  244. ID                                       : 12
  245. Format                                   : UTF-8
  246. Codec ID                                 : S_TEXT/UTF8
  247. Codec ID/Info                            : UTF-8 Plain Text
  248. Duration                                 : 1 h 3 min
  249. Bit rate                                 : 1 b/s
  250. Count of elements                        : 38
  251. Stream size                              : 750 Bytes (0%)
  252. Title                                    : English-FORCED-SRT
  253. Language                                 : English
  254. Default                                  : Yes
  255. Forced                                   : Yes

  256. Text #2
  257. ID                                       : 13
  258. Format                                   : UTF-8
  259. Codec ID                                 : S_TEXT/UTF8
  260. Codec ID/Info                            : UTF-8 Plain Text
  261. Duration                                 : 2 h 4 min
  262. Bit rate                                 : 58 b/s
  263. Count of elements                        : 1357
  264. Stream size                              : 53.1 KiB (0%)
  265. Title                                    : English-SRT
  266. Language                                 : English
  267. Default                                  : No
  268. Forced                                   : No

  269. Text #3
  270. ID                                       : 14
  271. Format                                   : PGS
  272. Muxing mode                              : zlib
  273. Codec ID                                 : S_HDMV/PGS
  274. Codec ID/Info                            : Picture based subtitle format used on BDs/HD-DVDs
  275. Duration                                 : 2 h 4 min
  276. Bit rate                                 : 44.7 kb/s
  277. Count of elements                        : 2999
  278. Stream size                              : 39.9 MiB (0%)
  279. Title                                    : English-PGS
  280. Language                                 : English
  281. Default                                  : No
  282. Forced                                   : No

  283. Text #4
  284. ID                                       : 15
  285. Format                                   : PGS
  286. Muxing mode                              : zlib
  287. Codec ID                                 : S_HDMV/PGS
  288. Codec ID/Info                            : Picture based subtitle format used on BDs/HD-DVDs
  289. Duration                                 : 2 h 4 min
  290. Bit rate                                 : 38.1 kb/s
  291. Count of elements                        : 2685
  292. Stream size                              : 34.0 MiB (0%)
  293. Title                                    : French_PGS
  294. Language                                 : French
  295. Default                                  : No
  296. Forced                                   : No

  297. Text #5
  298. ID                                       : 16
  299. Format                                   : PGS
  300. Muxing mode                              : zlib
  301. Codec ID                                 : S_HDMV/PGS
  302. Codec ID/Info                            : Picture based subtitle format used on BDs/HD-DVDs
  303. Duration                                 : 2 h 4 min
  304. Bit rate                                 : 32.7 kb/s
  305. Count of elements                        : 2581
  306. Stream size                              : 29.2 MiB (0%)
  307. Title                                    : Spanish-PGS
  308. Language                                 : Spanish
  309. Default                                  : No
  310. Forced                                   : No

  311. Text #6
  312. ID                                       : 17
  313. Format                                   : PGS
  314. Muxing mode                              : zlib
  315. Codec ID                                 : S_HDMV/PGS
  316. Codec ID/Info                            : Picture based subtitle format used on BDs/HD-DVDs
  317. Duration                                 : 2 h 4 min
  318. Bit rate                                 : 36.5 kb/s
  319. Count of elements                        : 2689
  320. Stream size                              : 32.6 MiB (0%)
  321. Title                                    : Italian-PGS
  322. Language                                 : Italian
  323. Default                                  : No
  324. Forced                                   : No

  325. Text #7
  326. ID                                       : 18
  327. Format                                   : PGS
  328. Muxing mode                              : zlib
  329. Codec ID                                 : S_HDMV/PGS
  330. Codec ID/Info                            : Picture based subtitle format used on BDs/HD-DVDs
  331. Duration                                 : 2 h 4 min
  332. Bit rate                                 : 28.5 kb/s
  333. Count of elements                        : 2529
  334. Stream size                              : 25.4 MiB (0%)
  335. Title                                    : Norwegian-PGS
  336. Language                                 : Norwegian
  337. Default                                  : No
  338. Forced                                   : No

  339. Text #8
  340. ID                                       : 19
  341. Format                                   : PGS
  342. Muxing mode                              : zlib
  343. Codec ID                                 : S_HDMV/PGS
  344. Codec ID/Info                            : Picture based subtitle format used on BDs/HD-DVDs
  345. Duration                                 : 2 h 4 min
  346. Bit rate                                 : 33.4 kb/s
  347. Count of elements                        : 2569
  348. Stream size                              : 29.8 MiB (0%)
  349. Title                                    : Swedish-PGS
  350. Language                                 : Swedish
  351. Default                                  : No
  352. Forced                                   : No

  353. Text #9
  354. ID                                       : 20
  355. Format                                   : PGS
  356. Muxing mode                              : zlib
  357. Codec ID                                 : S_HDMV/PGS
  358. Codec ID/Info                            : Picture based subtitle format used on BDs/HD-DVDs
  359. Duration                                 : 1 h 3 min
  360. Bit rate                                 : 729 b/s
  361. Count of elements                        : 73
  362. Stream size                              : 339 KiB (0%)
  363. Title                                    : English-FORCED-PGS
  364. Language                                 : English
  365. Default                                  : No
  366. Forced                                   : No

  367. Text #10
  368. ID                                       : 21
  369. Format                                   : PGS
  370. Muxing mode                              : zlib
  371. Codec ID                                 : S_HDMV/PGS
  372. Codec ID/Info                            : Picture based subtitle format used on BDs/HD-DVDs
  373. Duration                                 : 1 h 23 min
  374. Bit rate                                 : 665 b/s
  375. Count of elements                        : 75
  376. Stream size                              : 406 KiB (0%)
  377. Title                                    : French-FORCED-PGS
  378. Language                                 : French
  379. Default                                  : No
  380. Forced                                   : No

  381. Text #11
  382. ID                                       : 22
  383. Format                                   : PGS
  384. Muxing mode                              : zlib
  385. Codec ID                                 : S_HDMV/PGS
  386. Codec ID/Info                            : Picture based subtitle format used on BDs/HD-DVDs
  387. Duration                                 : 1 h 3 min
  388. Bit rate                                 : 720 b/s
  389. Count of elements                        : 71
  390. Stream size                              : 335 KiB (0%)
  391. Title                                    : Spanish-FORCED-PGS
  392. Language                                 : Spanish
  393. Default                                  : No
  394. Forced                                   : No

  395. Text #12
  396. ID                                       : 23
  397. Format                                   : PGS
  398. Muxing mode                              : zlib
  399. Codec ID                                 : S_HDMV/PGS
  400. Codec ID/Info                            : Picture based subtitle format used on BDs/HD-DVDs
  401. Duration                                 : 1 h 23 min
  402. Bit rate                                 : 541 b/s
  403. Count of elements                        : 73
  404. Stream size                              : 331 KiB (0%)
  405. Title                                    : Italian-FORCED-PGS
  406. Language                                 : Italian
  407. Default                                  : No
  408. Forced                                   : No

  409. Menu
  410. 00:00:00.000                             : en:Chapter 01
  411. 00:09:04.168                             : en:Chapter 02
  412. 00:17:58.327                             : en:Chapter 03
  413. 00:26:47.939                             : en:Chapter 04
  414. 00:34:59.806                             : en:Chapter 05
  415. 00:43:13.257                             : en:Chapter 06
  416. 00:52:36.361                             : en:Chapter 07
  417. 00:59:22.642                             : en:Chapter 08
  418. 01:07:30.212                             : en:Chapter 09
  419. 01:11:41.964                             : en:Chapter 10
  420. 01:18:29.204                             : en:Chapter 11
  421. 01:24:38.573                             : en:Chapter 12
  422. 01:34:58.109                             : en:Chapter 13
  423. 01:44:27.094                             : en:Chapter 14
  424. 01:53:29.469                             : en:Chapter 15
复制代码

钢铁侠/钢铁人 Iron.Man.2008.2160p.US.BluRay.REMUX.HEVC.DTS-HD.MA.TrueHD.7.1.Atmos-FGT 60.78GB-2.png 钢铁侠/钢铁人 Iron.Man.2008.2160p.US.BluRay.REMUX.HEVC.DTS-HD.MA.TrueHD.7.1.Atmos-FGT 60.78GB-3.png 钢铁侠/钢铁人 Iron.Man.2008.2160p.US.BluRay.REMUX.HEVC.DTS-HD.MA.TrueHD.7.1.Atmos-FGT 60.78GB-4.png







开通VIP免费下载本站所有资源---点这里
新手必看:资源下载、资源播放、字幕使用、等常见问题---点这里
回复

使用道具 举报

发表于 2019-8-10 17:37:07 | 显示全部楼层
谢谢楼主分享
开通VIP免费下载本站所有资源---点这里
新手必看:资源下载、资源播放、字幕使用、等常见问题---点这里
回复 支持 反对

使用道具 举报

发表于 2019-8-10 22:08:24 | 显示全部楼层
1,2,3有种子吗?
开通VIP免费下载本站所有资源---点这里
新手必看:资源下载、资源播放、字幕使用、等常见问题---点这里
回复 支持 反对

使用道具 举报

发表于 2019-8-13 01:54:16 | 显示全部楼层

谢谢楼主分享
开通VIP免费下载本站所有资源---点这里
新手必看:资源下载、资源播放、字幕使用、等常见问题---点这里
回复 支持 反对

使用道具 举报

发表于 6 天前 | 显示全部楼层

这东西我收了!谢谢楼主!蓝光电影网真好!
开通VIP免费下载本站所有资源---点这里
新手必看:资源下载、资源播放、字幕使用、等常见问题---点这里
回复 支持 反对

使用道具 举报

发表于 6 天前 | 显示全部楼层

其实我一直觉得楼主的品味不错!呵呵!蓝光电影网太棒了!
开通VIP免费下载本站所有资源---点这里
新手必看:资源下载、资源播放、字幕使用、等常见问题---点这里
回复 支持 反对

使用道具 举报

懒得打字嘛,点击右侧快捷回复 【右侧内容,后台自定义】
您需要登录后才可以回帖 登录 | 立即加入

本版积分规则

现在加入蓝光电影网,注册一个账号

QQ| 手机版|小黑屋| 蓝光电影网 |网站地图

Copyright © 2015-2019 Comsenz Inc.  Template by 蓝光电影网 All Rights Reserved.

Powered by 蓝光电影网 X3.4

特别声明:本站所有资源均由网上收集而来,版权归原影音公司所有,如果侵犯了你的权益,请通知我们,我们会及时删除侵权内容.

快速回复 返回顶部 返回列表