找回密码

蓝光电影网

查看: 73|回复: 1

[8bit.SDR] 钢铁侠/钢铁人 Iron.Man.2008.2160p.US.BluRay.x264.8bit.SDR.DTS-HD.MA.TrueHD.7.1.Atmos-SWTYBLZ 32.43GB

[复制链接]

 成长值: 1015

发表于 2019-8-10 14:19:50 | 显示全部楼层 |阅读模式
钢铁侠/钢铁人 Iron.Man.2008.2160p.US.BluRay.x264.8bit.SDR.DTS-HD.MA.TrueHD.7.1.Atmos-SWTYBLZ 32.43GB-1.png

译  名 钢铁侠 / 钢铁人(台) / 铁人 / 铁甲奇侠(港)
片  名 Iron Man
年  代 2008
产  地 美国
类  别 动作 / 科幻 / 惊悚 / 冒险
语  言 英语 / 波斯语 / 乌尔都语 / 阿拉伯语
上映日期 2008-04-14(悉尼首映) / 2008-04-30(中国大陆) / 2008-05-02(美国)
IMDb评分  7.9/10 from 873040 users
IMDb链接  http://www.imdb.com/title/tt0371746
豆瓣评分 8.2/10 from 397473 users
豆瓣链接 https://movie.douban.com/subject/1432146/
片  长 126 分钟
导  演 乔恩·费儒 Jon Favreau
编  剧 特·马库姆 Art Marcum / 马特?霍洛维 Matt Holloway / 马克·弗格斯 Mark Fergus / 霍克·奥斯比 Hawk Ostby
主  演 小罗伯特·唐尼 Robert Downey Jr.
      泰伦斯·霍华德 Terrence Howard
      格温妮斯·帕特洛 Gwyneth Paltrow
      杰夫·布里吉斯 Jeff Bridges
      莱丝莉·比伯 Leslie Bibb
      肖恩·托布  Shaun Toub
      保罗·贝坦尼 Paul Bettany
      乔恩·费儒 Jon Favreau
      克拉克·格雷格 Clark Gregg


标  签 科幻 | 美国 | 动作 | 超级英雄 | 漫威 | marvel | 2008 | 漫画改编

简  介  

  斯塔克军火公司是美军在全球范围内第一大军火供应商,其新任掌门人托尼?斯塔克(小罗伯特·唐尼 Robert Downey Jr. 饰)风流倜傥,天资聪颖。他与公司元老俄巴迪亚?斯坦(杰夫·布里吉斯 Jeff Bridges 饰)合作无间,共同将斯塔克公司的业务推向顶峰。现 实生活中的托尼热衷收集名贵跑车,搞点儿发明创造,当然露水姻缘更不可少。所幸他身边有维吉尼亚?波茨(格温妮斯·帕特洛 Gwyneth Paltrow 饰)这样的好助手细心打理一切,才让他能自由自在过着贵公子的生活。
在前往中东为军方展示新型武器的途中,托尼一众遭到恐怖分子袭击。他被弹片击中险些丧命,在英森博士的帮助下,托尼体内移植了一颗核动力的人工心脏。恐怖分子要求托尼制造强大的杀伤性武器,他和英森虚与委蛇,暗中制造了一套由聚变能源驱动的钢铁盔甲。穿上盔甲托尼大闹恐怖分子的基地,回到美国后又对其进行了改进。却不知,接下来有更为黑暗的阴谋等着他……

获奖情况  

  第81届奥斯卡金像奖(2009)
  最佳视觉效果(提名) 约翰·尼尔森 / Ben Snow / 丹尼尔·萨迪克 / Shane Mahan
  最佳音效剪辑(提名) Frank E. Eulner / 克里斯托弗·博伊斯

  第18届MTV电影奖(2009)
  MTV电影奖 年度电影(提名)
  MTV电影奖 最佳男演员(提名) 小罗伯特·唐尼

  第17届MTV电影奖(2008)
  MTV电影奖 迄今最佳暑期电影

  第9届美国电影学会奖(2008)
  年度佳片



  1. Video
  2. ID                                       : 1
  3. Format                                   : AVC
  4. Format/Info                              : Advanced Video Codec
  5. Format profile                           : <a href="/cdn-cgi/l/email-protection" class="__cf_email__" data-cfemail="82caebe5eac2ceb7acb3">[email protected]</a>
  6. Format settings                          : CABAC / 5 Ref Frames
  7. Format settings, CABAC                   : Yes
  8. Format settings, Reference frames        : 5 frames
  9. Codec ID                                 : V_MPEG4/ISO/AVC
  10. Duration                                 : 2 h 6 min
  11. Bit rate                                 : 26.9 Mb/s
  12. Width                                    : 3 840 pixels
  13. Height                                   : 1 600 pixels
  14. Display aspect ratio                     : 2.40:1
  15. Frame rate mode                          : Constant
  16. Frame rate                               : 23.976 (24000/1001) FPS
  17. Color space                              : YUV
  18. Chroma subsampling                       : 4:2:0
  19. Bit depth                                : 8 bits
  20. Scan type                                : Progressive
  21. Bits/(Pixel*Frame)                       : 0.182
  22. Stream size                              : 23.6 GiB (73%)
  23. Title                                    : Iron.Man.2008.US.2160p.BluRay.x264.8bit.SDR.DTS-HD.MA.TrueHD.7.1.Atmos-SWTYBLZ
  24. Writing library                          : x264 core 157 r2935 545de2f
  25. Encoding settings                        : cabac=1 / ref=5 / deblock=1:-1:-1 / analyse=0x3:0x113 / me=umh / subme=10 / psy=1 / psy_rd=1.00:0.15 / mixed_ref=1 / me_range=48 / chroma_me=1 / trellis=2 / 8x8dct=1 / cqm=0 / deadzone=21,11 / fast_pskip=1 / chroma_qp_offset=-3 / threads=48 / lookahead_threads=4 / sliced_threads=0 / nr=0 / decimate=0 / interlaced=0 / bluray_compat=0 / constrained_intra=0 / bframes=3 / b_pyramid=2 / b_adapt=2 / b_bias=0 / direct=3 / weightb=1 / open_gop=0 / weightp=2 / keyint=250 / keyint_min=23 / scenecut=40 / intra_refresh=0 / rc_lookahead=50 / rc=crf / mbtree=1 / crf=18.0 / qcomp=0.60 / qpmin=0 / qpmax=69 / qpstep=4 / ip_ratio=1.40 / aq=1:1.00
  26. Default                                  : Yes
  27. Forced                                   : No

  28. Audio #1
  29. ID                                       : 2
  30. Format                                   : MLP FBA 16-ch
  31. Format/Info                              : Meridian Lossless Packing FBA with 16-channel presentation
  32. Commercial name                          : Dolby TrueHD with Dolby Atmos
  33. Codec ID                                 : A_TRUEHD
  34. Duration                                 : 2 h 6 min
  35. Bit rate mode                            : Variable
  36. Bit rate                                 : 4 725 kb/s
  37. Maximum bit rate                         : 7 551 kb/s
  38. Channel(s)                               : 8 channels
  39. Channel layout                           : L R C LFE Ls Rs Lb Rb
  40. Sampling rate                            : 48.0 kHz
  41. Frame rate                               : 1 200.000 FPS (40 SPF)
  42. Compression mode                         : Lossless
  43. Stream size                              : 4.16 GiB (13%)
  44. Title                                    : Iron.Man.2008.US.2160p.BluRay.x264.8bit.SDR.DTS-HD.MA.TrueHD.7.1.Atmos-SWTYBLZ
  45. Language                                 : English
  46. Default                                  : Yes
  47. Forced                                   : No
  48. Number of dynamic objects                : 13
  49. Bed channel count                        : 1 channel
  50. Bed channel configuration                : LFE

  51. Audio #2
  52. ID                                       : 3
  53. Format                                   : DTS XLL
  54. Format/Info                              : Digital Theater Systems
  55. Commercial name                          : DTS-HD Master Audio
  56. Codec ID                                 : A_DTS
  57. Duration                                 : 2 h 6 min
  58. Bit rate mode                            : Variable
  59. Bit rate                                 : 4 368 kb/s
  60. Channel(s)                               : 8 channels
  61. Channel layout                           : C L R LFE Lb Rb Lss Rss
  62. Sampling rate                            : 48.0 kHz
  63. Frame rate                               : 93.750 FPS (512 SPF)
  64. Bit depth                                : 24 bits
  65. Compression mode                         : Lossless
  66. Stream size                              : 3.84 GiB (12%)
  67. Title                                    : Iron.Man.2008.US.2160p.BluRay.x264.8bit.SDR.DTS-HD.MA.TrueHD.7.1.Atmos-SWTYBLZ
  68. Language                                 : English
  69. Default                                  : No
  70. Forced                                   : No

  71. Audio #3
  72. ID                                       : 4
  73. Format                                   : AC-3
  74. Format/Info                              : Audio Coding 3
  75. Commercial name                          : Dolby Digital
  76. Codec ID                                 : A_AC3
  77. Duration                                 : 2 h 6 min
  78. Bit rate mode                            : Constant
  79. Bit rate                                 : 640 kb/s
  80. Channel(s)                               : 6 channels
  81. Channel layout                           : L R C LFE Ls Rs
  82. Sampling rate                            : 48.0 kHz
  83. Frame rate                               : 31.250 FPS (1536 SPF)
  84. Bit depth                                : 16 bits
  85. Compression mode                         : Lossy
  86. Stream size                              : 577 MiB (2%)
  87. Title                                    : Iron.Man.2008.US.2160p.BluRay.x264.8bit.SDR.DTS-HD.MA.TrueHD.7.1.Atmos-SWTYBLZ
  88. Language                                 : English
  89. Service kind                             : Complete Main
  90. Default                                  : No
  91. Forced                                   : No

  92. Text #1
  93. ID                                       : 5
  94. Format                                   : UTF-8
  95. Codec ID                                 : S_TEXT/UTF8
  96. Codec ID/Info                            : UTF-8 Plain Text
  97. Duration                                 : 1 h 3 min
  98. Bit rate                                 : 1 b/s
  99. Count of elements                        : 38
  100. Stream size                              : 750 Bytes (0%)
  101. Title                                    : English-FORCED-SRT
  102. Language                                 : English
  103. Default                                  : Yes
  104. Forced                                   : Yes

  105. Text #2
  106. ID                                       : 6
  107. Format                                   : UTF-8
  108. Codec ID                                 : S_TEXT/UTF8
  109. Codec ID/Info                            : UTF-8 Plain Text
  110. Duration                                 : 2 h 4 min
  111. Bit rate                                 : 58 b/s
  112. Count of elements                        : 1357
  113. Stream size                              : 53.1 KiB (0%)
  114. Title                                    : English-SRT
  115. Language                                 : English
  116. Default                                  : No
  117. Forced                                   : No

  118. Text #3
  119. ID                                       : 7
  120. Format                                   : PGS
  121. Muxing mode                              : zlib
  122. Codec ID                                 : S_HDMV/PGS
  123. Codec ID/Info                            : Picture based subtitle format used on BDs/HD-DVDs
  124. Duration                                 : 1 h 3 min
  125. Bit rate                                 : 729 b/s
  126. Count of elements                        : 73
  127. Stream size                              : 339 KiB (0%)
  128. Title                                    : English-FORCED-PGS
  129. Language                                 : English
  130. Default                                  : No
  131. Forced                                   : No

  132. Text #4
  133. ID                                       : 8
  134. Format                                   : PGS
  135. Muxing mode                              : zlib
  136. Codec ID                                 : S_HDMV/PGS
  137. Codec ID/Info                            : Picture based subtitle format used on BDs/HD-DVDs
  138. Duration                                 : 2 h 4 min
  139. Bit rate                                 : 33.9 kb/s
  140. Count of elements                        : 2678
  141. Stream size                              : 30.1 MiB (0%)
  142. Title                                    : English-PGS
  143. Language                                 : English
  144. Default                                  : No
  145. Forced                                   : No

  146. Text #5
  147. ID                                       : 9
  148. Format                                   : PGS
  149. Muxing mode                              : zlib
  150. Codec ID                                 : S_HDMV/PGS
  151. Codec ID/Info                            : Picture based subtitle format used on BDs/HD-DVDs
  152. Duration                                 : 2 h 4 min
  153. Bit rate                                 : 44.7 kb/s
  154. Count of elements                        : 2999
  155. Stream size                              : 39.9 MiB (0%)
  156. Title                                    : English-PGS
  157. Language                                 : English
  158. Default                                  : No
  159. Forced                                   : No

  160. Text #6
  161. ID                                       : 10
  162. Format                                   : PGS
  163. Muxing mode                              : zlib
  164. Codec ID                                 : S_HDMV/PGS
  165. Codec ID/Info                            : Picture based subtitle format used on BDs/HD-DVDs
  166. Duration                                 : 2 h 4 min
  167. Bit rate                                 : 38.1 kb/s
  168. Count of elements                        : 2685
  169. Stream size                              : 34.0 MiB (0%)
  170. Title                                    : French-PGS
  171. Language                                 : French
  172. Default                                  : No
  173. Forced                                   : No

  174. Text #7
  175. ID                                       : 11
  176. Format                                   : PGS
  177. Muxing mode                              : zlib
  178. Codec ID                                 : S_HDMV/PGS
  179. Codec ID/Info                            : Picture based subtitle format used on BDs/HD-DVDs
  180. Duration                                 : 2 h 4 min
  181. Bit rate                                 : 36.5 kb/s
  182. Count of elements                        : 2689
  183. Stream size                              : 32.6 MiB (0%)
  184. Title                                    : Italian-PGS
  185. Language                                 : Italian
  186. Default                                  : No
  187. Forced                                   : No

  188. Text #8
  189. ID                                       : 12
  190. Format                                   : PGS
  191. Muxing mode                              : zlib
  192. Codec ID                                 : S_HDMV/PGS
  193. Codec ID/Info                            : Picture based subtitle format used on BDs/HD-DVDs
  194. Duration                                 : 2 h 4 min
  195. Bit rate                                 : 28.5 kb/s
  196. Count of elements                        : 2529
  197. Stream size                              : 25.4 MiB (0%)
  198. Title                                    : Norwegian-PGS
  199. Language                                 : Norwegian
  200. Default                                  : No
  201. Forced                                   : No

  202. Text #9
  203. ID                                       : 13
  204. Format                                   : PGS
  205. Muxing mode                              : zlib
  206. Codec ID                                 : S_HDMV/PGS
  207. Codec ID/Info                            : Picture based subtitle format used on BDs/HD-DVDs
  208. Duration                                 : 2 h 4 min
  209. Bit rate                                 : 33.4 kb/s
  210. Count of elements                        : 2569
  211. Stream size                              : 29.8 MiB (0%)
  212. Title                                    : Swedish-PGS
  213. Language                                 : Swedish
  214. Default                                  : No
  215. Forced                                   : No

  216. Menu
  217. 00:00:00.000                             : en:Chapter 01
  218. 00:09:04.169                             : en:Chapter 02
  219. 00:17:58.577                             : en:Chapter 03
  220. 00:26:47.940                             : en:Chapter 04
  221. 00:34:59.848                             : en:Chapter 05
  222. 00:43:13.257                             : en:Chapter 06
  223. 00:52:36.487                             : en:Chapter 07
  224. 00:59:22.642                             : en:Chapter 08
  225. 01:07:30.421                             : en:Chapter 09
  226. 01:11:42.298                             : en:Chapter 10
  227. 01:18:29.204                             : en:Chapter 11
  228. 01:24:38.573                             : en:Chapter 12
  229. 01:34:58.109                             : en:Chapter 13
  230. 01:44:27.344                             : en:Chapter 14
  231. 01:53:29.469                             : en:Chapter 15
复制代码

钢铁侠/钢铁人 Iron.Man.2008.2160p.US.BluRay.x264.8bit.SDR.DTS-HD.MA.TrueHD.7.1.Atmos-SWTYBLZ 32.43GB-2.png 钢铁侠/钢铁人 Iron.Man.2008.2160p.US.BluRay.x264.8bit.SDR.DTS-HD.MA.TrueHD.7.1.Atmos-SWTYBLZ 32.43GB-3.png 钢铁侠/钢铁人 Iron.Man.2008.2160p.US.BluRay.x264.8bit.SDR.DTS-HD.MA.TrueHD.7.1.Atmos-SWTYBLZ 32.43GB-4.png 钢铁侠/钢铁人 Iron.Man.2008.2160p.US.BluRay.x264.8bit.SDR.DTS-HD.MA.TrueHD.7.1.Atmos-SWTYBLZ 32.43GB-5.png 钢铁侠/钢铁人 Iron.Man.2008.2160p.US.BluRay.x264.8bit.SDR.DTS-HD.MA.TrueHD.7.1.Atmos-SWTYBLZ 32.43GB-6.png 钢铁侠/钢铁人 Iron.Man.2008.2160p.US.BluRay.x264.8bit.SDR.DTS-HD.MA.TrueHD.7.1.Atmos-SWTYBLZ 32.43GB-7.png 钢铁侠/钢铁人 Iron.Man.2008.2160p.US.BluRay.x264.8bit.SDR.DTS-HD.MA.TrueHD.7.1.Atmos-SWTYBLZ 32.43GB-8.png






开通VIP免费下载本站所有资源---点这里
新手必看:资源下载、资源播放、字幕使用、等常见问题---点这里
回复

使用道具 举报

发表于 2019-8-10 14:27:45 | 显示全部楼层
楼主发贴辛苦了,谢谢楼主分享!我觉得蓝光电影网是注册对了!
开通VIP免费下载本站所有资源---点这里
新手必看:资源下载、资源播放、字幕使用、等常见问题---点这里
回复 支持 反对

使用道具 举报

懒得打字嘛,点击右侧快捷回复 【右侧内容,后台自定义】
您需要登录后才可以回帖 登录 | 立即加入

本版积分规则

现在加入蓝光电影网,注册一个账号

QQ| 手机版|小黑屋| 蓝光电影网 |网站地图

Copyright © 2015-2019 Comsenz Inc.  Template by 蓝光电影网 All Rights Reserved.

Powered by 蓝光电影网 X3.4

特别声明:本站所有资源均由网上收集而来,版权归原影音公司所有,如果侵犯了你的权益,请通知我们,我们会及时删除侵权内容.

快速回复 返回顶部 返回列表