找回密码

蓝光电影网

查看: 3163|回复: 94

[10bit.SDR] 复仇者联盟4:终局之战 Avengers.Endgame.2019.2160p.BluRay.x265.10bit.SDR.DTS-HD.MA.TrueHD.7.1.Atmos-SWTYBLZ 35.26GB

  [复制链接]

 成长值: 2290

发表于 2019-8-3 14:24:40 | 显示全部楼层 |阅读模式
复仇者联盟4:终局之战 Avengers.Endgame.2019.2160p.BluRay.x265.10bit.SDR.DTS-HD.MA.TrueHD.7.1.Atmos-SWTYBLZ 35.26GB-1.png

译  名 复仇者联盟4:终局之战 / AVG4 / Avengers: Infinity War - Part II / The Avengers 3: Part 2 / The Avengers 4: Endgame / 复仇者联盟3:无尽之战(下) / 复联4
片  名 Avengers: Endgame
年  代 2019
产  地 美国
类  别 动作 / 科幻 / 奇幻 / 冒险
语  言 英语 / 日语 / 科萨语
上映日期 2019-04-24(中国大陆) / 2019-04-26(美国)
IMDb评分8.7/10 from 487015 users
IMDb链接http://www.imdb.com/title/tt4154796
豆瓣评分 8.6/10 from 630015 users
豆瓣链接 https://movie.douban.com/subject/26100958/
片  长 181分钟
导  演 安东尼·罗素 Anthony Russo / 乔·罗素 Joe Russo
编  剧 克里斯托弗·马库斯 Christopher Markus / 斯蒂芬·麦克菲利 Stephen McFeely / 斯坦·李 Stan Lee / 杰克·科比 Jack Kirby / 吉姆·斯特林 Jim Starlin
主  演 小罗伯特·唐尼 Robert Downey Jr.
      克里斯·埃文斯 Chris Evans
      马克·鲁弗洛 Mark Ruffalo
      克里斯·海姆斯沃斯 Chris Hemsworth
      斯嘉丽·约翰逊 Scarlett Johansson
      杰瑞米·雷纳 Jeremy Renner
      保罗·路德 Paul Rudd
      凯伦·吉兰 Karen Gillan
      唐·钱德尔 Don Cheadle
      布丽·拉尔森 Brie Larson
      布莱德利·库珀 Bradley Cooper
      泰莎·汤普森 Tessa Thompson
      汤姆·赫兰德 Tom Holland
      伊丽莎白·奥尔森 Elizabeth Olsen
      本尼迪克特·康伯巴奇 Benedict Cumberbatch
      蒂尔达·斯文顿 Tilda Swinton
      格温妮斯·帕特洛 Gwyneth Paltrow
      蕾妮·罗素 Rene Russo
      约翰·斯拉特里 John Slattery
      查德维克·博斯曼 Chadwick Boseman
      安东尼·麦凯 Anthony Mackie
      塞巴斯蒂安·斯坦 Sebastian Stan
      克里斯·帕拉特 Chris Pratt
      汤姆·希德勒斯顿 Tom Hiddleston
      佐伊·索尔达娜 Zoe Saldana
      丹娜·奎里拉 Danai Gurira
      本尼迪克特·王 Benedict Wong
      庞·克莱门捷夫 Pom Klementieff
      戴夫·巴蒂斯塔 Dave Bautista
      利蒂希娅·赖特 Letitia Wright
      伊万杰琳·莉莉 Evangeline Lilly
      乔恩·费儒 Jon Favreau
      海莉·阿特维尔 Hayley Atwell
      娜塔莉·波特曼 Natalie Portman
      玛丽莎·托梅 Marisa Tomei
      塔伊加·维迪提 Taika Waititi
      安吉拉·贝塞特 Angela Bassett
      迈克尔·道格拉斯 Michael Douglas
      米歇尔·菲佛 Michelle Pfeiffer
      威廉·赫特 William Hurt
      寇碧·史莫德斯 Cobie Smulders
      肖恩·古恩 Sean Gunn
      温斯顿·杜克 Winston Duke
      琳达·卡德里尼 Linda Cardellini
      马克斯米利亚诺·赫尔南德斯 Maximiliano Hernández
      弗兰克·格里罗 Frank Grillo
      真田广之 Hiroyuki Sanada
      汤姆-沃恩-劳勒 Tom Vaughan-Lawlor
      詹姆斯·达西 James D'Arcy
      雅各布·巴特朗 Jacob Batalon
      范·迪塞尔 Vin Diesel
      罗伯特·雷德福 Robert Redford
      乔什·布洛林 Josh Brolin
      塞缪尔·杰克逊 Samuel L. Jackson
      伊薇特·尼科尔·布朗 Yvette Nicole Brown
      卡梅伦·布鲁姆布罗 Cameron Brumbelow
      蒂莫西·卡尔 Timothy Carr
      凯瑞·康顿 Kerry Condon
      迈克尔·A·库克 Michael A. Cook
      凯莉·库恩 Carrie Coon
      艾玛·福尔曼 Emma Fuhrmann
      雷纳·加拉赫 Renah Gallagher
      丹妮拉·加斯基 Daniela Gaskie
      郑肯 Ken Jeong
      小弗洛伊德·安东尼·约翰 Floyd Anthony Johns Jr.
      斯坦·李 Stan Lee
      罗斯·马昆德 Ross Marquand
      布伦特·麦吉 Brent McGee
      迈克尔·皮耶里诺·米勒 Michael Pierino Miller
      卡兰·马尔韦 Callan Mulvey
      泰瑞·诺塔里 Terry Notary
      吉米·雷·皮肯斯 Jimmy Ray Pickens
      迈克尔·詹姆斯·肖 Michael James Shaw
      泰·辛普金斯 Ty Simpkins
      格雷格·蒂芬 Greg Tiffan


标  签 漫威 | 超级英雄 | 科幻 | 美国 | 2019 | 情怀 | 动作 | 漫画改编

简  介

  一声响指,宇宙间半数生命灰飞烟灭。几近绝望的复仇者们在惊奇队长(布丽·拉尔森 Brie Larson 饰)的帮助下找到灭霸(乔什·布洛林 Josh Brolin 饰)归隐之处,却得知六颗无限宝石均被销毁,希望彻底破灭。如是过了五年,迷失在量子领域的蚁人(保罗·路德 Paul Rudd 饰)意外回到现实世界,他的出现为幸存的复仇者们点燃了希望。与美国队长(克里斯·埃文斯 Chris Evans 饰)冰释前嫌的托尼(小罗伯特·唐尼 Robert Downey Jr. 饰)找到了穿越时空的方法,星散各地的超级英雄再度集结,他们分别穿越不同的时代去搜集无限宝石。而在这一过程中,平行宇宙的灭霸察觉了他们的计划。
注定要载入史册的最终决战,超级英雄们为了心中恪守的信念前仆后继……

获奖情况

  第28届MTV电影奖(2019)
  MTV电影奖 年度电影
  MTV电影奖 最佳打斗(提名) 乔什·布洛林 / 克里斯·埃文斯
  MTV电影奖 最佳反派 乔什·布洛林
  MTV电影奖 最佳英雄形象 小罗伯特·唐尼

  第5届豆瓣电影年度榜单(2018)
  最值得期待的外语电影

  1. Video
  2. ID : 1
  3. Format : HEVC
  4. Format/Info : High Efficiency Video Coding
  5. Format profile : Main 10@L5.1@High
  6. Codec ID : V_MPEGH/ISO/HEVC
  7. Duration : 3 h 1 min
  8. Bit rate : 17.9 Mb/s
  9. Width : 3 840 pixels
  10. Height : 1 608 pixels
  11. Display aspect ratio : 2.40:1
  12. Frame rate mode : Constant
  13. Frame rate : 23.976 (24000/1001) FPS
  14. Color space : YUV
  15. Chroma subsampling : 4:2:0
  16. Bit depth : 10 bits
  17. Bits/(Pixel*Frame) : 0.121
  18. Stream size : 22.6 GiB (64%)
  19. Title : Avengers.Endgame.2019.2160p.BluRay.x265.10bit.SDR.DTS-HD.MA.TrueHD.7.1.Atmos-SWTYBLZ
  20. Writing library : x265 3.0ed72af837053:[Windows][GCC 8.2.0][64 bit] 10bit
  21. Encoding settings : cpuid=1111039 / frame-threads=16 / numa-pools=44,44 / wpp / no-pmode / no-pme / no-psnr / no-ssim / log-level=2 / input-csp=1 / input-res=3840x1608 / interlace=0 / total-frames=260656 / level-idc=51 / high-tier=1 / uhd-bd=0 / ref=3 / no-allow-non-conformance / repeat-headers / annexb / aud / hrd / info / hash=0 / no-temporal-layers / no-open-gop / min-keyint=1 / keyint=24 / gop-lookahead=0 / bframes=4 / b-adapt=2 / b-pyramid / bframe-bias=0 / rc-lookahead=25 / lookahead-slices=4 / scenecut=40 / radl=0 / no-splice / no-intra-refresh / ctu=64 / min-cu-size=8 / no-rect / no-amp / max-tu-size=32 / tu-inter-depth=1 / tu-intra-depth=1 / limit-tu=0 / rdoq-level=0 / dynamic-rd=0.00 / no-ssim-rd / signhide / no-tskip / nr-intra=0 / nr-inter=0 / no-constrained-intra / strong-intra-smoothing / max-merge=2 / limit-refs=3 / no-limit-modes / me=1 / subme=2 / merange=57 / temporal-mvp / weightp / no-weightb / no-analyze-src-pics / deblock=0:0 / no-sao / no-sao-non-deblock / rd=3 / no-early-skip / rskip / no-fast-intra / no-tskip-fast / no-cu-lossless / no-b-intra / no-splitrd-skip / rdpenalty=0 / psy-rd=2.00 / psy-rdoq=0.00 / no-rd-refine / no-lossless / cbqpoffs=0 / crqpoffs=0 / rc=crf / crf=16.0 / qcomp=0.60 / qpstep=4 / stats-write=0 / stats-read=0 / vbv-maxrate=160000 / vbv-bufsize=160000 / vbv-init=0.9 / crf-max=0.0 / crf-min=0.0 / ipratio=1.40 / pbratio=1.30 / aq-mode=1 / aq-strength=1.00 / cutree / zone-count=0 / no-strict-cbr / qg-size=32 / no-rc-grain / qpmax=69 / qpmin=0 / no-const-vbv / sar=1 / overscan=0 / videoformat=5 / range=0 / colorprim=2 / transfer=2 / colormatrix=2 / chromaloc=0 / display-window=0 / max-cll=0,0 / min-luma=0 / max-luma=1023 / log2-max-poc-lsb=8 / vui-timing-info / vui-hrd-info / slices=1 / opt-qp-pps / opt-ref-list-length-pps / no-multi-pass-opt-rps / scenecut-bias=0.05 / no-opt-cu-delta-qp / no-aq-motion / no-hdr / no-hdr-opt / no-dhdr10-opt / no-idr-recovery-sei / analysis-reuse-level=5 / scale-factor=0 / refine-intra=0 / refine-inter=0 / refine-mv=0 / refine-ctu-distortion=0 / no-limit-sao / ctu-info=0 / no-lowpass-dct / refine-analysis-type=0 / copy-pic=1 / max-ausize-factor=1.0 / no-dynamic-refine / no-single-sei / no-hevc-aq / qp-adaptation-range=1.00
  22. Default : Yes
  23. Forced : No

  24. Audio #1
  25. ID : 2
  26. Format : MLP FBA 16-ch
  27. Format/Info : Meridian Lossless Packing FBA with 16-channel presentation
  28. Commercial name : Dolby TrueHD with Dolby Atmos
  29. Codec ID : A_TRUEHD
  30. Duration : 3 h 1 min
  31. Bit rate mode : Variable
  32. Bit rate : 4 777 kb/s
  33. Maximum bit rate : 8 430 kb/s
  34. Channel(s) : 8 channels
  35. Channel layout : L R C LFE Ls Rs Lb Rb
  36. Sampling rate : 48.0 kHz
  37. Frame rate : 1 200.000 FPS (40 SPF)
  38. Compression mode : Lossless
  39. Stream size : 6.05 GiB (17%)
  40. Title : Avengers.Endgame.2019.2160p.BluRay.x265.10bit.SDR.DTS-HD.MA.TrueHD.7.1.Atmos-SWTYBLZ
  41. Language : English
  42. Default : Yes
  43. Forced : No
  44. Number of dynamic objects : 13
  45. Bed channel count : 1 channel
  46. Bed channel configuration : LFE

  47. Audio #2
  48. ID : 3
  49. Format : DTS XLL
  50. Format/Info : Digital Theater Systems
  51. Commercial name : DTS-HD Master Audio
  52. Codec ID : A_DTS
  53. Duration : 3 h 1 min
  54. Bit rate mode : Variable
  55. Bit rate : 4 416 kb/s
  56. Channel(s) : 8 channels
  57. Channel layout : C L R LFE Lb Rb Lss Rss
  58. Sampling rate : 48.0 kHz
  59. Frame rate : 93.750 FPS (512 SPF)
  60. Bit depth : 24 bits
  61. Compression mode : Lossless
  62. Stream size : 5.59 GiB (16%)
  63. Title : Avengers.Endgame.2019.2160p.BluRay.x265.10bit.SDR.DTS-HD.MA.TrueHD.7.1.Atmos-SWTYBLZ
  64. Language : English
  65. Default : No
  66. Forced : No

  67. Audio #3
  68. ID : 4
  69. Format : AC-3
  70. Format/Info : Audio Coding 3
  71. Commercial name : Dolby Digital
  72. Codec ID : A_AC3
  73. Duration : 3 h 1 min
  74. Bit rate mode : Constant
  75. Bit rate : 640 kb/s
  76. Channel(s) : 6 channels
  77. Channel layout : L R C LFE Ls Rs
  78. Sampling rate : 48.0 kHz
  79. Frame rate : 31.250 FPS (1536 SPF)
  80. Bit depth : 16 bits
  81. Compression mode : Lossy
  82. Stream size : 829 MiB (2%)
  83. Title : Avengers.Endgame.2019.2160p.BluRay.x265.10bit.SDR.DTS-HD.MA.TrueHD.7.1.Atmos-SWTYBLZ
  84. Language : English
  85. Service kind : Complete Main
  86. Default : No
  87. Forced : No

  88. Text #1
  89. ID : 5
  90. Format : UTF-8
  91. Codec ID : S_TEXT/UTF8
  92. Codec ID/Info : UTF-8 Plain Text
  93. Duration : 2 h 47 min
  94. Bit rate : 49 b/s
  95. Count of elements : 2329
  96. Stream size : 61.1 KiB (0%)
  97. Title : English-SRT
  98. Language : English
  99. Default : Yes
  100. Forced : No

  101. Text #2
  102. ID : 6
  103. Format : UTF-8
  104. Codec ID : S_TEXT/UTF8
  105. Codec ID/Info : UTF-8 Plain Text
  106. Duration : 3 h 0 min
  107. Bit rate : 51 b/s
  108. Count of elements : 2630
  109. Stream size : 68.3 KiB (0%)
  110. Title : English-SDH-SRT
  111. Language : English
  112. Default : No
  113. Forced : No

  114. Text #3
  115. ID : 7
  116. Format : PGS
  117. Muxing mode : zlib
  118. Codec ID : S_HDMV/PGS
  119. Codec ID/Info : Picture based subtitle format used on BDs/HD-DVDs
  120. Duration : 3 h 0 min
  121. Bit rate : 33.7 kb/s
  122. Count of elements : 5266
  123. Stream size : 43.6 MiB (0%)
  124. Title : English-PGS
  125. Language : English
  126. Default : No
  127. Forced : No

  128. Text #4
  129. ID : 8
  130. Format : PGS
  131. Muxing mode : zlib
  132. Codec ID : S_HDMV/PGS
  133. Codec ID/Info : Picture based subtitle format used on BDs/HD-DVDs
  134. Duration : 2 h 52 min
  135. Bit rate : 28.5 kb/s
  136. Count of elements : 4446
  137. Stream size : 35.1 MiB (0%)
  138. Title : French-PGS
  139. Language : French
  140. Default : No
  141. Forced : No

  142. Text #5
  143. ID : 9
  144. Format : PGS
  145. Muxing mode : zlib
  146. Codec ID : S_HDMV/PGS
  147. Codec ID/Info : Picture based subtitle format used on BDs/HD-DVDs
  148. Duration : 2 h 47 min
  149. Bit rate : 31.0 kb/s
  150. Count of elements : 4394
  151. Stream size : 37.3 MiB (0%)
  152. Title : Spanish-PGS
  153. Language : Spanish
  154. Default : No
  155. Forced : No

  156. Menu
  157. 00:00:00.000 : en:Chapter 01
  158. 00:08:05.776 : en:Chapter 02
  159. 00:20:01.867 : en:Chapter 03
  160. 00:26:15.448 : en:Chapter 04
  161. 00:36:57.340 : en:Chapter 05
  162. 00:43:20.764 : en:Chapter 06
  163. 00:48:44.254 : en:Chapter 07
  164. 00:57:36.911 : en:Chapter 08
  165. 01:07:12.778 : en:Chapter 09
  166. 01:16:02.683 : en:Chapter 10
  167. 01:26:25.471 : en:Chapter 11
  168. 01:32:20.284 : en:Chapter 12
  169. 01:38:55.846 : en:Chapter 13
  170. 01:48:12.402 : en:Chapter 14
  171. 01:57:27.081 : en:Chapter 15
  172. 02:05:00.242 : en:Chapter 16
  173. 02:15:06.473 : en:Chapter 17
  174. 02:25:50.616 : en:Chapter 18
  175. 02:34:38.102 : en:Chapter 19
  176. 02:43:04.065 : en:Chapter 20
  177. 02:49:05.385 : en:Chapter 21
复制代码


复仇者联盟4:终局之战 Avengers.Endgame.2019.2160p.BluRay.x265.10bit.SDR.DTS-HD.MA.TrueHD.7.1.Atmos-SWTYBLZ 35.26GB-2.png 复仇者联盟4:终局之战 Avengers.Endgame.2019.2160p.BluRay.x265.10bit.SDR.DTS-HD.MA.TrueHD.7.1.Atmos-SWTYBLZ 35.26GB-3.png 复仇者联盟4:终局之战 Avengers.Endgame.2019.2160p.BluRay.x265.10bit.SDR.DTS-HD.MA.TrueHD.7.1.Atmos-SWTYBLZ 35.26GB-4.png 复仇者联盟4:终局之战 Avengers.Endgame.2019.2160p.BluRay.x265.10bit.SDR.DTS-HD.MA.TrueHD.7.1.Atmos-SWTYBLZ 35.26GB-5.png 复仇者联盟4:终局之战 Avengers.Endgame.2019.2160p.BluRay.x265.10bit.SDR.DTS-HD.MA.TrueHD.7.1.Atmos-SWTYBLZ 35.26GB-6.png 复仇者联盟4:终局之战 Avengers.Endgame.2019.2160p.BluRay.x265.10bit.SDR.DTS-HD.MA.TrueHD.7.1.Atmos-SWTYBLZ 35.26GB-7.png 复仇者联盟4:终局之战 Avengers.Endgame.2019.2160p.BluRay.x265.10bit.SDR.DTS-HD.MA.TrueHD.7.1.Atmos-SWTYBLZ 35.26GB-8.png







回复

使用道具 举报

 成长值: 1960

发表于 2019-8-3 14:53:00 | 显示全部楼层
楼主发贴辛苦了,谢谢楼主分享!我觉得蓝光电影网是注册对了!
回复 支持 反对

使用道具 举报

发表于 2019-8-3 15:38:55 | 显示全部楼层
楼主发贴辛苦了,谢谢楼主分享!
回复 支持 反对

使用道具 举报

发表于 2019-8-3 16:01:58 | 显示全部楼层
楼主发贴辛苦了,谢谢楼主分享!我觉得蓝光电影网是注册对了!
回复 支持 反对

使用道具 举报

发表于 2019-8-3 18:38:03 | 显示全部楼层

既然你诚信诚意的推荐了,那我就勉为其难的看看吧!蓝光电影网不走平凡路。
回复 支持 反对

使用道具 举报

发表于 2019-8-3 18:45:33 | 显示全部楼层
好东西,收藏了。
回复 支持 反对

使用道具 举报

发表于 2019-8-3 18:46:35 | 显示全部楼层
感谢lz分享
回复 支持 反对

使用道具 举报

 成长值: 1355

发表于 2019-8-3 19:06:44 | 显示全部楼层
电脑带不动了
回复 支持 反对

使用道具 举报

发表于 2019-8-3 21:34:29 | 显示全部楼层
没钱,下不了
回复 支持 反对

使用道具 举报

发表于 2019-8-3 22:52:05 | 显示全部楼层
下来试试
回复

使用道具 举报

懒得打字嘛,点击右侧快捷回复 【右侧内容,后台自定义】
您需要登录后才可以回帖 登录 | 立即加入

本版积分规则

现在加入蓝光电影网,注册一个账号

QQ| 手机版|小黑屋| 蓝光电影网 |网站地图 

Copyright © 2015-2019 Comsenz Inc.  Template by 蓝光电影论坛 All Rights Reserved.

Powered by 蓝光电影网 X3.4

特别声明:本站所有资源均由网上收集而来,版权归原影音公司所有,如果侵犯了你的权益,请通知我们,我们会及时删除侵权内容.

快速回复 返回顶部 返回列表