找回密码

蓝光电影网

查看: 1731|回复: 34

[2160p-WEB] 阿丽塔:战斗天使/艾莉塔:战斗天使 Alita.Battle.Angel.2019.INTERNAL.2160p.WEB.H265-DEFLATE 21.53GB

[复制链接]

 成长值: 1795

发表于 2019-7-10 00:00:55 | 显示全部楼层 |阅读模式
阿丽塔:战斗天使/艾莉塔:战斗天使 Alita.Battle.Angel.2019.INTERNAL.2160p.WEB.H265-DEFLATE 21.53GB-1.png

译  名 阿丽塔:战斗天使 / 艾莉塔:战斗天使(台) / 铳梦 / 铳梦:战斗天使(港)
片  名 Alita: Battle Angel
年  代 2019
产  地 美国 / 加拿大 / 阿根廷
类  别 动作 / 科幻 / 冒险
语  言 英语 / 西班牙语
上映日期 2019-02-05(台湾) / 2019-02-14(美国) / 2019-02-22(中国大陆)
IMDb评分7.5/10 from 102771 users
IMDb链接http://www.imdb.com/title/tt0437086
豆瓣评分 7.6/10 from 343930 users
豆瓣链接 https://movie.douban.com/subject/1652592/
片  长 122分钟
导  演 罗伯特·罗德里格兹 Robert Rodriguez
编  剧 詹姆斯·卡梅隆 James Cameron / 莱塔·卡罗格里迪斯 Laeta Kalogridis / 木城幸人 Yukito Kishiro
主  演 罗莎·萨拉查 Rosa Salazar
      克里斯托弗·沃尔兹 Christoph Waltz
      基恩·约翰逊 Keean Johnson
      艾德·斯克林 Ed Skrein
      马赫沙拉·阿里 Mahershala Ali
      詹妮弗·康纳利 Jennifer Connelly
      杰基·厄尔·哈利 Jackie Earle Haley
      陈东兰 Lana Condor
      小豪尔赫·兰登伯格 Jorge Lendeborg Jr.
      艾莎·冈萨雷斯 Eiza González
      卡斯帕·凡·迪恩 Casper Van Dien
      米歇尔·罗德里格兹 Michelle Rodriguez
      爱德华·诺顿 Edward Norton
      杰夫·法赫 Jeff Fahey
      山姆·麦地那 Sam Medina
      德里克·梅耶斯 Derek Mears
      艾丽·拉蒙特 Elle LaMont
      豪尔赫·A·希门尼斯 Jorge A. Jimenez
      马克·扎罗 Marko Zaror
      比利·布莱尔 Billy Blair
      伦纳德·吴 Leonard Wu
      特里斯坦·里格斯 Tristan Riggs
      迈克尔·洛夫·托利弗 Michael Love Toliver
      金 King
      达塞尔·丹妮尔 Darcel Danielle
      Mark A. White


标  签 科幻 | 机器人 | 动作 | 漫画改编 | 美国 | 赛博朋克 | 2019 | 动画

简  介

  故事发生在遥远的26世纪,外科医生依德(克里斯托弗·瓦尔兹 Christoph Waltz 饰)在垃圾场里捡到了只剩下头部的机械少女将她带回家中,给她装上了本来为自己已故的女儿所准备的义体,并取名阿丽塔(罗莎·萨拉扎尔 Rosa Salazar 饰)。苏醒后的阿丽塔对这个五彩斑斓但却暴力而又残酷的世界产生了浓厚的兴趣,在结识了青年雨果(基恩·约翰逊 Keean Johnson 饰)后,阿丽塔开始接触名为机动球的运动,并在比赛中展现出了惊人的格斗天赋。
在废铁城居民们的头顶,漂浮着巨大的浮空城市撒冷,废铁城居民们的一切劳作和付出,都是为了给撒冷提供继续运作的燃料。在大财阀维克特(马赫沙拉·阿里 Mahershala Ali 饰)所设立的机动球比赛中,最终获得冠军的人能够获得前往撒冷生活的资格,阿丽塔决定利用自己的格斗天赋参加比赛,却被卷入了一个巨大的阴谋之中。

获奖情况

  第5届豆瓣电影年度榜单(2018)
  最值得期待的外语电影(提名)

  第4届豆瓣电影年度榜单(2017)
  最值得期待的外语电影(提名)


  1. Video
  2. ID : 1
  3. Format : HEVC
  4. Format/Info : High Efficiency Video Coding
  5. Format profile : Main 10@L5@High
  6. Codec ID : V_MPEGH/ISO/HEVC
  7. Duration : 2 h 1 min
  8. Bit rate : 24.0 Mb/s
  9. Width : 3 840 pixels
  10. Height : 1 608 pixels
  11. Original height : 2 160 pixels
  12. Display aspect ratio : 16:9
  13. Frame rate mode : Constant
  14. Frame rate : 23.976 (24000/1001) FPS
  15. Color space : YUV
  16. Chroma subsampling : 4:2:0 (Type 2)
  17. Bit depth : 10 bits
  18. Bits/(Pixel*Frame) : 0.162
  19. Stream size : 20.4 GiB (96%)
  20. Language : English
  21. Default : Yes
  22. Forced : No
  23. Color range : Limited
  24. Color primaries : BT.709
  25. Transfer characteristics : BT.709
  26. Matrix coefficients : BT.709

  27. Audio
  28. ID : 2
  29. Format : E-AC-3 JOC
  30. Format/Info : Enhanced AC-3 with Joint Object Coding
  31. Commercial name : Dolby Digital Plus with Dolby Atmos
  32. Codec ID : A_EAC3
  33. Duration : 2 h 1 min
  34. Bit rate mode : Constant
  35. Bit rate : 576 kb/s
  36. Channel(s) : 6 channels
  37. Channel layout : L R C LFE Ls Rs
  38. Sampling rate : 48.0 kHz
  39. Frame rate : 31.250 FPS (1536 SPF)
  40. Compression mode : Lossy
  41. Delay relative to video : 83 ms
  42. Stream size : 502 MiB (2%)
  43. Language : English
  44. Service kind : Complete Main
  45. Default : Yes
  46. Forced : No
  47. Complexity index : 16
  48. Number of dynamic objects : 15
  49. Bed channel count : 1 channel
  50. Bed channel configuration : LFE

  51. Text #1
  52. ID : 3
  53. Format : UTF-8
  54. Codec ID : S_TEXT/UTF8
  55. Codec ID/Info : UTF-8 Plain Text
  56. Title : English
  57. Language : English
  58. Default : No
  59. Forced : No

  60. Text #2
  61. ID : 4
  62. Format : UTF-8
  63. Codec ID : S_TEXT/UTF8
  64. Codec ID/Info : UTF-8 Plain Text
  65. Title : English (SDH)
  66. Language : English
  67. Default : No
  68. Forced : No

  69. Text #3
  70. ID : 5
  71. Format : UTF-8
  72. Codec ID : S_TEXT/UTF8
  73. Codec ID/Info : UTF-8 Plain Text
  74. Title : Spanish
  75. Language : Spanish
  76. Default : No
  77. Forced : No

  78. Menu
  79. 00:00:01.000 : en:Chapter 01
  80. 00:03:29.000 : en:Chapter 02
  81. 00:07:52.000 : en:Chapter 03
  82. 00:10:08.000 : en:Chapter 04
  83. 00:13:07.000 : en:Chapter 05
  84. 00:15:07.000 : en:Chapter 06
  85. 00:18:05.000 : en:Chapter 07
  86. 00:22:59.000 : en:Chapter 08
  87. 00:25:36.000 : en:Chapter 09
  88. 00:31:41.000 : en:Chapter 10
  89. 00:33:30.000 : en:Chapter 11
  90. 00:36:33.000 : en:Chapter 12
  91. 00:38:31.000 : en:Chapter 13
  92. 00:42:06.000 : en:Chapter 14
  93. 00:45:59.000 : en:Chapter 15
  94. 00:48:32.000 : en:Chapter 16
  95. 00:52:58.000 : en:Chapter 17
  96. 00:55:15.000 : en:Chapter 18
  97. 01:00:40.000 : en:Chapter 19
  98. 01:02:57.000 : en:Chapter 20
  99. 01:05:17.000 : en:Chapter 21
  100. 01:10:51.000 : en:Chapter 22
  101. 01:13:38.000 : en:Chapter 23
  102. 01:16:36.000 : en:Chapter 24
  103. 01:18:53.000 : en:Chapter 25
  104. 01:22:49.000 : en:Chapter 26
  105. 01:24:56.000 : en:Chapter 27
  106. 01:28:26.000 : en:Chapter 28
  107. 01:33:19.000 : en:Chapter 29
  108. 01:36:09.000 : en:Chapter 30
  109. 01:41:55.000 : en:Chapter 31
  110. 01:45:24.000 : en:Chapter 32
  111. 01:48:17.000 : en:Chapter 33
  112. 01:51:44.000 : en:Chapter 34
  113. 01:54:44.000 : en:Chapter 35
  114. 01:56:52.000 : en:Chapter 36
复制代码


57580322185422795910_thumb.png 73744770798492307861_thumb.png 15715614149324853694_thumb.png





开通VIP免费下载本站所有资源---点这里
新手必看:资源下载常见问题---点这里
回复

使用道具 举报

发表于 2019-7-10 07:04:35 | 显示全部楼层
楼主发贴辛苦了,谢谢楼主分享!我觉得蓝光电影网是注册对了!
开通VIP免费下载本站所有资源---点这里
新手必看:资源下载常见问题---点这里
回复 支持 反对

使用道具 举报

发表于 2019-7-10 10:54:07 | 显示全部楼层
楼主发贴辛苦了,谢谢楼主分享!我觉得蓝光电影网是注册对了!
开通VIP免费下载本站所有资源---点这里
新手必看:资源下载常见问题---点这里
回复 支持 反对

使用道具 举报

发表于 2019-7-10 11:11:34 | 显示全部楼层
谢谢楼主分享
开通VIP免费下载本站所有资源---点这里
新手必看:资源下载常见问题---点这里
回复 支持 反对

使用道具 举报

发表于 2019-7-10 11:53:00 | 显示全部楼层
积极签到,直到下载
开通VIP免费下载本站所有资源---点这里
新手必看:资源下载常见问题---点这里
回复 支持 反对

使用道具 举报

发表于 2019-7-10 17:50:52 | 显示全部楼层
谢谢楼主分享
开通VIP免费下载本站所有资源---点这里
新手必看:资源下载常见问题---点这里
回复 支持 反对

使用道具 举报

发表于 2019-7-10 18:35:43 | 显示全部楼层
这个,终于高清了哦              
开通VIP免费下载本站所有资源---点这里
新手必看:资源下载常见问题---点这里
回复 支持 反对

使用道具 举报

发表于 2019-7-10 18:56:55 | 显示全部楼层
非会员下载不了,哎
开通VIP免费下载本站所有资源---点这里
新手必看:资源下载常见问题---点这里
回复 支持 反对

使用道具 举报

发表于 2019-7-10 22:52:02 | 显示全部楼层

楼主太厉害了!楼主,电影应该很好看我觉得蓝光电影网真是个好地方!
开通VIP免费下载本站所有资源---点这里
新手必看:资源下载常见问题---点这里
回复 支持 反对

使用道具 举报

发表于 2019-7-10 23:39:26 | 显示全部楼层

楼主发贴辛苦了,谢谢楼主分享!我觉得蓝光电影网是注册对了!
开通VIP免费下载本站所有资源---点这里
新手必看:资源下载常见问题---点这里
回复 支持 反对

使用道具 举报

懒得打字嘛,点击右侧快捷回复 【右侧内容,后台自定义】
您需要登录后才可以回帖 登录 | 立即加入

本版积分规则

现在加入蓝光电影网,注册一个账号

QQ| 手机版|小黑屋| 蓝光电影网 |网站地图

Copyright © 2015-2019 Comsenz Inc.  Template by 蓝光电影论坛 All Rights Reserved.

Powered by 蓝光电影网 X3.4

特别声明:本站所有资源均由网上收集而来,版权归原影音公司所有,如果侵犯了你的权益,请通知我们,我们会及时删除侵权内容.

快速回复 返回顶部 返回列表