找回密码

蓝光电影网

查看: 419|回复: 17

[REMUX.HEVC] 雷霆沙赞! Shazam.2019.2160p.BluRay.REMUX.HEVC.DTS-HD.MA.TrueHD.7.1.Atmos-FGT 81.39GB

[复制链接]

 成长值: 1795

发表于 2019-7-9 17:33:33 | 显示全部楼层 |阅读模式
雷霆沙赞! Shazam.2019.2160p.BluRay.REMUX.HEVC.DTS-HD.MA.TrueHD.7.1.Atmos-FGT 81.39GB-1.png

译  名 雷霆沙赞! / Billy Batson and the Legend of Shazam! / Franklin / 奇迹队长 / 沙赞 / 沙赞!(台) / 沙赞!神力集结(港) / 神奇上尉 / 雷霆沙赞
片  名 Shazam!
年  代 2019
产  地 美国
类  别 动作 / 奇幻 / 冒险
语  言 英语
上映日期 2019-04-05(美国/中国大陆)
IMDb评分  7.5/10 from 100273 users
IMDb链接  http://www.imdb.com/title/tt0448115
豆瓣评分 6.6/10 from 110901 users
豆瓣链接 https://movie.douban.com/subject/2244426/
片  长 132分钟
导  演 大卫·F·桑德伯格 David F. Sandberg
编  剧 亨利·盖登 Henry Gayden / 达伦·莱姆克 Darren Lemke / 比尔·帕克 Bill Parker / C·C·贝克 C.C. Beck
主  演 扎克瑞·莱维 Zachary Levi
      马克·斯特朗 Mark Strong
      亚瑟·安其 Asher Angel
      杰克·迪伦·格雷泽 Jack Dylan Grazer
      杰曼·翰苏 Djimon Hounsou
      费滋·赫尔曼 Faithe Herman
      约文·阿曼德 Jovan Armand
      陈琦烨 Ian Chen
      格蕾丝·富尔顿 Grace Fulton
      亚当·布罗迪 Adam Brody
      梅根·古德 Meagan Good
      米歇尔·博斯 Michelle Borth
      罗斯·巴特勒 Ross Butler
      马尔塔·米兰斯 Marta Milans
      库珀·安德鲁斯 Cooper Andrews
      罗维娜·亚瓦里 Lovina Yavari
      埃文·马什 Evan Marsh
      娜塔莉亚姗福瑞 Natalia Safran
      D·J·科特罗纳 D.J. Cotrona
      艾娃·普雷斯顿 Ava Preston
      安迪·奥修 Andi Osho
      卡尔森·迈克马克 Carson MacCormac
      莎伊娜·瑞恩 Shayna Ryan
      莎拉·贝纳尼 Sarah Bennani
      安吉莉卡·利斯克 Angelica Lisk
      辛迪·戴 Cyndy Day
      洛塔·洛森 Lotta Losten
      西蒙·诺斯伍德 Simon Northwood
      戴维·科赫史密斯 David Kohlsmith
      卢·卢·萨夫兰 Lou Lou Safran
      Adam Rodness
      杰夫·桑卡 Jeff Sanca
      阿里·巴德沙阿 Ali Badshah
      大卫·J·麦克尼尔 David J. MacNeil
      达娜·雷兹尼克 Dana Reznik
      迪索·拉莫斯 Diezel Ramos


标  签 DC | 超级英雄 | 沙雕 | 美国 | 喜剧 | 漫画改编 | 2019 | 科幻

简  介  

  因儿时与母亲失散,少年比利(亚瑟·安其 Asher Angel 饰)辗转多个家庭,却执着地要回到妈妈身边。当他再度栖身一个由养子养女的大家庭时,却阴差阳错来到某个未知的领域,并且成为古老巫师的继承人。当他喊出“沙赞”时,便会瞬间变成拥有强壮成年人身体的超级英雄雷霆沙赞(扎克瑞·莱维 Zachary Levi 饰)。比利兴奋不已,和新家的兄弟——患有腿部残疾的弗雷迪(杰克·迪伦·格雷泽 Jack Dylan Grazer 饰)共同分享这份快乐,两人更将展现各种超能力的视频上传网络,流布四方。结果,心怀叵测的赛迪斯·希瓦纳博士(马克·斯特朗 Mark Strong 饰)找上门来。
希瓦纳童年时曾与沙赞身份失之交臂,一直不受父亲兄长待见的他将灵魂出卖给七宗罪魔鬼,他更企图摧毁那个让他求之不得又恨之入骨的雷霆沙赞……

  1. Video #1
  2. ID                                       : 1
  3. Format                                   : HEVC
  4. Format/Info                              : High Efficiency Video Coding
  5. Commercial name                          : HDR10
  6. Format profile                           : Main <a href="/cdn-cgi/l/email-protection" class="__cf_email__" data-cfemail="6d5c5d2d2158435c">High@L4.1</a>@High
  7. Codec ID                                 : V_MPEGH/ISO/HEVC
  8. Duration                                 : 2 h 11 min
  9. Bit rate                                 : 76.7 Mb/s
  10. Width                                    : 3 840 pixels
  11. Height                                   : 2 160 pixels
  12. Display aspect ratio                     : 16:9
  13. Frame rate mode                          : Constant
  14. Frame rate                               : 23.976 (24000/1001) FPS
  15. Color space                              : YUV
  16. Chroma subsampling                       : 4:2:0 (Type 2)
  17. Bit depth                                : 10 bits
  18. Bits/(Pixel*Frame)                       : 0.386
  19. Stream size                              : 70.6 GiB (87%)
  20. Title                                    : Shazam.2019.2160p.BluRay.REMUX.HEVC.DTS-HD.MA.TrueHD.7.1.Atmos-FGT
  21. Language                                 : English
  22. Default                                  : Yes
  23. Forced                                   : No
  24. Color range                              : Limited
  25. Color primaries                          : BT.2020
  26. Transfer characteristics                 : PQ
  27. Matrix coefficients                      : BT.2020 non-constant
  28. Mastering display color primaries        : Display P3
  29. Mastering display luminance              : min: 0.0050 cd/m2, max: 4000 cd/m2
  30. Maximum Content Light Level              : 1351 cd/m2
  31. Maximum Frame-Average Light Level        : 384 cd/m2


  32. Video #2
  33. ID                                       : 2
  34. Format                                   : HEVC
  35. Format/Info                              : High Efficiency Video Coding
  36. Commercial name                          : HDR10
  37. Format profile                           : Main <a href="/cdn-cgi/l/email-protection" class="__cf_email__" data-cfemail="af9e9fefe39a819e">High@L4.1</a>@High
  38. Codec ID                                 : V_MPEGH/ISO/HEVC
  39. Duration                                 : 2 h 11 min
  40. Bit rate                                 : 60.7 kb/s
  41. Width                                    : 1 920 pixels
  42. Height                                   : 1 080 pixels
  43. Display aspect ratio                     : 16:9
  44. Frame rate mode                          : Constant
  45. Frame rate                               : 23.976 (24000/1001) FPS
  46. Color space                              : YUV
  47. Chroma subsampling                       : 4:2:0 (Type 2)
  48. Bit depth                                : 10 bits
  49. Bits/(Pixel*Frame)                       : 0.001
  50. Stream size                              : 57.1 MiB (0%)
  51. Title                                    : Shazam.2019.2160p.BluRay.REMUX.HEVC.DTS-HD.MA.TrueHD.7.1.Atmos-FGT
  52. Language                                 : English
  53. Default                                  : No
  54. Forced                                   : No
  55. Color range                              : Limited
  56. Color primaries                          : BT.2020
  57. Transfer characteristics                 : PQ
  58. Matrix coefficients                      : BT.2020 non-constant
  59. Mastering display color primaries        : Display P3
  60. Mastering display luminance              : min: 0.0050 cd/m2, max: 4000 cd/m2

  61. Audio #1
  62. ID                                       : 3
  63. Format                                   : MLP FBA 16-ch
  64. Format/Info                              : Meridian Lossless Packing FBA with 16-channel presentation
  65. Commercial name                          : Dolby TrueHD with Dolby Atmos
  66. Codec ID                                 : A_TRUEHD
  67. Duration                                 : 2 h 11 min
  68. Bit rate mode                            : Variable
  69. Bit rate                                 : 3 645 kb/s
  70. Maximum bit rate                         : 5 931 kb/s
  71. Channel(s)                               : 8 channels
  72. Channel layout                           : L R C LFE Ls Rs Lb Rb
  73. Sampling rate                            : 48.0 kHz
  74. Frame rate                               : 1 200.000 FPS (40 SPF)
  75. Compression mode                         : Lossless
  76. Stream size                              : 3.35 GiB (4%)
  77. Title                                    : Shazam.2019.2160p.BluRay.REMUX.HEVC.DTS-HD.MA.TrueHD.7.1.Atmos-FGT
  78. Language                                 : English
  79. Default                                  : Yes
  80. Forced                                   : No
  81. Number of dynamic objects                : 15
  82. Bed channel count                        : 1 channel
  83. Bed channel configuration                : LFE

  84. Audio #2
  85. ID                                       : 4
  86. Format                                   : DTS XLL
  87. Format/Info                              : Digital Theater Systems
  88. Commercial name                          : DTS-HD Master Audio
  89. Codec ID                                 : A_DTS
  90. Duration                                 : 2 h 11 min
  91. Bit rate mode                            : Variable
  92. Bit rate                                 : 4 217 kb/s
  93. Channel(s)                               : 8 channels
  94. Channel layout                           : C L R LFE Lb Rb Lss Rss
  95. Sampling rate                            : 48.0 kHz
  96. Frame rate                               : 93.750 FPS (512 SPF)
  97. Bit depth                                : 24 bits
  98. Compression mode                         : Lossless
  99. Stream size                              : 3.88 GiB (5%)
  100. Title                                    : Shazam.2019.2160p.BluRay.REMUX.HEVC.DTS-HD.MA.TrueHD.7.1.Atmos-FGT
  101. Language                                 : English
  102. Default                                  : No
  103. Forced                                   : No

  104. Audio #3
  105. ID                                       : 5
  106. Format                                   : AC-3
  107. Format/Info                              : Audio Coding 3
  108. Commercial name                          : Dolby Digital
  109. Codec ID                                 : A_AC3
  110. Duration                                 : 2 h 11 min
  111. Bit rate mode                            : Constant
  112. Bit rate                                 : 448 kb/s
  113. Channel(s)                               : 6 channels
  114. Channel layout                           : L R C LFE Ls Rs
  115. Sampling rate                            : 48.0 kHz
  116. Frame rate                               : 31.250 FPS (1536 SPF)
  117. Bit depth                                : 16 bits
  118. Compression mode                         : Lossy
  119. Stream size                              : 422 MiB (1%)
  120. Title                                    : Shazam.2019.2160p.BluRay.REMUX.HEVC.DTS-HD.MA.TrueHD.7.1.Atmos-FGT
  121. Language                                 : English
  122. Service kind                             : Complete Main
  123. Default                                  : No
  124. Forced                                   : No

  125. Audio #4
  126. ID                                       : 6
  127. Format                                   : AC-3
  128. Format/Info                              : Audio Coding 3
  129. Commercial name                          : Dolby Digital
  130. Codec ID                                 : A_AC3
  131. Duration                                 : 2 h 11 min
  132. Bit rate mode                            : Constant
  133. Bit rate                                 : 448 kb/s
  134. Channel(s)                               : 6 channels
  135. Channel layout                           : L R C LFE Ls Rs
  136. Sampling rate                            : 48.0 kHz
  137. Frame rate                               : 31.250 FPS (1536 SPF)
  138. Bit depth                                : 16 bits
  139. Compression mode                         : Lossy
  140. Stream size                              : 422 MiB (1%)
  141. Title                                    : Shazam.2019.2160p.BluRay.REMUX.HEVC.DTS-HD.MA.TrueHD.7.1.Atmos-FGT
  142. Language                                 : English
  143. Service kind                             : Complete Main
  144. Default                                  : No
  145. Forced                                   : No

  146. Audio #5
  147. ID                                       : 7
  148. Format                                   : AC-3
  149. Format/Info                              : Audio Coding 3
  150. Commercial name                          : Dolby Digital
  151. Codec ID                                 : A_AC3
  152. Duration                                 : 2 h 11 min
  153. Bit rate mode                            : Constant
  154. Bit rate                                 : 448 kb/s
  155. Channel(s)                               : 6 channels
  156. Channel layout                           : L R C LFE Ls Rs
  157. Sampling rate                            : 48.0 kHz
  158. Frame rate                               : 31.250 FPS (1536 SPF)
  159. Bit depth                                : 16 bits
  160. Compression mode                         : Lossy
  161. Stream size                              : 422 MiB (1%)
  162. Title                                    : Shazam.2019.2160p.BluRay.REMUX.HEVC.DTS-HD.MA.TrueHD.7.1.Atmos-FGT
  163. Language                                 : English
  164. Service kind                             : Complete Main
  165. Default                                  : No
  166. Forced                                   : No

  167. Audio #6
  168. ID                                       : 8
  169. Format                                   : AC-3
  170. Format/Info                              : Audio Coding 3
  171. Commercial name                          : Dolby Digital
  172. Codec ID                                 : A_AC3
  173. Duration                                 : 2 h 11 min
  174. Bit rate mode                            : Constant
  175. Bit rate                                 : 448 kb/s
  176. Channel(s)                               : 6 channels
  177. Channel layout                           : L R C LFE Ls Rs
  178. Sampling rate                            : 48.0 kHz
  179. Frame rate                               : 31.250 FPS (1536 SPF)
  180. Bit depth                                : 16 bits
  181. Compression mode                         : Lossy
  182. Stream size                              : 422 MiB (1%)
  183. Title                                    : Shazam.2019.2160p.BluRay.REMUX.HEVC.DTS-HD.MA.TrueHD.7.1.Atmos-FGT
  184. Language                                 : French
  185. Service kind                             : Complete Main
  186. Default                                  : No
  187. Forced                                   : No

  188. Audio #7
  189. ID                                       : 9
  190. Format                                   : AC-3
  191. Format/Info                              : Audio Coding 3
  192. Commercial name                          : Dolby Digital
  193. Codec ID                                 : A_AC3
  194. Duration                                 : 2 h 11 min
  195. Bit rate mode                            : Constant
  196. Bit rate                                 : 448 kb/s
  197. Channel(s)                               : 6 channels
  198. Channel layout                           : L R C LFE Ls Rs
  199. Sampling rate                            : 48.0 kHz
  200. Frame rate                               : 31.250 FPS (1536 SPF)
  201. Bit depth                                : 16 bits
  202. Compression mode                         : Lossy
  203. Stream size                              : 422 MiB (1%)
  204. Title                                    : Shazam.2019.2160p.BluRay.REMUX.HEVC.DTS-HD.MA.TrueHD.7.1.Atmos-FGT
  205. Language                                 : Italian
  206. Service kind                             : Complete Main
  207. Default                                  : No
  208. Forced                                   : No

  209. Audio #8
  210. ID                                       : 10
  211. Format                                   : AC-3
  212. Format/Info                              : Audio Coding 3
  213. Commercial name                          : Dolby Digital
  214. Codec ID                                 : A_AC3
  215. Duration                                 : 2 h 11 min
  216. Bit rate mode                            : Constant
  217. Bit rate                                 : 448 kb/s
  218. Channel(s)                               : 6 channels
  219. Channel layout                           : L R C LFE Ls Rs
  220. Sampling rate                            : 48.0 kHz
  221. Frame rate                               : 31.250 FPS (1536 SPF)
  222. Bit depth                                : 16 bits
  223. Compression mode                         : Lossy
  224. Stream size                              : 422 MiB (1%)
  225. Title                                    : Shazam.2019.2160p.BluRay.REMUX.HEVC.DTS-HD.MA.TrueHD.7.1.Atmos-FGT
  226. Language                                 : Spanish
  227. Service kind                             : Complete Main
  228. Default                                  : No
  229. Forced                                   : No

  230. Audio #9
  231. ID                                       : 11
  232. Format                                   : AC-3
  233. Format/Info                              : Audio Coding 3
  234. Commercial name                          : Dolby Digital
  235. Codec ID                                 : A_AC3
  236. Duration                                 : 2 h 11 min
  237. Bit rate mode                            : Constant
  238. Bit rate                                 : 448 kb/s
  239. Channel(s)                               : 6 channels
  240. Channel layout                           : L R C LFE Ls Rs
  241. Sampling rate                            : 48.0 kHz
  242. Frame rate                               : 31.250 FPS (1536 SPF)
  243. Bit depth                                : 16 bits
  244. Compression mode                         : Lossy
  245. Stream size                              : 422 MiB (1%)
  246. Title                                    : Shazam.2019.2160p.BluRay.REMUX.HEVC.DTS-HD.MA.TrueHD.7.1.Atmos-FGT
  247. Language                                 : Polish
  248. Service kind                             : Complete Main
  249. Default                                  : No
  250. Forced                                   : No

  251. Audio #10
  252. ID                                       : 12
  253. Format                                   : AC-3
  254. Format/Info                              : Audio Coding 3
  255. Commercial name                          : Dolby Digital
  256. Codec ID                                 : A_AC3
  257. Duration                                 : 2 h 11 min
  258. Bit rate mode                            : Constant
  259. Bit rate                                 : 448 kb/s
  260. Channel(s)                               : 6 channels
  261. Channel layout                           : L R C LFE Ls Rs
  262. Sampling rate                            : 48.0 kHz
  263. Frame rate                               : 31.250 FPS (1536 SPF)
  264. Bit depth                                : 16 bits
  265. Compression mode                         : Lossy
  266. Stream size                              : 422 MiB (1%)
  267. Title                                    : Shazam.2019.2160p.BluRay.REMUX.HEVC.DTS-HD.MA.TrueHD.7.1.Atmos-FGT
  268. Language                                 : Turkish
  269. Service kind                             : Complete Main
  270. Default                                  : No
  271. Forced                                   : No

  272. Text #1
  273. ID                                       : 13
  274. Format                                   : UTF-8
  275. Codec ID                                 : S_TEXT/UTF8
  276. Codec ID/Info                            : UTF-8 Plain Text
  277. Duration                                 : 2 h 10 min
  278. Bit rate                                 : 52 b/s
  279. Count of elements                        : 1755
  280. Stream size                              : 49.7 KiB (0%)
  281. Title                                    : English-SRT
  282. Language                                 : English
  283. Default                                  : No
  284. Forced                                   : No

  285. Text #2
  286. ID                                       : 14
  287. Format                                   : UTF-8
  288. Codec ID                                 : S_TEXT/UTF8
  289. Codec ID/Info                            : UTF-8 Plain Text
  290. Duration                                 : 2 h 10 min
  291. Bit rate                                 : 63 b/s
  292. Count of elements                        : 2182
  293. Stream size                              : 60.7 KiB (0%)
  294. Title                                    : English-SDH-SRT
  295. Language                                 : English
  296. Default                                  : No
  297. Forced                                   : No

  298. Text #3
  299. ID                                       : 15
  300. Format                                   : PGS
  301. Muxing mode                              : zlib
  302. Codec ID                                 : S_HDMV/PGS
  303. Codec ID/Info                            : Picture based subtitle format used on BDs/HD-DVDs
  304. Duration                                 : 2 h 11 min
  305. Bit rate                                 : 37.5 kb/s
  306. Count of elements                        : 4310
  307. Stream size                              : 35.3 MiB (0%)
  308. Title                                    : English-PGS
  309. Language                                 : English
  310. Default                                  : Yes
  311. Forced                                   : No

  312. Text #4
  313. ID                                       : 16
  314. Format                                   : PGS
  315. Muxing mode                              : zlib
  316. Codec ID                                 : S_HDMV/PGS
  317. Codec ID/Info                            : Picture based subtitle format used on BDs/HD-DVDs
  318. Duration                                 : 2 h 10 min
  319. Bit rate                                 : 23.4 kb/s
  320. Count of elements                        : 3148
  321. Stream size                              : 21.9 MiB (0%)
  322. Title                                    : French-PGS
  323. Language                                 : French
  324. Default                                  : No
  325. Forced                                   : No

  326. Text #5
  327. ID                                       : 17
  328. Format                                   : PGS
  329. Muxing mode                              : zlib
  330. Codec ID                                 : S_HDMV/PGS
  331. Codec ID/Info                            : Picture based subtitle format used on BDs/HD-DVDs
  332. Duration                                 : 2 h 11 min
  333. Bit rate                                 : 35.9 kb/s
  334. Count of elements                        : 4414
  335. Stream size                              : 33.8 MiB (0%)
  336. Title                                    : Italian-PGS
  337. Language                                 : Italian
  338. Default                                  : No
  339. Forced                                   : No

  340. Text #6
  341. ID                                       : 18
  342. Format                                   : PGS
  343. Muxing mode                              : zlib
  344. Codec ID                                 : S_HDMV/PGS
  345. Codec ID/Info                            : Picture based subtitle format used on BDs/HD-DVDs
  346. Duration                                 : 2 h 10 min
  347. Bit rate                                 : 27.0 kb/s
  348. Count of elements                        : 3160
  349. Stream size                              : 25.2 MiB (0%)
  350. Title                                    : Chinese-PGS
  351. Language                                 : Chinese
  352. Default                                  : No
  353. Forced                                   : No

  354. Text #7
  355. ID                                       : 19
  356. Format                                   : PGS
  357. Muxing mode                              : zlib
  358. Codec ID                                 : S_HDMV/PGS
  359. Codec ID/Info                            : Picture based subtitle format used on BDs/HD-DVDs
  360. Duration                                 : 2 h 10 min
  361. Bit rate                                 : 26.8 kb/s
  362. Count of elements                        : 3514
  363. Stream size                              : 25.0 MiB (0%)
  364. Title                                    : Chinese-PGS
  365. Language                                 : Chinese
  366. Default                                  : No
  367. Forced                                   : No

  368. Text #8
  369. ID                                       : 20
  370. Format                                   : PGS
  371. Muxing mode                              : zlib
  372. Codec ID                                 : S_HDMV/PGS
  373. Codec ID/Info                            : Picture based subtitle format used on BDs/HD-DVDs
  374. Duration                                 : 2 h 10 min
  375. Bit rate                                 : 17.1 kb/s
  376. Count of elements                        : 3502
  377. Stream size                              : 16.0 MiB (0%)
  378. Title                                    : Korean-PGS
  379. Language                                 : Korean
  380. Default                                  : No
  381. Forced                                   : No

  382. Text #9
  383. ID                                       : 21
  384. Format                                   : PGS
  385. Muxing mode                              : zlib
  386. Codec ID                                 : S_HDMV/PGS
  387. Codec ID/Info                            : Picture based subtitle format used on BDs/HD-DVDs
  388. Duration                                 : 2 h 10 min
  389. Bit rate                                 : 30.6 kb/s
  390. Count of elements                        : 3500
  391. Stream size                              : 28.6 MiB (0%)
  392. Title                                    : Spanish-PGS
  393. Language                                 : Spanish
  394. Default                                  : No
  395. Forced                                   : No

  396. Text #10
  397. ID                                       : 22
  398. Format                                   : PGS
  399. Muxing mode                              : zlib
  400. Codec ID                                 : S_HDMV/PGS
  401. Codec ID/Info                            : Picture based subtitle format used on BDs/HD-DVDs
  402. Duration                                 : 2 h 10 min
  403. Bit rate                                 : 17.1 kb/s
  404. Count of elements                        : 3514
  405. Stream size                              : 16.0 MiB (0%)
  406. Title                                    : Arabic-PGS
  407. Language                                 : Arabic
  408. Default                                  : No
  409. Forced                                   : No

  410. Text #11
  411. ID                                       : 23
  412. Format                                   : PGS
  413. Muxing mode                              : zlib
  414. Codec ID                                 : S_HDMV/PGS
  415. Codec ID/Info                            : Picture based subtitle format used on BDs/HD-DVDs
  416. Duration                                 : 2 h 10 min
  417. Bit rate                                 : 26.2 kb/s
  418. Count of elements                        : 2492
  419. Stream size                              : 24.6 MiB (0%)
  420. Title                                    : Danish-PGS
  421. Language                                 : Danish
  422. Default                                  : No
  423. Forced                                   : No

  424. Text #12
  425. ID                                       : 24
  426. Format                                   : PGS
  427. Muxing mode                              : zlib
  428. Codec ID                                 : S_HDMV/PGS
  429. Codec ID/Info                            : Picture based subtitle format used on BDs/HD-DVDs
  430. Duration                                 : 2 h 10 min
  431. Bit rate                                 : 25.2 kb/s
  432. Count of elements                        : 3498
  433. Stream size                              : 23.6 MiB (0%)
  434. Title                                    : Finnish-PGS
  435. Language                                 : Finnish
  436. Default                                  : No
  437. Forced                                   : No

  438. Text #13
  439. ID                                       : 25
  440. Format                                   : PGS
  441. Muxing mode                              : zlib
  442. Codec ID                                 : S_HDMV/PGS
  443. Codec ID/Info                            : Picture based subtitle format used on BDs/HD-DVDs
  444. Duration                                 : 2 h 10 min
  445. Bit rate                                 : 26.9 kb/s
  446. Count of elements                        : 3080
  447. Stream size                              : 25.2 MiB (0%)
  448. Title                                    : Norwegian-PGS
  449. Language                                 : Norwegian
  450. Default                                  : No
  451. Forced                                   : No

  452. Text #14
  453. ID                                       : 26
  454. Format                                   : PGS
  455. Muxing mode                              : zlib
  456. Codec ID                                 : S_HDMV/PGS
  457. Codec ID/Info                            : Picture based subtitle format used on BDs/HD-DVDs
  458. Duration                                 : 2 h 10 min
  459. Bit rate                                 : 27.6 kb/s
  460. Count of elements                        : 3448
  461. Stream size                              : 25.9 MiB (0%)
  462. Title                                    : Polish-PGS
  463. Language                                 : Polish
  464. Default                                  : No
  465. Forced                                   : No

  466. Text #15
  467. ID                                       : 27
  468. Format                                   : PGS
  469. Muxing mode                              : zlib
  470. Codec ID                                 : S_HDMV/PGS
  471. Codec ID/Info                            : Picture based subtitle format used on BDs/HD-DVDs
  472. Duration                                 : 2 h 10 min
  473. Bit rate                                 : 26.8 kb/s
  474. Count of elements                        : 3486
  475. Stream size                              : 25.1 MiB (0%)
  476. Title                                    : Swedish-PGS
  477. Language                                 : Swedish
  478. Default                                  : No
  479. Forced                                   : No

  480. Text #16
  481. ID                                       : 28
  482. Format                                   : PGS
  483. Muxing mode                              : zlib
  484. Codec ID                                 : S_HDMV/PGS
  485. Codec ID/Info                            : Picture based subtitle format used on BDs/HD-DVDs
  486. Duration                                 : 2 h 10 min
  487. Bit rate                                 : 30.2 kb/s
  488. Count of elements                        : 3508
  489. Stream size                              : 28.2 MiB (0%)
  490. Title                                    : Turkish-PGS
  491. Language                                 : Turkish
  492. Default                                  : No
  493. Forced                                   : No

  494. Text #17
  495. ID                                       : 29
  496. Format                                   : PGS
  497. Muxing mode                              : zlib
  498. Codec ID                                 : S_HDMV/PGS
  499. Codec ID/Info                            : Picture based subtitle format used on BDs/HD-DVDs
  500. Duration                                 : 2 h 10 min
  501. Bit rate                                 : 602 b/s
  502. Count of elements                        : 46
  503. Stream size                              : 576 KiB (0%)
  504. Title                                    : French-FORCED-PGS
  505. Language                                 : French
  506. Default                                  : No
  507. Forced                                   : No

  508. Text #18
  509. ID                                       : 30
  510. Format                                   : PGS
  511. Muxing mode                              : zlib
  512. Codec ID                                 : S_HDMV/PGS
  513. Codec ID/Info                            : Picture based subtitle format used on BDs/HD-DVDs
  514. Duration                                 : 2 h 10 min
  515. Bit rate                                 : 912 b/s
  516. Count of elements                        : 102
  517. Stream size                              : 872 KiB (0%)
  518. Title                                    : Italian-FORCED-PGS
  519. Language                                 : Italian
  520. Default                                  : No
  521. Forced                                   : No

  522. Menu
  523. 00:00:00.000                             : en:Chapter 01
  524. 00:08:18.581                             : en:Chapter 02
  525. 00:15:11.285                             : en:Chapter 03
  526. 00:25:22.395                             : en:Chapter 04
  527. 00:31:57.624                             : en:Chapter 05
  528. 00:39:00.254                             : en:Chapter 06
  529. 00:50:07.546                             : en:Chapter 07
  530. 01:01:28.810                             : en:Chapter 08
  531. 01:08:51.502                             : en:Chapter 09
  532. 01:16:40.470                             : en:Chapter 10
  533. 01:24:29.355                             : en:Chapter 11
  534. 01:34:00.343                             : en:Chapter 12
  535. 01:43:01.175                             : en:Chapter 13
  536. 01:52:53.850                             : en:Chapter 14
  537. 02:00:44.403                             : en:Chapter 15
复制代码

雷霆沙赞! Shazam.2019.2160p.BluRay.REMUX.HEVC.DTS-HD.MA.TrueHD.7.1.Atmos-FGT 81.39GB-2.png 雷霆沙赞! Shazam.2019.2160p.BluRay.REMUX.HEVC.DTS-HD.MA.TrueHD.7.1.Atmos-FGT 81.39GB-3.png 雷霆沙赞! Shazam.2019.2160p.BluRay.REMUX.HEVC.DTS-HD.MA.TrueHD.7.1.Atmos-FGT 81.39GB-4.png






开通VIP免费下载本站所有资源---点这里
新手必看:资源下载常见问题---点这里
回复

使用道具 举报

发表于 2019-7-9 17:36:30 | 显示全部楼层

楼主太厉害了!楼主,电影应该很好看我觉得蓝光电影网真是个好地方!
开通VIP免费下载本站所有资源---点这里
新手必看:资源下载常见问题---点这里
回复 支持 反对

使用道具 举报

已抛锚 成长值: 250

发表于 2019-7-9 23:32:38 | 显示全部楼层
楼主发贴辛苦了,谢谢楼主分享!我觉得蓝光电影网是注册对了!
开通VIP免费下载本站所有资源---点这里
新手必看:资源下载常见问题---点这里
回复 支持 反对

使用道具 举报

发表于 2019-7-10 08:42:41 | 显示全部楼层
厉害那,谢谢分享
开通VIP免费下载本站所有资源---点这里
新手必看:资源下载常见问题---点这里
回复 支持 反对

使用道具 举报

发表于 2019-7-10 11:00:35 | 显示全部楼层

楼主太厉害了!楼主,电影应该很好看我觉得蓝光电影网真是个好地方!
开通VIP免费下载本站所有资源---点这里
新手必看:资源下载常见问题---点这里
回复 支持 反对

使用道具 举报

发表于 2019-7-11 09:17:24 | 显示全部楼层
谢谢发片。
开通VIP免费下载本站所有资源---点这里
新手必看:资源下载常见问题---点这里
回复

使用道具 举报

发表于 2019-7-12 09:30:29 | 显示全部楼层
好资源,感谢
开通VIP免费下载本站所有资源---点这里
新手必看:资源下载常见问题---点这里
回复 支持 反对

使用道具 举报

发表于 2019-7-12 23:44:17 | 显示全部楼层
楼主发贴辛苦了,谢谢楼主分享!我觉得蓝光电影网是注册对了!
开通VIP免费下载本站所有资源---点这里
新手必看:资源下载常见问题---点这里
回复 支持 反对

使用道具 举报

发表于 2019-7-13 00:30:15 来自手机 | 显示全部楼层
越来越喜欢这啦
开通VIP免费下载本站所有资源---点这里
新手必看:资源下载常见问题---点这里
回复 支持 反对

使用道具 举报

发表于 2019-7-14 05:10:48 | 显示全部楼层
感觉很不错的样子,点赞
开通VIP免费下载本站所有资源---点这里
新手必看:资源下载常见问题---点这里
回复 支持 反对

使用道具 举报

懒得打字嘛,点击右侧快捷回复 【右侧内容,后台自定义】
您需要登录后才可以回帖 登录 | 立即加入

本版积分规则

现在加入蓝光电影网,注册一个账号

QQ| 手机版|小黑屋| 蓝光电影网 |网站地图

Copyright © 2015-2019 Comsenz Inc.  Template by 蓝光电影论坛 All Rights Reserved.

Powered by 蓝光电影网 X3.4

特别声明:本站所有资源均由网上收集而来,版权归原影音公司所有,如果侵犯了你的权益,请通知我们,我们会及时删除侵权内容.

快速回复 返回顶部 返回列表