找回密码

蓝光电影网

查看: 16|回复: 0

[动作片] 心理罪之城市之光 The.Liquidator.2017.CHINESE.1080p.WEBRip.x264-RARBG 2.37GB

[复制链接]

 成长值: 21340

发表于 2019-6-17 22:46:54 | 显示全部楼层 |阅读模式
心理罪之城市之光 The.Liquidator.2017.CHINESE.1080p.WEBRip.x264-RARBG 2.37GB-1.png

译  名 The Liquidator / 城市之光 / 心理罪·城市之光 / 缉凶者
片  名 心理罪之城市之光
年  代 2017
产  地 中国大陆 / 香港
类  别 行动 / 悬疑 / 犯罪
语  言 汉语普通话
上映日期 2017-12-22(中国大陆)
IMDb评分5.5/10 from 220 users
IMDb链接http://www.imdb.com/title/tt7286908
豆瓣评分 5.9/10 from 106790 users
豆瓣链接 https://movie.douban.com/subject/26774722/
片  长 124分钟
导  演 徐纪周 Jizhou Xu
编  剧 徐纪周 Jizhou Xu / 雷米 Mi Lei
主  演 邓超 Chao Deng
      阮经天 Ethan Juan
      刘诗诗 Shishi Liu
      文淇 Qi Wen
      林嘉欣 Karena Lam
      郭京飞 Jingfei Guo
      马苏 Su Ma


标  签 犯罪 | 悬疑 | 推理 | 心理 | 中国大陆 | 小说改编 | 剧情 | 2017

简  介

  一路连环凶杀案掀起了城市的狂欢与躁动,数起案件中受害者均遭凌虐致死,且布满仪式感,一切线索都与一小我有关——精通犯罪心理学的天赋神探方木(邓超 饰)。在与同事米楠(刘诗诗 饰)观察案件时,方木发现已经是自己高中同学的江亚(阮经天 饰)似乎深藏很多奥秘。此时收集上出现名为“城市之光”的用户,以倡议投票的方式让公共决议律师任川(郭京飞 饰)的生死,方木、米楠等差人虽然用尽一切法子,仍然没法阻止这场“以暴制暴”的黑暗审判,这座城市堕入了紊乱的漩涡。生死关头,方木发觉到江亚的妻子魏巍(林嘉欣 饰)居然是解锁江亚奥秘的重要证人,就在真相行将大白的关键时辰,一场惊人变故突如其来.....

获奖情况

  第4届豆瓣电影年度榜单(2017)
  12月最受关注电影(提名)




  1. Video
  2. ID             : 1
  3. Format           : AVC
  4. Format/Info          : Advanced Video Codec
  5. Format profile         : <a href="/cdn-cgi/l/email-protection" class="__cf_email__" data-cfemail="632b0a040b232f574d52">[email protected]</a>
  6. Format settings        : CABAC / 4 Ref Frames
  7. Format settings, CABAC       : Yes
  8. Format settings, ReFrames      : 4 frames
  9. Codec ID           : avc1
  10. Codec ID/Info          : Advanced Video Coding
  11. Duration           : 2 h 4 min
  12. Bit rate           : 2 500 kb/s
  13. Width            : 1 920 pixels
  14. Height           : 856 pixels
  15. Display aspect ratio       : 2.25:1
  16. Frame rate mode        : Constant
  17. Frame rate           : 23.976 (23976/1000) FPS
  18. Color space          : YUV
  19. Chroma subsampling       : 4:2:0
  20. Bit depth          : 8 bits
  21. Scan type          : Progressive
  22. Bits/(Pixel*Frame)       : 0.063
  23. Stream size          : 2.17 GiB (92%)
  24. Writing library        : x264 core 152 r2851M ba24899
  25. Encoding settings        : cabac=1 / ref=4 / deblock=1:-1:-1 / analyse=0x3:0x113 / me=umh / subme=9 / psy=1 / psy_rd=1.00:0.15 / mixed_ref=1 / me_range=24 / chroma_me=1 / trellis=2 / 8x8dct=1 / cqm=0 / deadzone=21,11 / fast_pskip=1 / chroma_qp_offset=-3 / threads=32 / lookahead_threads=4 / sliced_threads=0 / nr=0 / decimate=1 / interlaced=0 / bluray_compat=0 / constrained_intra=0 / bframes=3 / b_pyramid=2 / b_adapt=2 / b_bias=0 / direct=3 / weightb=1 / open_gop=0 / weightp=2 / keyint=250 / keyint_min=25 / scenecut=40 / intra_refresh=0 / rc_lookahead=50 / rc=2pass / mbtree=1 / bitrate=2500 / ratetol=1.0 / qcomp=0.60 / qpmin=0 / qpmax=69 / qpstep=4 / cplxblur=20.0 / qblur=0.5 / vbv_maxrate=31250 / vbv_bufsize=31250 / nal_hrd=none / filler=0 / ip_ratio=1.40 / aq=3:1.00
  26. Encoded date         : UTC 2019-06-16 19:53:13
  27. Tagged date          : UTC 2019-06-16 19:53:13
  28. Codec configuration box      : avcC

  29. Audio
  30. ID             : 2
  31. Format           : AAC LC
  32. Format/Info          : Advanced Audio Codec Low Complexity
  33. Codec ID           : mp4a-40-2
  34. Duration           : 2 h 4 min
  35. Bit rate mode          : Constant
  36. Bit rate           : 224 kb/s
  37. Channel(s)           : 6 channels
  38. Channel layout         : C L R Ls Rs LFE
  39. Sampling rate          : 48.0 kHz
  40. Frame rate           : 46.875 FPS (1024 SPF)
  41. Compression mode         : Lossy
  42. Stream size          : 199 MiB (8%)
  43. Language           : Chinese
  44. Default            : Yes
  45. Alternate group        : 1
  46. Encoded date         : UTC 2019-06-16 19:53:13
  47. Tagged date          : UTC 2019-06-16 19:53:13
复制代码

复制代码

心理罪之城市之光 The.Liquidator.2017.CHINESE.1080p.WEBRip.x264-RARBG 2.37GB-2.png 心理罪之城市之光 The.Liquidator.2017.CHINESE.1080p.WEBRip.x264-RARBG 2.37GB-3.png 心理罪之城市之光 The.Liquidator.2017.CHINESE.1080p.WEBRip.x264-RARBG 2.37GB-4.png






开通VIP免费下载本站所有资源---点这里
新手必看:资源下载、资源播放、字幕使用、等常见问题---点这里
回复

使用道具 举报

懒得打字嘛,点击右侧快捷回复 【右侧内容,后台自定义】
您需要登录后才可以回帖 登录 | 立即加入

本版积分规则

现在加入蓝光电影网,注册一个账号

QQ| 手机版|小黑屋| 蓝光电影网 |网站地图

Copyright © 2015-2019 Comsenz Inc.  Template by 蓝光电影网 All Rights Reserved.

Powered by 蓝光电影网 X3.4

特别声明:本站所有资源均由网上收集而来,版权归原影音公司所有,如果侵犯了你的权益,请通知我们,我们会及时删除侵权内容.

快速回复 返回顶部 返回列表