找回密码

蓝光电影网

查看: 11|回复: 0

[喜剧片] 夜猫子 The.Night.Sitter.2018.1080p.WEBRip.x264-RARBG 1.68GB

[复制链接]

 成长值: 21340

发表于 2019-6-17 22:40:14 | 显示全部楼层 |阅读模式
夜猫子 The.Night.Sitter.2018.1080p.WEBRip.x264-RARBG 1.68GB-1.png

译  名 夜猫子
片  名 The Night Sitter
年  代 2017
产  地 美国
类  别 笑剧 / 可骇
语  言 英语
上映日期 2017(美国)
IMDb评分5.2/10 from 65 users
IMDb链接http://www.imdb.com/title/tt6942194
豆瓣评分 0/10 from 0 users
豆瓣链接 https://movie.douban.com/subject/27160661/
片  长 88分钟
导  演 Abiel Bruhn
编  剧 Abiel Bruhn
主  演 Elyse Dufour
      Jack Champion


标  签 3M稀影基地论坛 | 3M稀影基地

简  介

  A scheming con artist (Elyse DuFour, AMC's The Walking Dead) poses as innocent babysitter "Amber" to steal from Ted Hooper, a wealthy occult enthusiast with a reclusive son named Kevin. Her crew arrives to clean out the house just as Kevin stumbles upon one of his father's most prized artifacts and unwittingly summons a trio of witches known as The Three Mothers. As the playful, sadistic witches start picking people off, Amber and Kevin form an unlikely bond and try to survive the night together.


  1. Video
  2. ID             : 1
  3. Format           : AVC
  4. Format/Info          : Advanced Video Codec
  5. Format profile         : <a href="/cdn-cgi/l/email-protection" class="__cf_email__" data-cfemail="4f072628270f037b617e">[email protected]</a>
  6. Format settings        : CABAC / 4 Ref Frames
  7. Format settings, CABAC       : Yes
  8. Format settings, ReFrames      : 4 frames
  9. Codec ID           : avc1
  10. Codec ID/Info          : Advanced Video Coding
  11. Duration           : 1 h 28 min
  12. Bit rate           : 2 500 kb/s
  13. Width            : 1 920 pixels
  14. Height           : 800 pixels
  15. Display aspect ratio       : 2.40:1
  16. Frame rate mode        : Constant
  17. Frame rate           : 23.976 (23976/1000) FPS
  18. Color space          : YUV
  19. Chroma subsampling       : 4:2:0
  20. Bit depth          : 8 bits
  21. Scan type          : Progressive
  22. Bits/(Pixel*Frame)       : 0.068
  23. Stream size          : 1.54 GiB (92%)
  24. Writing library        : x264 core 152 r2851M ba24899
  25. Encoding settings        : cabac=1 / ref=4 / deblock=1:-1:-1 / analyse=0x3:0x113 / me=umh / subme=9 / psy=1 / psy_rd=1.00:0.15 / mixed_ref=1 / me_range=24 / chroma_me=1 / trellis=2 / 8x8dct=1 / cqm=0 / deadzone=21,11 / fast_pskip=1 / chroma_qp_offset=-3 / threads=16 / lookahead_threads=4 / sliced_threads=0 / nr=0 / decimate=1 / interlaced=0 / bluray_compat=0 / constrained_intra=0 / bframes=3 / b_pyramid=2 / b_adapt=2 / b_bias=0 / direct=3 / weightb=1 / open_gop=0 / weightp=2 / keyint=250 / keyint_min=25 / scenecut=40 / intra_refresh=0 / rc_lookahead=50 / rc=2pass / mbtree=1 / bitrate=2500 / ratetol=1.0 / qcomp=0.60 / qpmin=0 / qpmax=69 / qpstep=4 / cplxblur=20.0 / qblur=0.5 / vbv_maxrate=31250 / vbv_bufsize=31250 / nal_hrd=none / filler=0 / ip_ratio=1.40 / aq=3:1.00
  26. Encoded date         : UTC 2019-06-17 04:57:08
  27. Tagged date          : UTC 2019-06-17 04:57:08
  28. Codec configuration box      : avcC

  29. Audio
  30. ID             : 2
  31. Format           : AAC LC
  32. Format/Info          : Advanced Audio Codec Low Complexity
  33. Codec ID           : mp4a-40-2
  34. Duration           : 1 h 28 min
  35. Bit rate mode          : Constant
  36. Bit rate           : 224 kb/s
  37. Channel(s)           : 6 channels
  38. Channel layout         : C L R Ls Rs LFE
  39. Sampling rate          : 48.0 kHz
  40. Frame rate           : 46.875 FPS (1024 SPF)
  41. Compression mode         : Lossy
  42. Stream size          : 141 MiB (8%)
  43. Language           : English
  44. Default            : Yes
  45. Alternate group        : 1
  46. Encoded date         : UTC 2019-06-17 04:57:08
  47. Tagged date          : UTC 2019-06-17 04:57:08
复制代码

复制代码

夜猫子 The.Night.Sitter.2018.1080p.WEBRip.x264-RARBG 1.68GB-2.png 夜猫子 The.Night.Sitter.2018.1080p.WEBRip.x264-RARBG 1.68GB-3.png 夜猫子 The.Night.Sitter.2018.1080p.WEBRip.x264-RARBG 1.68GB-4.png






开通VIP免费下载本站所有资源---点这里
新手必看:资源下载、资源播放、字幕使用、等常见问题---点这里
回复

使用道具 举报

懒得打字嘛,点击右侧快捷回复 【右侧内容,后台自定义】
您需要登录后才可以回帖 登录 | 立即加入

本版积分规则

现在加入蓝光电影网,注册一个账号

QQ| 手机版|小黑屋| 蓝光电影网 |网站地图

Copyright © 2015-2019 Comsenz Inc.  Template by 蓝光电影网 All Rights Reserved.

Powered by 蓝光电影网 X3.4

特别声明:本站所有资源均由网上收集而来,版权归原影音公司所有,如果侵犯了你的权益,请通知我们,我们会及时删除侵权内容.

快速回复 返回顶部 返回列表