找回密码

蓝光电影网

查看: 8|回复: 0

[喜剧片] 海豹突击队2 U.S.Seals.2.2001.1080p.WEBRip.x264-RARBG 1.81GB

[复制链接]

 成长值: 21340

发表于 2019-6-17 22:33:42 | 显示全部楼层 |阅读模式
海豹突击队2 U.S.Seals.2.2001.1080p.WEBRip.x264-RARBG 1.81GB-1.png

译  名 海豹突击队2 / U.S. Seals II: The Ultimate Force / 海豹突击队2:终极气力 / 特战连:绝密使命
片  名 U.S. Seals II (V)
年  代 2001
产  地 美国
类  别 笑剧 / 行动 / 冒险
语  言 英语
上映日期 2001-06-21
IMDb评分4.6/10 from 734 users
IMDb链接http://www.imdb.com/title/tt0283652
豆瓣评分 4.7/10 from 114 users
豆瓣链接 https://movie.douban.com/subject/1306927/
片  长 95 分钟
导  演 Isaac Florentine
编  剧 博兹大卫逊 (Boaz Davidson) / Michael D. Weiss
主  演 Michael Worth
      Karen Kim
      Damian Chapa


标  签 行动 | 美国 | 海豹突击队 | 战争 | 肉搏 | 美国电影 | 欧美电影 | 烂片

简  介

  一部冷兵器肉搏电影。
一位前美军海豹特种兵占据一个岛上的原苏联奥秘核武基地,诡计对美国外乡策动核进犯。一样是前海豹特种兵的Casey被告急召集去化解这场危机。由于岛上自然气泄露,一旦用枪就会引发大爆炸,所以Casey率领一群善用军人刀、铁链、弩箭等冷兵器的肉搏精英前往岛上解救被挟持的女科学家,夺回核弹。


  1. Video
  2. ID             : 1
  3. Format           : AVC
  4. Format/Info          : Advanced Video Codec
  5. Format profile         : <a href="/cdn-cgi/l/email-protection" class="__cf_email__" data-cfemail="3b73525c537b770f150a">[email protected]</a>
  6. Format settings        : CABAC / 4 Ref Frames
  7. Format settings, CABAC       : Yes
  8. Format settings, ReFrames      : 4 frames
  9. Codec ID           : avc1
  10. Codec ID/Info          : Advanced Video Coding
  11. Duration           : 1 h 34 min
  12. Bit rate           : 2 500 kb/s
  13. Width            : 1 920 pixels
  14. Height           : 1 080 pixels
  15. Display aspect ratio       : 16:9
  16. Frame rate mode        : Constant
  17. Frame rate           : 23.976 (23976/1000) FPS
  18. Color space          : YUV
  19. Chroma subsampling       : 4:2:0
  20. Bit depth          : 8 bits
  21. Scan type          : Progressive
  22. Bits/(Pixel*Frame)       : 0.050
  23. Stream size          : 1.65 GiB (92%)
  24. Writing library        : x264 core 152 r2851M ba24899
  25. Encoding settings        : cabac=1 / ref=4 / deblock=1:-1:-1 / analyse=0x3:0x113 / me=umh / subme=9 / psy=1 / psy_rd=1.00:0.15 / mixed_ref=1 / me_range=24 / chroma_me=1 / trellis=2 / 8x8dct=1 / cqm=0 / deadzone=21,11 / fast_pskip=1 / chroma_qp_offset=-3 / threads=32 / lookahead_threads=4 / sliced_threads=0 / nr=0 / decimate=1 / interlaced=0 / bluray_compat=0 / constrained_intra=0 / bframes=3 / b_pyramid=2 / b_adapt=2 / b_bias=0 / direct=3 / weightb=1 / open_gop=0 / weightp=2 / keyint=250 / keyint_min=25 / scenecut=40 / intra_refresh=0 / rc_lookahead=50 / rc=2pass / mbtree=1 / bitrate=2500 / ratetol=1.0 / qcomp=0.60 / qpmin=0 / qpmax=69 / qpstep=4 / cplxblur=20.0 / qblur=0.5 / vbv_maxrate=31250 / vbv_bufsize=31250 / nal_hrd=none / filler=0 / ip_ratio=1.40 / aq=3:1.00
  26. Encoded date         : UTC 2019-06-17 07:23:54
  27. Tagged date          : UTC 2019-06-17 07:23:54
  28. Codec configuration box      : avcC

  29. Audio
  30. ID             : 2
  31. Format           : AAC LC
  32. Format/Info          : Advanced Audio Codec Low Complexity
  33. Codec ID           : mp4a-40-2
  34. Duration           : 1 h 34 min
  35. Duration_LastFrame       : -11 ms
  36. Bit rate mode          : Constant
  37. Bit rate           : 224 kb/s
  38. Channel(s)           : 2 channels
  39. Channel layout         : L R
  40. Sampling rate          : 48.0 kHz
  41. Frame rate           : 46.875 FPS (1024 SPF)
  42. Compression mode         : Lossy
  43. Stream size          : 152 MiB (8%)
  44. Language           : English
  45. Default            : Yes
  46. Alternate group        : 1
  47. Encoded date         : UTC 2019-06-17 07:23:54
  48. Tagged date          : UTC 2019-06-17 07:23:54
复制代码

复制代码

海豹突击队2 U.S.Seals.2.2001.1080p.WEBRip.x264-RARBG 1.81GB-2.png 海豹突击队2 U.S.Seals.2.2001.1080p.WEBRip.x264-RARBG 1.81GB-3.png 海豹突击队2 U.S.Seals.2.2001.1080p.WEBRip.x264-RARBG 1.81GB-4.png






开通VIP免费下载本站所有资源---点这里
新手必看:资源下载、资源播放、字幕使用、等常见问题---点这里
回复

使用道具 举报

懒得打字嘛,点击右侧快捷回复 【右侧内容,后台自定义】
您需要登录后才可以回帖 登录 | 立即加入

本版积分规则

现在加入蓝光电影网,注册一个账号

QQ| 手机版|小黑屋| 蓝光电影网 |网站地图

Copyright © 2015-2019 Comsenz Inc.  Template by 蓝光电影网 All Rights Reserved.

Powered by 蓝光电影网 X3.4

特别声明:本站所有资源均由网上收集而来,版权归原影音公司所有,如果侵犯了你的权益,请通知我们,我们会及时删除侵权内容.

快速回复 返回顶部 返回列表