找回密码

蓝光电影网

查看: 227|回复: 5

[纪录] 弯刀少女大出动! Machete.Maidens.Unleashed.2010.1080p.BluRay.x264.DTS-FGT 7.98GB

[复制链接]

 成长值: 22720

发表于 2019-6-17 22:20:27 | 显示全部楼层 |阅读模式
弯刀少女大出动! Machete.Maidens.Unleashed.2010.1080p.BluRay.x264.DTS-FGT 7.98GB-1.png

译  名 弯刀少女大出动!
片  名 Machete Maidens Unleashed!
年  代 2010
产  地 澳大利亚
类  别 记载片
语  言 英语
上映日期 2010-07-24
IMDb评分7.4/10 from 1447 users
IMDb链接http://www.imdb.com/title/tt1623757
豆瓣评分 0/10 from 0 users
豆瓣链接 https://movie.douban.com/subject/4881303/
导  演 Mark Hartley
编  剧 Mark Hartley
主  演 Carmen Argenziano
      Allan Arkush
      Alan Birkinshaw


标  签 记载片 | cult | 澳大利亚 | 可骇 | 血腥 | MarkHartley | Documentary | 紀錄片

简  介

  A fast moving odyssey into the subterranean world of the rarely explored province of Filipino genre filmmaking.
Karate-kicking midgets! Paper-mache monsters! Busty babes with blades! Filipino genre films of the '70s and '80s had it all. Boasting cheap labour, exotic scenery and non-existent health and safety regulations, the Philippines was a dreamland for exploitation filmmakers whose renegade productions were soon engulfing drive-in screens around the globe like a tidal schlock-wave! At last, the all-too-often overlooked world of drive-in filler from Manilla gets the Mark Hartley (NOT QUITE HOLLYWOOD) treatment in Machete Maidens Unleashed! This is the ultimate insiders' account of a faraway backlot where stunt men came cheap, plot was obsolete and the make-up guy was packing heat! Machete Maidens Unleashed! features interviews with cult movie icons Roger Corman, Joe Dante, John Landis, Sid Haig, Eddie Romero and a large assembly of cast, crew and critics, each with a jaw-dropping story to tell about filmmaking with no budget...
To the exploitation filmmakers of the 1970s and 1980s there was no stunt too risky, no story too ridiculous, and no clothing that could not be removed in the name of mass entertainment. The name of the game was to move fast and cheap and to producers big and small the Philippines was the Promised Land, the Wild East of filmmaking where American producers were welcomed with open arms by an otherwise oppressive government and safety regulations were but a distant rumor from far off lands.
With Machete Maidens Unleashed acclaimed filmmaker Mark Hartley (Not Quite Hollywood) dives head first into the hidden history of the American backed Filipino production boom. Filled with outrageous footage from this lost era and firsthand accounts from Roger Corman, Joe Dante, John Landis, Jack Hill and a host of others who experienced the madness live and in person Machete Maidens Unleashed is a delirious ride through one of the most exhilarating periods of film history.


  1. Video
  2. ID             : 1
  3. Format           : AVC
  4. Format/Info          : Advanced Video Codec
  5. Format profile         : <a href="/cdn-cgi/l/email-protection" class="__cf_email__" data-cfemail="753d1c121d3539415b44">High@L4.1</a>
  6. Format settings        : CABAC / 4 Ref Frames
  7. Format settings, CABAC       : Yes
  8. Format settings, ReFrames      : 4 frames
  9. Codec ID           : V_MPEG4/ISO/AVC
  10. Duration           : 1 h 27 min
  11. Bit rate           : 11.5 Mb/s
  12. Width            : 1 920 pixels
  13. Height           : 1 080 pixels
  14. Display aspect ratio       : 16:9
  15. Frame rate mode        : Constant
  16. Frame rate           : 23.976 (24000/1001) FPS
  17. Color space          : YUV
  18. Chroma subsampling       : 4:2:0
  19. Bit depth          : 8 bits
  20. Scan type          : Progressive
  21. Bits/(Pixel*Frame)       : 0.231
  22. Stream size          : 7.05 GiB (88%)
  23. Title            : Machete.Maidens.Unleashed.2010.1080p.BluRay.x264.DTS-FGT
  24. Writing library        : x264 core 148 r2795M aaa9aa8
  25. Encoding settings        : cabac=1 / ref=4 / deblock=1:-2:-2 / analyse=0x3:0x113 / me=umh / subme=9 / psy=1 / psy_rd=1.00:0.15 / mixed_ref=1 / me_range=16 / chroma_me=1 / trellis=2 / 8x8dct=1 / cqm=0 / deadzone=21,11 / fast_pskip=1 / chroma_qp_offset=-3 / threads=24 / lookahead_threads=3 / sliced_threads=0 / nr=0 / decimate=1 / interlaced=0 / bluray_compat=0 / constrained_intra=0 / bframes=3 / b_pyramid=2 / b_adapt=1 / b_bias=0 / direct=3 / weightb=1 / open_gop=0 / weightp=2 / keyint=250 / keyint_min=25 / scenecut=40 / intra_refresh=0 / rc_lookahead=50 / rc=2pass / mbtree=1 / bitrate=11500 / ratetol=1.0 / qcomp=0.60 / qpmin=0 / qpmax=69 / qpstep=4 / cplxblur=20.0 / qblur=0.5 / vbv_maxrate=31250 / vbv_bufsize=31250 / nal_hrd=none / filler=0 / ip_ratio=1.40 / aq=1:1.00
  26. Language           : English
  27. Default            : Yes
  28. Forced           : No

  29. Audio
  30. ID             : 2
  31. Format           : DTS
  32. Format/Info          : Digital Theater Systems
  33. Codec ID           : A_DTS
  34. Duration           : 1 h 27 min
  35. Bit rate mode          : Constant
  36. Bit rate           : 1 509 kb/s
  37. Channel(s)           : 6 channels
  38. Channel layout         : C L R Ls Rs LFE
  39. Sampling rate          : 48.0 kHz
  40. Frame rate           : 93.750 FPS (512 SPF)
  41. Bit depth          : 24 bits
  42. Compression mode         : Lossy
  43. Stream size          : 948 MiB (12%)
  44. Title            : Machete.Maidens.Unleashed.2010.1080p.BluRay.x264.DTS-FGT
  45. Language           : English
  46. Default            : Yes
  47. Forced           : No

  48. Menu
  49. 00:00:00.000         : en:Chapter 01
  50. 00:12:48.643         : en:Chapter 02
  51. 00:34:55.802         : en:Chapter 03
  52. 00:48:22.817         : en:Chapter 04
  53. 01:03:44.154         : en:Chapter 05
  54. 01:16:45.100         : en:Chapter 06
  55. 01:25:37.007         : en:Chapter 07
复制代码

复制代码

弯刀少女大出动! Machete.Maidens.Unleashed.2010.1080p.BluRay.x264.DTS-FGT 7.98GB-2.png 弯刀少女大出动! Machete.Maidens.Unleashed.2010.1080p.BluRay.x264.DTS-FGT 7.98GB-3.png 弯刀少女大出动! Machete.Maidens.Unleashed.2010.1080p.BluRay.x264.DTS-FGT 7.98GB-4.png






开通VIP免费下载本站所有资源---点这里
新手必看:资源下载常见问题---点这里
回复

使用道具 举报

发表于 2019-6-18 09:39:56 | 显示全部楼层
期盼成功下载好资源 ;期盼看到中文字幕。下载不了东东就不要搞上来糊弄人了!!
开通VIP免费下载本站所有资源---点这里
新手必看:资源下载常见问题---点这里
回复 支持 反对

使用道具 举报

发表于 2019-6-18 10:04:43 | 显示全部楼层

既然你诚信诚意的推荐了,那我就勉为其难的看看吧!蓝光电影网不走平凡路。
开通VIP免费下载本站所有资源---点这里
新手必看:资源下载常见问题---点这里
回复 支持 反对

使用道具 举报

发表于 2019-6-18 12:25:10 | 显示全部楼层
楼主发贴辛苦了,谢谢楼主分享!我觉得蓝光电影网是注册对了!
开通VIP免费下载本站所有资源---点这里
新手必看:资源下载常见问题---点这里
回复 支持 反对

使用道具 举报

发表于 2019-6-18 18:30:03 | 显示全部楼层

这东西我收了!谢谢楼主!蓝光电影网真好!
开通VIP免费下载本站所有资源---点这里
新手必看:资源下载常见问题---点这里
回复 支持 反对

使用道具 举报

 成长值: 430

发表于 2019-6-21 11:33:02 | 显示全部楼层

感谢楼主的无私分享!要想蓝光电影网好 就靠你我他
开通VIP免费下载本站所有资源---点这里
新手必看:资源下载常见问题---点这里
回复 支持 反对

使用道具 举报

懒得打字嘛,点击右侧快捷回复 【右侧内容,后台自定义】
您需要登录后才可以回帖 登录 | 立即加入

本版积分规则

现在加入蓝光电影网,注册一个账号

QQ| 手机版|小黑屋| 蓝光电影网 |网站地图

Copyright © 2015-2019 Comsenz Inc.  Template by 蓝光电影论坛 All Rights Reserved.

Powered by 蓝光电影网 X3.4

特别声明:本站所有资源均由网上收集而来,版权归原影音公司所有,如果侵犯了你的权益,请通知我们,我们会及时删除侵权内容.

快速回复 返回顶部 返回列表