找回密码

蓝光电影网

查看: 88|回复: 4

[剧情] 青梅竹马 Taipei.Story.1985.CHINESE.1080p.BluRay.x264-HANDJOB 9.29GB

[复制链接]

 成长值: 21340

发表于 2019-6-17 22:12:52 | 显示全部楼层 |阅读模式
青梅竹马 Taipei.Story.1985.CHINESE.1080p.BluRay.x264-HANDJOB 9.29GB-1.png

译  名 青梅竹马 / Taipei Story
片  名 青梅竹馬
年  代 1985
产  地 台湾
类  别 剧情 / 家庭
语  言 闽南语 / 汉语普通话
上映日期 1985(台湾)
IMDb评分7.6/10 from 1382 users
IMDb链接http://www.imdb.com/title/tt0089866
豆瓣评分 7.9/10 from 6182 users
豆瓣链接 https://movie.douban.com/subject/1305327/
片  长 120分钟
导  演 杨德昌 Edward Yang
编  剧 杨德昌 Edward Yang / 侯孝贤 Hsiao-hsien Hou / 朱天文 Tien-wen Chu
主  演 侯孝贤 Hsiao-hsien Hou
      蔡琴 Chin Tsai
      柯一正 I-Chen Ko
      吴念真
      杨丽音 Li-Yin Yang
      柯素云 Su-Yun Ko
      林秀玲 Hsiu-Ling Lin


标  签 杨德昌 | 台湾 | 侯孝贤 | 台湾电影 | 蔡琴 | 吴念真 | 楊德昌 | 1985

简  介

  少年棒球队国手身世的布店老板阿隆(侯孝贤饰),他和阿贞是青梅竹马。阿贞(蔡琴饰)是某企业的高级助理员工,她总是期想着可以尽快成婚移民美国,改变今朝的生活处境,向往着美好未来。阿隆乐于帮助他人,像开出租车的少棒朋友阿钦(吴念真饰)等等。他有着浓郁的怀旧情结,常去棒球场边旁观。
面临四周剧烈变化的社会,阿隆和阿贞交往的是分歧人群,相互不成避免地渐有阔别,豪情出现了裂缝。后来,阿隆被倾慕阿贞的一个年轻人刺伤,单独坐在路边期待。逐步昏迷中,他恍如重新看见了加入少棒角逐的记忆画面。

获奖情况

  第22届台北金马影展(1985)
  金马奖 最好男配角(提名) 侯孝贤
  金马奖 最好摄影(提名) 杨渭汉




  1. Video
  2. ID             : 1
  3. Format           : AVC
  4. Format/Info          : Advanced Video Codec
  5. Format profile         : <a href="/cdn-cgi/l/email-protection" class="__cf_email__" data-cfemail="d49cbdb3bc9498e0fae5">[email protected]</a>
  6. Format settings        : CABAC / 4 Ref Frames
  7. Format settings, CABAC       : Yes
  8. Format settings, ReFrames      : 4 frames
  9. Codec ID           : V_MPEG4/ISO/AVC
  10. Duration           : 1 h 59 min
  11. Bit rate           : 10.8 Mb/s
  12. Width            : 1 920 pixels
  13. Height           : 1 036 pixels
  14. Display aspect ratio       : 1.85:1
  15. Frame rate mode        : Constant
  16. Frame rate           : 23.976 (24000/1001) FPS
  17. Color space          : YUV
  18. Chroma subsampling       : 4:2:0
  19. Bit depth          : 8 bits
  20. Scan type          : Progressive
  21. Bits/(Pixel*Frame)       : 0.227
  22. Stream size          : 9.07 GiB (98%)
  23. Writing library        : x264 core 157 r2935 545de2f
  24. Encoding settings        : cabac=1 / ref=4 / deblock=1:-3:-3 / analyse=0x3:0x133 / me=umh / subme=10 / psy=1 / psy_rd=1.00:0.00 / mixed_ref=1 / me_range=32 / chroma_me=1 / trellis=2 / 8x8dct=1 / cqm=0 / deadzone=21,11 / fast_pskip=0 / chroma_qp_offset=-2 / threads=18 / lookahead_threads=4 / sliced_threads=0 / nr=0 / decimate=0 / interlaced=0 / bluray_compat=0 / constrained_intra=0 / bframes=16 / b_pyramid=2 / b_adapt=2 / b_bias=0 / direct=3 / weightb=1 / open_gop=0 / weightp=2 / keyint=240 / keyint_min=24 / scenecut=40 / intra_refresh=0 / rc_lookahead=60 / rc=crf / mbtree=0 / crf=22.5 / qcomp=0.60 / qpmin=0 / qpmax=69 / qpstep=4 / vbv_maxrate=62500 / vbv_bufsize=78125 / crf_max=0.0 / nal_hrd=none / filler=0 / ip_ratio=1.40 / pb_ratio=1.30 / aq=2:1.00
  25. Language           : Chinese
  26. Default            : Yes
  27. Forced           : No
  28. Color range          : Limited
  29. Color primaries        : BT.709
  30. Transfer characteristics     : BT.709
  31. Matrix coefficients        : BT.709

  32. Audio
  33. ID             : 2
  34. Format           : FLAC
  35. Format/Info          : Free Lossless Audio Codec
  36. Codec ID           : A_FLAC
  37. Duration           : 1 h 59 min
  38. Bit rate mode          : Variable
  39. Bit rate           : 257 kb/s
  40. Channel(s)           : 1 channel
  41. Sampling rate          : 48.0 kHz
  42. Frame rate           : 11.719 FPS (4096 SPF)
  43. Bit depth          : 16 bits
  44. Compression mode         : Lossless
  45. Stream size          : 221 MiB (2%)
  46. Writing library        : libFLAC 1.2.1 (UTC 2007-09-17)
  47. Language           : Chinese
  48. Default            : Yes
  49. Forced           : No

  50. Text #1
  51. ID             : 3
  52. Format           : UTF-8
  53. Codec ID           : S_TEXT/UTF8
  54. Codec ID/Info          : UTF-8 Plain Text
  55. Duration           : 1 h 58 min
  56. Bit rate           : 24 b/s
  57. Count of elements        : 718
  58. Stream size          : 20.9 KiB (0%)
  59. Language           : English
  60. Default            : Yes
  61. Forced           : No

  62. Text #2
  63. ID             : 4
  64. Format           : UTF-8
  65. Codec ID           : S_TEXT/UTF8
  66. Codec ID/Info          : UTF-8 Plain Text
  67. Duration           : 1 h 57 min
  68. Bit rate           : 22 b/s
  69. Count of elements        : 648
  70. Stream size          : 19.0 KiB (0%)
  71. Title            : Simplified
  72. Language           : Chinese
  73. Default            : No
  74. Forced           : No

  75. Menu
  76. 00:00:00.000         : :Chapter 1
  77. 00:10:46.896         : :Chapter 2
  78. 00:19:50.231         : :Chapter 3
  79. 00:29:24.680         : :Chapter 4
  80. 00:36:32.440         : :Chapter 5
  81. 00:46:56.397         : :Chapter 6
  82. 00:54:42.905         : :Chapter 7
  83. 01:00:45.267         : :Chapter 8
  84. 01:06:11.551         : :Chapter 9
  85. 01:12:11.994         : :Chapter 10
  86. 01:20:45.966         : :Chapter 11
  87. 01:27:58.398         : :Chapter 12
  88. 01:34:52.478         : :Chapter 13
  89. 01:45:22.107         : :Chapter 14
  90. 01:55:16.910         : :Chapter 15
复制代码

复制代码

青梅竹马 Taipei.Story.1985.CHINESE.1080p.BluRay.x264-HANDJOB 9.29GB-2.png 青梅竹马 Taipei.Story.1985.CHINESE.1080p.BluRay.x264-HANDJOB 9.29GB-3.png 青梅竹马 Taipei.Story.1985.CHINESE.1080p.BluRay.x264-HANDJOB 9.29GB-4.png





开通VIP免费下载本站所有资源---点这里
新手必看:资源下载、资源播放、字幕使用、等常见问题---点这里
回复

使用道具 举报

发表于 2019-6-18 08:41:10 | 显示全部楼层
楼主发贴辛苦了,谢谢楼主分享!我觉得蓝光电影网是注册对了!
开通VIP免费下载本站所有资源---点这里
新手必看:资源下载、资源播放、字幕使用、等常见问题---点这里
回复 支持 反对

使用道具 举报

发表于 2019-6-18 15:13:16 | 显示全部楼层
<font size="1">看到这帖子真是高兴!真是难得给力的帖子啊.楼主传的影片是真正的大片,我受益了.楼主,电影应该很好看我觉得,非常感谢楼主分享精彩好看的高清电影,楼主太厉害了!激动人心,无法言表!真是被感动的痛哭流涕……楼主发贴辛苦了,谢谢楼主分享!感恩无私的分享与奉献强烈支持楼主ing……再次多谢楼主楼主发贴辛苦了,谢谢楼主分享!这个帖子不回对不起自己!我想我是一天也不能离开.论坛里一定要有楼主这样无私甘于奉献的人才,我等才能享受到精品大片.论坛不能没有像楼主这样的人才啊!我会一直支持,楼主加油,我们都看好你哦。蓝光电影网真是个好地方!要想蓝光电影网好 就靠你我他.蓝光电影网真好!蓝光电影网太棒了!蓝光电影网是最棒的!我觉得蓝光电影网是注册对了!蓝光电影网不走平凡路。我会一直支持蓝光电影网。蓝光电影网越来越好!</font>
开通VIP免费下载本站所有资源---点这里
新手必看:资源下载、资源播放、字幕使用、等常见问题---点这里
回复 支持 反对

使用道具 举报

已抛锚 成长值: 240

发表于 2019-6-18 17:50:54 | 显示全部楼层
台湾的小清新电影来了!大家快来看!
开通VIP免费下载本站所有资源---点这里
新手必看:资源下载、资源播放、字幕使用、等常见问题---点这里
回复 支持 反对

使用道具 举报

发表于 2019-6-21 16:54:25 | 显示全部楼层

楼主,我太崇拜你了!我想我是一天也不能离开蓝光电影网
开通VIP免费下载本站所有资源---点这里
新手必看:资源下载、资源播放、字幕使用、等常见问题---点这里
回复 支持 反对

使用道具 举报

懒得打字嘛,点击右侧快捷回复 【右侧内容,后台自定义】
您需要登录后才可以回帖 登录 | 立即加入

本版积分规则

现在加入蓝光电影网,注册一个账号

QQ| 手机版|小黑屋| 蓝光电影网 |网站地图

Copyright © 2015-2019 Comsenz Inc.  Template by 蓝光电影网 All Rights Reserved.

Powered by 蓝光电影网 X3.4

特别声明:本站所有资源均由网上收集而来,版权归原影音公司所有,如果侵犯了你的权益,请通知我们,我们会及时删除侵权内容.

快速回复 返回顶部 返回列表