找回密码

蓝光电影网

查看: 89|回复: 6

[剧情] 单刀直入/火遮眼 A.Man.Apart.2003.1080p.BluRay.x264-Japhson 7.93GB

[复制链接]

 成长值: 21340

发表于 2019-6-17 22:09:26 | 显示全部楼层 |阅读模式
单刀直入/火遮眼 A.Man.Apart.2003.1080p.BluRay.x264-Japhson 7.93GB-1.png

译  名 刀刀见血 / 火遮眼
片  名 A Man Apart
年  代 2003
产  地 美国 / 德国
类  别 剧情 / 行动 / 犯罪
语  言 英语 / 西班牙语
上映日期 2003-04-04(美国) / 2004-11-17(中国大陆)
IMDb评分6.1/10 from 42417 users
IMDb链接http://www.imdb.com/title/tt0266465
豆瓣评分 6.1/10 from 3437 users
豆瓣链接 https://movie.douban.com/subject/1305781/
片  长 109分钟
导  演 F·加里·格雷 F. Gary Gray
编  剧 克里斯蒂安·古德加斯特 Christian Gudegast / 保罗·舒尔灵 Paul Scheuring
主  演 范·迪塞尔 Vin Diesel
      拉伦兹·泰特 Larenz Tate
      蒂莫西·奥利芬特 Timothy Olyphant
      Geno Silva
      杰奎琳·奥拉德丝 Jacqueline Obradors
      Juan Fernández
      杰夫·科伯 Jeff Kober
      Marco Rodríguez
      埃米里奥·瑞弗拉 Emilio Rivera
      乔治·沙佩尔森 George Sharperson
      Malieek Straughter
      Jim Boeke


标  签 行动 | 犯罪 | 美国 | VinDiesel | 美国电影 | 2003 | 刀刀见血 | Vin_Diesel

简  介

  美国与墨西哥交界的边地步带,由于治理紊乱成了毒贩们的天堂。缉毒奸细西恩?维特(范?迪塞尔 Vin Diesel 饰)精明强干,经过不懈尽力终究与同侪们协力抓获了大毒枭卢塞洛。但是,卢塞洛向西恩发出警告,宣称后者铸下大错。公然,毒品市场因卢塞洛入狱而重新分别好处范围,一个自称“暗黑破坏神”的新毒枭大开杀戒,西恩的爱妻在攻击中不辛身亡,更误以为狱中的卢塞洛是幕后黑手;而卢塞洛因暗黑破坏神的步步紧逼感应堕入绝境,终究答应息争除对自己误解的西恩合作。西恩操纵卢塞洛的团伙气力,与同伴为暗黑破坏神布下圈套,立誓为妻子报仇……


  1. Video
  2. ID             : 1
  3. Format           : AVC
  4. Format/Info          : Advanced Video Codec
  5. Format profile         : <a href="/cdn-cgi/l/email-protection" class="__cf_email__" data-cfemail="420a2b252a020e766c73">[email protected]</a>
  6. Format settings, CABAC       : Yes
  7. Format settings, ReFrames      : 4 frames
  8. Codec ID           : V_MPEG4/ISO/AVC
  9. Duration           : 1 h 49 min
  10. Bit rate           : 8 857 kb/s
  11. Width            : 1 920 pixels
  12. Height           : 1 080 pixels
  13. Display aspect ratio       : 16:9
  14. Frame rate mode        : Constant
  15. Frame rate           : 24.000 FPS
  16. Color space          : YUV
  17. Chroma subsampling       : 4:2:0
  18. Bit depth          : 8 bits
  19. Scan type          : Progressive
  20. Bits/(Pixel*Frame)       : 0.178
  21. Stream size          : 6.62 GiB (83%)
  22. Writing library        : x264 core 67 r1137M 1fda882
  23. Encoding settings        : cabac=1 / ref=4 / deblock=1:-1:-1 / analyse=0x3:0x113 / me=umh / subme=7 / psy_rd=1.0:0.0 / mixed_ref=1 / me_range=16 / chroma_me=1 / trellis=2 / 8x8dct=1 / cqm=0 / deadzone=21,11 / chroma_qp_offset=-2 / threads=6 / nr=0 / decimate=1 / mbaff=0 / bframes=3 / b_pyramid=0 / b_adapt=2 / b_bias=0 / direct=3 / wpredb=1 / keyint=250 / keyint_min=25 / scenecut=40 / rc=2pass / bitrate=8857 / ratetol=1.0 / qcomp=0.60 / qpmin=10 / qpmax=51 / qpstep=4 / cplxblur=20.0 / qblur=0.5 / vbv_maxrate=50000 / vbv_bufsize=50000 / ip_ratio=1.40 / pb_ratio=1.30 / aq=1:1.00
  24. Language           : English
  25. Default            : Yes
  26. Forced           : No

  27. Audio
  28. ID             : 2
  29. Format           : DTS
  30. Format/Info          : Digital Theater Systems
  31. Mode             : 16
  32. Format settings, Endianness    : Big
  33. Codec ID           : A_DTS
  34. Duration           : 1 h 49 min
  35. Bit rate mode          : Constant
  36. Bit rate           : 1 509 kb/s
  37. Channel(s)           : 6 channels
  38. Channel positions        : Front: L C R, Side: L R, LFE
  39. Sampling rate          : 48.0 kHz
  40. Frame rate           : 93.750 FPS (512 spf)
  41. Bit depth          : 24 bits
  42. Compression mode         : Lossy
  43. Stream size          : 1.15 GiB (15%)
  44. Language           : English
  45. Default            : Yes
  46. Forced           : No
复制代码

复制代码

单刀直入/火遮眼 A.Man.Apart.2003.1080p.BluRay.x264-Japhson 7.93GB-4.png 单刀直入/火遮眼 A.Man.Apart.2003.1080p.BluRay.x264-Japhson 7.93GB-5.png 单刀直入/火遮眼 A.Man.Apart.2003.1080p.BluRay.x264-Japhson 7.93GB-6.png






开通VIP免费下载本站所有资源---点这里
新手必看:资源下载、资源播放、字幕使用、等常见问题---点这里
回复

使用道具 举报

发表于 2019-6-18 00:48:05 | 显示全部楼层

楼主太厉害了!楼主,电影应该很好看我觉得蓝光电影网真是个好地方!
开通VIP免费下载本站所有资源---点这里
新手必看:资源下载、资源播放、字幕使用、等常见问题---点这里
回复 支持 反对

使用道具 举报

发表于 2019-6-18 10:29:42 | 显示全部楼层
感谢楼主分享!
开通VIP免费下载本站所有资源---点这里
新手必看:资源下载、资源播放、字幕使用、等常见问题---点这里
回复 支持 反对

使用道具 举报

发表于 2019-6-18 15:09:02 | 显示全部楼层
<font size="1">看到这帖子真是高兴!真是难得给力的帖子啊.楼主传的影片是真正的大片,我受益了.楼主,电影应该很好看我觉得,非常感谢楼主分享精彩好看的高清电影,楼主太厉害了!激动人心,无法言表!真是被感动的痛哭流涕……楼主发贴辛苦了,谢谢楼主分享!感恩无私的分享与奉献强烈支持楼主ing……再次多谢楼主楼主发贴辛苦了,谢谢楼主分享!这个帖子不回对不起自己!我想我是一天也不能离开.论坛里一定要有楼主这样无私甘于奉献的人才,我等才能享受到精品大片.论坛不能没有像楼主这样的人才啊!我会一直支持,楼主加油,我们都看好你哦。蓝光电影网真是个好地方!要想蓝光电影网好 就靠你我他.蓝光电影网真好!蓝光电影网太棒了!蓝光电影网是最棒的!我觉得蓝光电影网是注册对了!蓝光电影网不走平凡路。我会一直支持蓝光电影网。蓝光电影网越来越好!</font>
开通VIP免费下载本站所有资源---点这里
新手必看:资源下载、资源播放、字幕使用、等常见问题---点这里
回复 支持 反对

使用道具 举报

发表于 2019-6-18 17:44:32 | 显示全部楼层
这部电影我记得很牛B啊
开通VIP免费下载本站所有资源---点这里
新手必看:资源下载、资源播放、字幕使用、等常见问题---点这里
回复 支持 反对

使用道具 举报

发表于 2019-6-21 17:01:22 | 显示全部楼层

楼主,我太崇拜你了!我想我是一天也不能离开蓝光电影网
开通VIP免费下载本站所有资源---点这里
新手必看:资源下载、资源播放、字幕使用、等常见问题---点这里
回复 支持 反对

使用道具 举报

发表于 2019-6-24 22:43:02 | 显示全部楼层

这东西我收了!谢谢楼主!蓝光电影网真好!
开通VIP免费下载本站所有资源---点这里
新手必看:资源下载、资源播放、字幕使用、等常见问题---点这里
回复 支持 反对

使用道具 举报

懒得打字嘛,点击右侧快捷回复 【右侧内容,后台自定义】
您需要登录后才可以回帖 登录 | 立即加入

本版积分规则

现在加入蓝光电影网,注册一个账号

QQ| 手机版|小黑屋| 蓝光电影网 |网站地图

Copyright © 2015-2019 Comsenz Inc.  Template by 蓝光电影网 All Rights Reserved.

Powered by 蓝光电影网 X3.4

特别声明:本站所有资源均由网上收集而来,版权归原影音公司所有,如果侵犯了你的权益,请通知我们,我们会及时删除侵权内容.

快速回复 返回顶部 返回列表