找回密码

蓝光电影网

查看: 76|回复: 2

[喜剧] 摇滚总动员 Airheads.1994.1080p.BluRay.x264-GECKOS 6.55GB

[复制链接]

 成长值: 22720

发表于 2019-6-17 22:06:27 | 显示全部楼层 |阅读模式
摇滚总动员 Airheads.1994.1080p.BluRay.x264-GECKOS 6.55GB-1.png

译  名 摇滚总带动
片  名 Airheads
年  代 1994
产  地 美国
类  别 笑剧 / 音乐 / 犯罪
语  言 英语
上映日期 1994-08-05
IMDb评分6.1/10 from 43088 users
IMDb链接http://www.imdb.com/title/tt0109068
豆瓣评分 6.8/10 from 225 users
豆瓣链接 https://movie.douban.com/subject/1308016/
片  长 92 分钟
导  演 麦克·勒曼 Michael Lehmann
编  剧 Rich Wilkes
主  演 史蒂夫·布西密 Steve Buscemi
      亚当·桑德勒 Adam Sandler
      布兰登·费舍 Brendan Fraser


标  签 笑剧 | 摇滚 | 美国 | AdamSandler | 史蒂夫·布希密 | 亚当桑德勒 | 1994 | 美国电影

简  介

  Chazz(布兰登·弗雷泽 饰)、Rex (史蒂夫·布西密 饰)和 Pip(亚当·桑德勒 饰) 组成了一个叫“Lone Rangers”的摇滚乐队,他们一天就想着著名。但是不幸的是刊行商在听过他们的作品以后总是拒绝他们。为了让他们的音乐在电台播出,这几个家伙用假枪劫持了一产业地的摇滚乐电台。这下可惹来了大麻烦......本是一出闹剧最初会演酿成什么样的终局?三个酷爱摇滚乐的青年能否可以称心快意呢?


  1. Video
  2. ID             : 1
  3. Format           : AVC
  4. Format/Info          : Advanced Video Codec
  5. Format profile         : <a href="/cdn-cgi/l/email-protection" class="__cf_email__" data-cfemail="c880a1afa08884fce6f9">High@L4.1</a>
  6. Format settings, CABAC       : Yes
  7. Format settings, ReFrames      : 4 frames
  8. Codec ID           : V_MPEG4/ISO/AVC
  9. Duration           : 1 h 32 min
  10. Bit rate           : 9 536 kb/s
  11. Width            : 1 920 pixels
  12. Height           : 1 040 pixels
  13. Display aspect ratio       : 1.85:1
  14. Frame rate mode        : Constant
  15. Frame rate           : 23.976 (24000/1001) FPS
  16. Color space          : YUV
  17. Chroma subsampling       : 4:2:0
  18. Bit depth          : 8 bits
  19. Scan type          : Progressive
  20. Bits/(Pixel*Frame)       : 0.199
  21. Stream size          : 6.01 GiB (92%)
  22. Title            : X264
  23. Writing library        : x264 core 133 r2334 a3ac64b
  24. Encoding settings        : cabac=1 / ref=4 / deblock=1:0:0 / analyse=0x3:0x133 / me=umh / subme=7 / psy=1 / psy_rd=1.00:0.00 / mixed_ref=1 / me_range=16 / chroma_me=1 / trellis=1 / 8x8dct=1 / cqm=0 / deadzone=21,11 / fast_pskip=0 / chroma_qp_offset=-2 / threads=36 / lookahead_threads=6 / sliced_threads=0 / nr=0 / decimate=1 / interlaced=0 / bluray_compat=0 / constrained_intra=0 / bframes=3 / b_pyramid=2 / b_adapt=1 / b_bias=0 / direct=1 / weightb=1 / open_gop=0 / weightp=2 / keyint=250 / keyint_min=23 / scenecut=40 / intra_refresh=0 / rc_lookahead=40 / rc=2pass / mbtree=1 / bitrate=9536 / ratetol=1.0 / qcomp=0.60 / qpmin=0 / qpmax=69 / qpstep=4 / cplxblur=20.0 / qblur=0.5 / ip_ratio=1.40 / aq=1:1.00
  25. Language           : English
  26. Default            : Yes
  27. Forced           : No

  28. Audio
  29. ID             : 2
  30. Format           : AC-3
  31. Format/Info          : Audio Coding 3
  32. Format settings, Endianness    : Big
  33. Codec ID           : A_AC3
  34. Duration           : 1 h 32 min
  35. Bit rate mode          : Constant
  36. Bit rate           : 640 kb/s
  37. Channel(s)           : 6 channels
  38. Channel positions        : Front: L C R, Side: L R, LFE
  39. Sampling rate          : 48.0 kHz
  40. Frame rate           : 31.250 FPS (1536 spf)
  41. Bit depth          : 16 bits
  42. Compression mode         : Lossy
  43. Stream size          : 422 MiB (6%)
  44. Title            : DTS
  45. Language           : English
  46. Service kind         : Complete Main
  47. Default            : Yes
  48. Forced           : No

  49. Menu
  50. 00:00:00.000         : en:00:00:00.000
  51. 00:08:46.901         : en:00:08:46.901
  52. 00:21:37.838         : en:00:21:37.838
  53. 00:30:13.603         : en:00:30:13.603
  54. 00:40:04.569         : en:00:40:04.569
  55. 00:49:42.188         : en:00:49:42.188
  56. 01:00:51.565         : en:01:00:51.565
  57. 01:10:48.911         : en:01:10:48.911
  58. 01:22:25.149         : en:01:22:25.149
复制代码

复制代码

摇滚总动员 Airheads.1994.1080p.BluRay.x264-GECKOS 6.55GB-2.png 摇滚总动员 Airheads.1994.1080p.BluRay.x264-GECKOS 6.55GB-3.png 摇滚总动员 Airheads.1994.1080p.BluRay.x264-GECKOS 6.55GB-4.png 摇滚总动员 Airheads.1994.1080p.BluRay.x264-GECKOS 6.55GB-5.png 摇滚总动员 Airheads.1994.1080p.BluRay.x264-GECKOS 6.55GB-6.png 摇滚总动员 Airheads.1994.1080p.BluRay.x264-GECKOS 6.55GB-7.png






开通VIP免费下载本站所有资源---点这里
新手必看:资源下载常见问题---点这里
回复

使用道具 举报

已抛锚 成长值: 240

发表于 2019-6-18 21:56:42 | 显示全部楼层
让我们一起摇摆!摇摆!
开通VIP免费下载本站所有资源---点这里
新手必看:资源下载常见问题---点这里
回复 支持 反对

使用道具 举报

 成长值: 430

发表于 2019-6-21 22:50:25 | 显示全部楼层

其实我一直觉得楼主的品味不错!呵呵!蓝光电影网太棒了!
开通VIP免费下载本站所有资源---点这里
新手必看:资源下载常见问题---点这里
回复 支持 反对

使用道具 举报

懒得打字嘛,点击右侧快捷回复 【右侧内容,后台自定义】
您需要登录后才可以回帖 登录 | 立即加入

本版积分规则

现在加入蓝光电影网,注册一个账号

QQ| 手机版|小黑屋| 蓝光电影网 |网站地图

Copyright © 2015-2019 Comsenz Inc.  Template by 蓝光电影论坛 All Rights Reserved.

Powered by 蓝光电影网 X3.4

特别声明:本站所有资源均由网上收集而来,版权归原影音公司所有,如果侵犯了你的权益,请通知我们,我们会及时删除侵权内容.

快速回复 返回顶部 返回列表