找回密码

蓝光电影网

查看: 103|回复: 0

[剧情] 歌厅/酒吧间 Cabaret.1972.1080p.BluRay.x264-HD4U 8.75GB

[复制链接]

 成长值: 22720

发表于 2019-6-17 21:56:30 | 显示全部楼层 |阅读模式
歌厅/酒吧间 Cabaret.1972.1080p.BluRay.x264-HD4U 8.75GB-1.png

译  名 歌厅 / 酒吧间 / 酒店
片  名 Cabaret
年  代 1972
产  地 美国
类  别 剧情 / 恋爱 / 歌舞
语  言 英语 / 德语 / 希伯来语 / 法语
上映日期 1972-02-13(美国)
IMDb评分7.8/10 from 43619 users
IMDb链接http://www.imdb.com/title/tt0068327
豆瓣评分 8.9/10 from 6910 users
豆瓣链接 https://movie.douban.com/subject/1296282/
片  长 124分钟
导  演 鲍勃·福斯 Bob Fosse
编  剧 乔·麦斯特洛夫 Joe Masteroff / 约翰·范·德鲁登 John Van Druten / 克里斯托弗·艾什伍德 Christopher Isherwood / 杰伊·普莱森·艾伦 Jay Presson Allen
主  演 丽莎·明奈利 Liza Minnelli
      麦克尔·约克 Michael York
      赫尔穆特·格里姆 Helmut Griem
      乔尔·格雷 Joel Grey
      弗里茨·维伯 Fritz Wepper
      马里莎·贝伦森 Marisa Berenson
      伊丽莎白·诺伊曼-菲特尔 Elisabeth Neumann-Viertel
      海伦·维塔 Helen Vita
      西格丽德·冯·里希特霍芬 Sigrid von Richthofen
      格尔德·费斯佩曼 Gerd Vespermann
      劳夫·沃尔特 Ralf Wolter
      Estrongo Nachama
      凯瑟琳·多比 Kathryn Doby
      Pierre Franckh
      Ellen Umlauf


标  签 歌舞 | 美国 | 音乐剧 | 1972 | 美国电影 | 音乐 | 百老汇 | 1970s

简  介

  20世纪30年月的德国柏林,纳粹势力正在兴起。美国女艺人Sally(丽莎·明奈利 Liza Minnelli 饰)是一家俱乐部的舞女,很是受接待。刚刚来到柏林的英国男教师Brian Roberts(麦克尔·约克 Michael York 饰)碰巧成了Sally的室友,他 以教英语来赡养自己。Sally引诱Brian没有成功,因而思疑他是个男同性恋者。Sally和她的一个朋友Max(赫尔穆特·格里姆 Helmut Griem饰)发生了关系,后来她发现,Robert也和Max发生过关系。另一边,一个犹太人Fritz爱上了Robert门生Natalia,一个有钱的犹太蜜斯。为了和Natalia在一路,他从一个基督教徒转酿成犹太教徒。Sally怀孕了,但她却不晓得孩子是Robert还是Max的。纳粹在德国的势力越来越盛,Robert决议带Sally回英国.....
本片被提名1973年奥斯卡十项大奖,终极赢得包括最好导演、最好女配角等八项。

获奖情况

  第45届奥斯卡金像奖(1973)
  最好影片(提名) Cy Feuer
  最好导演 鲍勃·福斯
  最好女配角 丽莎·明奈利
  最好男配角 乔尔·格雷
  最好改编剧本(提名) 杰伊·普莱森·艾伦
  最好摄影 杰弗里·昂斯沃思
  最好剪辑 戴维·布雷瑟顿
  最好声响 David Hildyard / Robert Knudson
  最好艺术指导 Rolf Zehetbauer / Hans Jürgen Kiebach / Herbert Strabel
  Best Music, Scoring Original Song Score and/or Adaptation 拉尔夫·伯恩斯




  1. Video
  2. ID             : 1
  3. Format           : AVC
  4. Format/Info          : Advanced Video Codec
  5. Format profile         : <a href="/cdn-cgi/l/email-protection" class="__cf_email__" data-cfemail="6c24050b042c2058425d">High@L4.1</a>
  6. Format settings, CABAC       : Yes
  7. Format settings, ReFrames      : 4 frames
  8. Codec ID           : V_MPEG4/ISO/AVC
  9. Duration           : 2 h 3 min
  10. Bit rate           : 8 613 kb/s
  11. Width            : 1 920 pixels
  12. Height           : 1 080 pixels
  13. Display aspect ratio       : 16:9
  14. Frame rate mode        : Constant
  15. Frame rate           : 23.976 (24000/1001) FPS
  16. Color space          : YUV
  17. Chroma subsampling       : 4:2:0
  18. Bit depth          : 8 bits
  19. Scan type          : Progressive
  20. Bits/(Pixel*Frame)       : 0.173
  21. Stream size          : 7.27 GiB (83%)
  22. Writing library        : x264 core 129 r2245 bc13772
  23. Encoding settings        : cabac=1 / ref=4 / deblock=1:0:0 / analyse=0x3:0x133 / me=umh / subme=7 / psy=1 / psy_rd=1.00:0.00 / mixed_ref=1 / me_range=16 / chroma_me=1 / trellis=1 / 8x8dct=1 / cqm=0 / deadzone=21,11 / fast_pskip=0 / chroma_qp_offset=-2 / threads=12 / lookahead_threads=2 / sliced_threads=0 / nr=0 / decimate=1 / interlaced=0 / bluray_compat=0 / constrained_intra=0 / bframes=3 / b_pyramid=2 / b_adapt=1 / b_bias=0 / direct=1 / weightb=1 / open_gop=0 / weightp=2 / keyint=250 / keyint_min=23 / scenecut=40 / intra_refresh=0 / rc_lookahead=40 / rc=2pass / mbtree=1 / bitrate=8613 / ratetol=1.0 / qcomp=0.60 / qpmin=0 / qpmax=69 / qpstep=4 / cplxblur=20.0 / qblur=0.5 / ip_ratio=1.40 / aq=1:1.00
  24. Language           : English
  25. Default            : Yes
  26. Forced           : No

  27. Audio
  28. ID             : 2
  29. Format           : DTS
  30. Format/Info          : Digital Theater Systems
  31. Mode             : 16
  32. Format settings, Endianness    : Big
  33. Codec ID           : A_DTS
  34. Duration           : 2 h 3 min
  35. Bit rate mode          : Constant
  36. Bit rate           : 1 509 kb/s
  37. Channel(s)           : 6 channels
  38. Channel positions        : Front: L C R, Side: L R, LFE
  39. Sampling rate          : 48.0 kHz
  40. Frame rate           : 93.750 FPS (512 spf)
  41. Bit depth          : 24 bits
  42. Compression mode         : Lossy
  43. Stream size          : 1.30 GiB (15%)
  44. Language           : English
  45. Default            : Yes
  46. Forced           : No

  47. Text
  48. ID             : 3
  49. Format           : UTF-8
  50. Codec ID           : S_TEXT/UTF8
  51. Codec ID/Info          : UTF-8 Plain Text
  52. Language           : English
  53. Default            : No
  54. Forced           : No

  55. Menu
  56. 00:00:00.000         : en:00:00:00.000
  57. 00:09:33.490         : en:00:09:33.490
  58. 00:20:30.855         : en:00:20:30.855
  59. 00:30:39.921         : en:00:30:39.921
  60. 00:39:37.458         : en:00:39:37.458
  61. 00:50:16.347         : en:00:50:16.347
  62. 01:00:14.861         : en:01:00:14.861
  63. 01:09:39.550         : en:01:09:39.550
  64. 01:21:22.086         : en:01:21:22.086
  65. 01:29:39.332         : en:01:29:39.332
  66. 01:41:09.397         : en:01:41:09.397
  67. 01:49:30.647         : en:01:49:30.647
  68. 02:01:51.763         : en:02:01:51.763
复制代码

复制代码

歌厅/酒吧间 Cabaret.1972.1080p.BluRay.x264-HD4U 8.75GB-5.png 歌厅/酒吧间 Cabaret.1972.1080p.BluRay.x264-HD4U 8.75GB-6.png 歌厅/酒吧间 Cabaret.1972.1080p.BluRay.x264-HD4U 8.75GB-7.png






开通VIP免费下载本站所有资源---点这里
新手必看:资源下载常见问题---点这里
回复

使用道具 举报

懒得打字嘛,点击右侧快捷回复 【右侧内容,后台自定义】
您需要登录后才可以回帖 登录 | 立即加入

本版积分规则

现在加入蓝光电影网,注册一个账号

QQ| 手机版|小黑屋| 蓝光电影网 |网站地图

Copyright © 2015-2019 Comsenz Inc.  Template by 蓝光电影论坛 All Rights Reserved.

Powered by 蓝光电影网 X3.4

特别声明:本站所有资源均由网上收集而来,版权归原影音公司所有,如果侵犯了你的权益,请通知我们,我们会及时删除侵权内容.

快速回复 返回顶部 返回列表