找回密码

蓝光电影网

查看: 14944|回复: 432

[剧情] 孟买酒店/失控危城[外挂字幕] Hotel.Mumbai.2018.1080p.BluRay.X264-AMIABLE 10.94GB

  [复制链接]

 成长值: 22360

发表于 2019-6-16 21:42:15 | 显示全部楼层 |阅读模式
孟买酒店/失控危城[外挂字幕] Hotel.Mumbai.2018.1080p.BluRay.X264-AMIABLE 10.94GB-1.png

译  名 孟买酒店 / 失控危城(台)
片  名 Hotel Mumbai
年  代 2018
产  地 澳大利亚 / 美国 / 印度
类  别 剧情 / 惊悚 / 历史
语  言 英语 / 印地语 / 旁遮普语 / 希腊语 / 俄语 / 阿拉伯语 / 乌尔都语 / 波斯语
上映日期 2018-09-07(多伦多电影节) / 2018-10-10(阿德莱德电影节)
IMDb评分7.8/10 from 6952 users
IMDb链接http://www.imdb.com/title/tt5461944
豆瓣评分 8.4/10 from 1475 users
豆瓣链接 https://movie.douban.com/subject/26794701/
片  长 125分钟
导  演 安东尼·马拉斯 Anthony Maras
编  剧 安东尼·马拉斯 Anthony Maras / 约翰·科里 John Collee
主  演 艾米·汉莫 Armie Hammer
      纳赞宁·波妮阿蒂 Nazanin Boniadi
      戴夫·帕特尔 Dev Patel
      詹森·艾萨克 Jason Isaacs
      阿努潘·凯尔 Anupam Kher
      刘承羽 Natasha Liu Bordizzo
      安格斯·麦克拉伦 Angus McLaren
      萨钦·乔伯 Sachin Joab
      蒂尔达·格哈姆-哈维 Tilda Cobham-Hervey
      维品·沙尔马 Vipin Sharma
      阿布罗伊·辛格 Abhiroy Singh
      迪维亚·阿妮 Divya Unny
      桑迪普·博雅卡 Sandeep Bhojak
      Zenia Starr


标  签 印度 | 犯罪 | 剧情 | 惊悚 | 历史 | 2018 | 澳大利亚 | 电影

简  介

  影片实在再现震动天下的“印度9·11”孟买恐袭事务,2008年11月,著名的泰姬陵酒店意外遭到可骇份子入侵,可骇份子无不同业凶,让全部酒店堕入失望之境,百余名酒店住客及员工被困,无人得知何时能等来救济,一场与死神的赛跑就此开启…



  1. Video
  2. ID             : 1
  3. Format           : AVC
  4. Format/Info          : Advanced Video Codec
  5. Format profile         : <a href="/cdn-cgi/l/email-protection" class="__cf_email__" data-cfemail="94dcfdf3fcd4d8a0baa5">High@L4.1</a>
  6. Format settings        : CABAC / 5 Ref Frames
  7. Format settings, CABAC       : Yes
  8. Format settings, ReFrames      : 5 frames
  9. Codec ID           : V_MPEG4/ISO/AVC
  10. Duration           : 2 h 2 min
  11. Bit rate           : 11.2 Mb/s
  12. Width            : 1 920 pixels
  13. Height           : 808 pixels
  14. Display aspect ratio       : 2.40:1
  15. Frame rate mode        : Constant
  16. Frame rate           : 23.976 (24000/1001) FPS
  17. Color space          : YUV
  18. Chroma subsampling       : 4:2:0
  19. Bit depth          : 8 bits
  20. Scan type          : Progressive
  21. Bits/(Pixel*Frame)       : 0.302
  22. Stream size          : 9.63 GiB (88%)
  23. Writing library        : x264 core 157 r2970 5493be8
  24. Encoding settings        : cabac=1 / ref=5 / deblock=1:-3:-3 / analyse=0x3:0x113 / me=umh / subme=8 / psy=1 / psy_rd=1.00:0.00 / mixed_ref=1 / me_range=32 / chroma_me=1 / trellis=2 / 8x8dct=1 / cqm=0 / deadzone=21,11 / fast_pskip=1 / chroma_qp_offset=-2 / threads=25 / lookahead_threads=4 / sliced_threads=0 / nr=0 / decimate=1 / interlaced=0 / bluray_compat=0 / constrained_intra=0 / bframes=3 / b_pyramid=2 / b_adapt=2 / b_bias=0 / direct=3 / weightb=1 / open_gop=0 / weightp=2 / keyint=240 / keyint_min=24 / scenecut=40 / intra_refresh=0 / rc_lookahead=50 / rc=2pass / mbtree=1 / bitrate=11226 / ratetol=1.0 / qcomp=0.60 / qpmin=0 / qpmax=69 / qpstep=4 / cplxblur=20.0 / qblur=0.5 / ip_ratio=1.40 / aq=3:0.80
  25. Default            : Yes
  26. Forced           : No

  27. Audio
  28. ID             : 2
  29. Format           : DTS
  30. Format/Info          : Digital Theater Systems
  31. Codec ID           : A_DTS
  32. Duration           : 2 h 2 min
  33. Bit rate mode          : Constant
  34. Bit rate           : 1 509 kb/s
  35. Channel(s)           : 6 channels
  36. Channel layout         : C L R Ls Rs LFE
  37. Sampling rate          : 48.0 kHz
  38. Frame rate           : 93.750 FPS (512 SPF)
  39. Bit depth          : 24 bits
  40. Compression mode         : Lossy
  41. Stream size          : 1.30 GiB (12%)
  42. Language           : English
  43. Default            : Yes
  44. Forced           : No

  45. Text #1
  46. ID             : 3
  47. Format           : UTF-8
  48. Codec ID           : S_TEXT/UTF8
  49. Codec ID/Info          : UTF-8 Plain Text
  50. Duration           : 1 h 52 min
  51. Bit rate           : 33 b/s
  52. Count of elements        : 915
  53. Stream size          : 27.9 KiB (0%)
  54. Language           : English
  55. Default            : No
  56. Forced           : No

  57. Text #2
  58. ID             : 4
  59. Format           : UTF-8
  60. Codec ID           : S_TEXT/UTF8
  61. Codec ID/Info          : UTF-8 Plain Text
  62. Duration           : 1 h 55 min
  63. Bit rate           : 39 b/s
  64. Count of elements        : 1124
  65. Stream size          : 33.0 KiB (0%)
  66. Title            : SDH
  67. Language           : English
  68. Default            : No
  69. Forced           : No

  70. Menu
  71. 00:00:00.000         : en:Chapter 01
  72. 00:06:38.481         : en:Chapter 02
  73. 00:15:51.742         : en:Chapter 03
  74. 00:24:23.420         : en:Chapter 04
  75. 00:36:02.869         : en:Chapter 05
  76. 00:48:47.341         : en:Chapter 06
  77. 01:00:39.177         : en:Chapter 07
  78. 01:15:30.568         : en:Chapter 08
  79. 01:27:51.183         : en:Chapter 09
  80. 01:37:14.579         : en:Chapter 10
  81. 01:46:32.553         : en:Chapter 11
  82. 01:55:33.635         : en:Chapter 12
复制代码

复制代码


孟买酒店/失控危城[外挂字幕] Hotel.Mumbai.2018.1080p.BluRay.X264-AMIABLE 10.94GB-2.png






开通VIP免费下载本站所有资源---点这里
新手必看:资源下载常见问题---点这里
回复

使用道具 举报

发表于 2019-6-16 21:55:46 | 显示全部楼层
真实事件改编,感谢分享
开通VIP免费下载本站所有资源---点这里
新手必看:资源下载常见问题---点这里
回复 支持 反对

使用道具 举报

发表于 2019-6-16 23:50:36 | 显示全部楼层

楼主太厉害了!楼主,电影应该很好看我觉得蓝光电影网真是个好地方!
开通VIP免费下载本站所有资源---点这里
新手必看:资源下载常见问题---点这里
回复 支持 反对

使用道具 举报

发表于 2019-6-17 00:19:05 | 显示全部楼层
楼主发贴辛苦了,谢谢楼主分享!我觉得蓝光电影网是注册对了!
开通VIP免费下载本站所有资源---点这里
新手必看:资源下载常见问题---点这里
回复 支持 反对

使用道具 举报

发表于 2019-6-17 00:20:10 | 显示全部楼层
楼主发贴辛苦了,谢谢楼主分享!我觉得蓝光电影网是注册对了!
开通VIP免费下载本站所有资源---点这里
新手必看:资源下载常见问题---点这里
回复 支持 反对

使用道具 举报

发表于 2019-6-17 00:21:11 | 显示全部楼层
楼主发贴辛苦了,谢谢楼主分享!我觉得蓝光电影网是注册对了!
开通VIP免费下载本站所有资源---点这里
新手必看:资源下载常见问题---点这里
回复 支持 反对

使用道具 举报

发表于 2019-6-17 00:22:26 | 显示全部楼层
楼主发贴辛苦了,谢谢楼主分享!我觉得蓝光电影网是注册对了!
开通VIP免费下载本站所有资源---点这里
新手必看:资源下载常见问题---点这里
回复 支持 反对

使用道具 举报

发表于 2019-6-17 00:25:34 | 显示全部楼层
楼主发贴辛苦了,谢谢楼主分享!我觉得蓝光电影网是注册对了!
开通VIP免费下载本站所有资源---点这里
新手必看:资源下载常见问题---点这里
回复 支持 反对

使用道具 举报

发表于 2019-6-17 00:26:40 | 显示全部楼层
楼主发贴辛苦了,谢谢楼主分享!我觉得蓝光电影网是注册对了!
开通VIP免费下载本站所有资源---点这里
新手必看:资源下载常见问题---点这里
回复 支持 反对

使用道具 举报

发表于 2019-6-17 01:44:52 | 显示全部楼层
好看,的确好看,我很喜欢
开通VIP免费下载本站所有资源---点这里
新手必看:资源下载常见问题---点这里
回复 支持 反对

使用道具 举报

懒得打字嘛,点击右侧快捷回复 【右侧内容,后台自定义】
您需要登录后才可以回帖 登录 | 立即加入

本版积分规则

现在加入蓝光电影网,注册一个账号

QQ| 手机版|小黑屋| 蓝光电影网 |网站地图

Copyright © 2015-2019 Comsenz Inc.  Template by 蓝光电影网 All Rights Reserved.

Powered by 蓝光电影网 X3.4

特别声明:本站所有资源均由网上收集而来,版权归原影音公司所有,如果侵犯了你的权益,请通知我们,我们会及时删除侵权内容.

快速回复 返回顶部 返回列表