找回密码

蓝光电影网

查看: 451|回复: 28

[剧情] 杀戮/今晚谁当家 Carnage.2011.LIMITED.1080p.BluRay.x264-SPARKS 5.47GB

[复制链接]

 成长值: 21865

发表于 2019-6-9 23:23:35 | 显示全部楼层 |阅读模式
杀戮/今晚谁当家 Carnage.2011.LIMITED.1080p.BluRay.x264-SPARKS 5.47GB-1.png

译  名 杀戮 / 今晚谁当家(台) / 会客厅杀戮 / 屠杀之神 / 文化的野生番 / 杀戮之神 / 躁爸爸狂妈妈(港)
片  名 Carnage
年  代 2011
产  地 法国 / 德国 / 波兰 / 西班牙
类  别 剧情 / 笑剧
语  言 英语
上映日期 2011-09-01(威尼斯电影节)
IMDb评分7.2/10 from 111348 users
IMDb链接http://www.imdb.com/title/tt1692486
豆瓣评分 8.2/10 from 47714 users
豆瓣链接 https://movie.douban.com/subject/4913185/
片  长 80分钟
导  演 罗曼·波兰斯基 Roman Polanski
编  剧 罗曼·波兰斯基 Roman Polanski / 雅丝米娜·雷札 Yasmina Reza
主  演 朱迪·福斯特 Jodie Foster
      凯特·温丝莱特 Kate Winslet
      克里斯托弗·沃尔兹 Christoph Waltz
      约翰·C·赖利 John C. Reilly


标  签 黑色诙谐 | 法国 | 剧情 | 家庭 | 人性 | 2011 | 笑剧 | 英国

简  介

  普通的一天,名叫扎克利和伊森的小男孩在某公园内发生争论,前者用棍子将后者的嘴打破。这起不大不小的儿童胶葛,将两对本没有任何交集的佳耦拉到了一路。经营小百货商铺的麦克·朗斯特里特(约翰·C·赖利 John C Reilly 饰)与身为作家的潘妮洛普(朱迪·福斯特 Jodie Foster 饰)是伊森的怙恃,他们在家中迎来扎克利的怙恃——律师艾伦·考温(克里斯托弗·沃尔兹 Christoph Waltz 饰)以及投资掮客人南希(凯特·温斯莱特 KateWinslet 饰)——的造访。他们就孩子的危险事务协商、会商、争论、冷言冷语、拐弯抹角,时而强作欢颜,时而面露不快,可是又不能不面临面度过这难熬与疾苦的一天……
本片荣获2011年波士顿影评人奖最好群戏奖、2011年威尼斯电影节小金狮奖。

获奖情况

  第68届威尼斯电影节(2011)
  金狮奖(提名) 罗曼·波兰斯基
  小金狮奖 罗曼·波兰斯基

  第69届金球奖(2012)
  电影类 音乐/笑剧片最好女配角(提名) 朱迪·福斯特 / 凯特·温丝莱特

  第25届欧洲电影奖(2012)
  最好女配角(提名) 凯特·温丝莱特
  最好编剧(提名) 罗曼·波兰斯基 / 雅丝米娜·雷札

  第26届西班牙戈雅奖(2012)
  最好欧洲电影(提名) 罗曼·波兰斯基

  第56届意大利大卫奖(2012)
  最好欧洲电影(提名) 罗曼·波兰斯基

  第32届波士顿影评人协会奖(2011)
  最好群像表演

  第16届圣地亚哥影评人协会奖(2011)
  最好群像表演(提名)




  1. Video
  2. ID             : 1
  3. Format           : AVC
  4. Format/Info          : Advanced Video Codec
  5. Format profile         : <a href="/cdn-cgi/l/email-protection" class="__cf_email__" data-cfemail="054d6c626d4549312b34">[email protected]</a>
  6. Format settings, CABAC       : Yes
  7. Format settings, ReFrames      : 5 frames
  8. Codec ID           : V_MPEG4/ISO/AVC
  9. Duration           : 1 h 19 min
  10. Bit rate           : 8 316 kb/s
  11. Width            : 1 920 pixels
  12. Height           : 824 pixels
  13. Display aspect ratio       : 2.35:1
  14. Frame rate mode        : Constant
  15. Frame rate           : 23.976 FPS
  16. Color space          : YUV
  17. Chroma subsampling       : 4:2:0
  18. Bit depth          : 8 bits
  19. Scan type          : Progressive
  20. Bits/(Pixel*Frame)       : 0.219
  21. Stream size          : 4.52 GiB (83%)
  22. Writing library        : x264 core 120 r2164 da19765
  23. Encoding settings        : cabac=1 / ref=5 / deblock=1:0:0 / analyse=0x3:0x133 / me=umh / subme=7 / psy=1 / psy_rd=1.00:0.00 / mixed_ref=1 / me_range=16 / chroma_me=1 / trellis=1 / 8x8dct=1 / cqm=0 / deadzone=21,11 / fast_pskip=0 / chroma_qp_offset=-2 / threads=18 / sliced_threads=0 / nr=0 / decimate=1 / interlaced=0 / bluray_compat=0 / constrained_intra=0 / bframes=3 / b_pyramid=2 / b_adapt=1 / b_bias=0 / direct=1 / weightb=1 / open_gop=0 / weightp=2 / keyint=250 / keyint_min=23 / scenecut=40 / intra_refresh=0 / rc_lookahead=40 / rc=2pass / mbtree=1 / bitrate=8316 / ratetol=1.0 / qcomp=0.60 / qpmin=0 / qpmax=69 / qpstep=4 / cplxblur=20.0 / qblur=0.5 / ip_ratio=1.40 / aq=1:1.00
  24. Language           : English
  25. Default            : Yes
  26. Forced           : No

  27. Audio
  28. ID             : 2
  29. Format           : DTS
  30. Format/Info          : Digital Theater Systems
  31. Mode             : 16
  32. Format settings, Endianness    : Big
  33. Codec ID           : A_DTS
  34. Duration           : 1 h 19 min
  35. Bit rate mode          : Constant
  36. Bit rate           : 1 509 kb/s
  37. Channel(s)           : 6 channels
  38. Channel(s)_Original        : 5 channels
  39. Channel positions        : Front: L C R, Side: L R
  40. Sampling rate          : 48.0 kHz
  41. Frame rate           : 93.750 FPS (512 spf)
  42. Bit depth          : 24 bits
  43. Compression mode         : Lossy
  44. Stream size          : 859 MiB (15%)
  45. Language           : English
  46. Default            : Yes
  47. Forced           : No

  48. Text
  49. ID             : 3
  50. Format           : UTF-8
  51. Codec ID           : S_TEXT/UTF8
  52. Codec ID/Info          : UTF-8 Plain Text
  53. Language           : English
  54. Default            : No
  55. Forced           : No

  56. Menu
  57. 00:00:00.000         : en:00:00:00.000
  58. 00:06:37.939         : en:00:06:37.939
  59. 00:09:39.078         : en:00:09:39.078
  60. 00:14:21.444         : en:00:14:21.444
  61. 00:19:06.145         : en:00:19:06.145
  62. 00:23:58.520         : en:00:23:58.520
  63. 00:28:30.542         : en:00:28:30.542
  64. 00:33:06.860         : en:00:33:06.860
  65. 00:37:04.139         : en:00:37:04.139
  66. 00:41:15.390         : en:00:41:15.390
  67. 00:45:18.758         : en:00:45:18.758
  68. 00:49:15.578         : en:00:49:15.578
  69. 00:52:52.586         : en:00:52:52.586
  70. 01:00:39.469         : en:01:00:39.469
  71. 01:06:42.498         : en:01:06:42.498
  72. 01:11:29.535         : en:01:11:29.535
复制代码

复制代码

杀戮/今晚谁当家 Carnage.2011.LIMITED.1080p.BluRay.x264-SPARKS 5.47GB-2.png 杀戮/今晚谁当家 Carnage.2011.LIMITED.1080p.BluRay.x264-SPARKS 5.47GB-3.png 杀戮/今晚谁当家 Carnage.2011.LIMITED.1080p.BluRay.x264-SPARKS 5.47GB-4.png 杀戮/今晚谁当家 Carnage.2011.LIMITED.1080p.BluRay.x264-SPARKS 5.47GB-5.png 杀戮/今晚谁当家 Carnage.2011.LIMITED.1080p.BluRay.x264-SPARKS 5.47GB-6.png 杀戮/今晚谁当家 Carnage.2011.LIMITED.1080p.BluRay.x264-SPARKS 5.47GB-7.png






开通VIP免费下载本站所有资源---点这里
新手必看:资源下载、资源播放、字幕使用、等常见问题---点这里
回复

使用道具 举报

发表于 2019-6-10 01:15:53 | 显示全部楼层
楼主发贴辛苦了,谢谢楼主分享!我觉得蓝光电影网是注册对了!
开通VIP免费下载本站所有资源---点这里
新手必看:资源下载、资源播放、字幕使用、等常见问题---点这里
回复 支持 反对

使用道具 举报

发表于 2019-6-10 08:51:42 | 显示全部楼层
本片荣获2011年波士顿影评人奖最好群戏奖、2011年威尼斯电影节小金狮奖。
开通VIP免费下载本站所有资源---点这里
新手必看:资源下载、资源播放、字幕使用、等常见问题---点这里
回复 支持 反对

使用道具 举报

发表于 2019-6-10 09:19:57 | 显示全部楼层
楼主发贴辛苦了,谢谢楼主分享!我觉得蓝光电影网是注册对了!
开通VIP免费下载本站所有资源---点这里
新手必看:资源下载、资源播放、字幕使用、等常见问题---点这里
回复 支持 反对

使用道具 举报

发表于 2019-6-10 09:45:28 | 显示全部楼层

感谢楼主的无私分享!
开通VIP免费下载本站所有资源---点这里
新手必看:资源下载、资源播放、字幕使用、等常见问题---点这里
回复 支持 反对

使用道具 举报

 成长值: 2965

发表于 2019-6-10 16:31:52 | 显示全部楼层
感谢了。。。。。。。。。。。。感谢你的分享。。。。。。。。。。。赞。。。。。。。棒。。。。。。。
开通VIP免费下载本站所有资源---点这里
新手必看:资源下载、资源播放、字幕使用、等常见问题---点这里
回复 支持 反对

使用道具 举报

发表于 2019-6-10 17:26:15 | 显示全部楼层

楼主发贴辛苦了,谢谢楼主分享
开通VIP免费下载本站所有资源---点这里
新手必看:资源下载、资源播放、字幕使用、等常见问题---点这里
回复 支持 反对

使用道具 举报

发表于 2019-6-10 18:42:34 | 显示全部楼层

这东西我收了!谢谢楼主!蓝光电影网真好!
开通VIP免费下载本站所有资源---点这里
新手必看:资源下载、资源播放、字幕使用、等常见问题---点这里
回复 支持 反对

使用道具 举报

发表于 2019-6-10 21:17:54 | 显示全部楼层
感謝分享這電影
开通VIP免费下载本站所有资源---点这里
新手必看:资源下载、资源播放、字幕使用、等常见问题---点这里
回复 支持 反对

使用道具 举报

发表于 2019-6-11 07:03:25 | 显示全部楼层
楼主发贴辛苦了,谢谢楼主分享!我觉得蓝光电影网是注册对了!
开通VIP免费下载本站所有资源---点这里
新手必看:资源下载、资源播放、字幕使用、等常见问题---点这里
回复 支持 反对

使用道具 举报

懒得打字嘛,点击右侧快捷回复 【右侧内容,后台自定义】
您需要登录后才可以回帖 登录 | 立即加入

本版积分规则

现在加入蓝光电影网,注册一个账号

QQ| 手机版|小黑屋| 蓝光电影网 |网站地图

Copyright © 2015-2019 Comsenz Inc.  Template by 蓝光电影网 All Rights Reserved.

Powered by 蓝光电影网 X3.4

特别声明:本站所有资源均由网上收集而来,版权归原影音公司所有,如果侵犯了你的权益,请通知我们,我们会及时删除侵权内容.

快速回复 返回顶部 返回列表