找回密码

蓝光电影网

查看: 357|回复: 29

[剧情] 杀戮/今晚谁当家 Carnage.2011.LIMITED.1080p.BluRay.x264-SPARKS 5.47GB

[复制链接]
  • TA的每日心情
    开心
    11 小时前
  • 签到天数: 204 天

    [LV.7]常住居民III

     成长值: 20905

    发表于 2019-6-9 23:23:35 | 显示全部楼层 |阅读模式

    马上注册,获取最新影视资讯,享用更多功能,让你轻松玩转蓝光电影网。

    您需要 登录 才可以下载或查看,没有帐号?立即加入

    x
    杀戮/今晚谁当家 Carnage.2011.LIMITED.1080p.BluRay.x264-SPARKS 5.47GB-1.png

    译  名 杀戮 / 今晚谁当家(台) / 会客厅杀戮 / 屠杀之神 / 文化的野生番 / 杀戮之神 / 躁爸爸狂妈妈(港)
    片  名 Carnage
    年  代 2011
    产  地 法国 / 德国 / 波兰 / 西班牙
    类  别 剧情 / 笑剧
    语  言 英语
    上映日期 2011-09-01(威尼斯电影节)
    IMDb评分7.2/10 from 111348 users
    IMDb链接http://www.imdb.com/title/tt1692486
    豆瓣评分 8.2/10 from 47714 users
    豆瓣链接 https://movie.douban.com/subject/4913185/
    片  长 80分钟
    导  演 罗曼·波兰斯基 Roman Polanski
    编  剧 罗曼·波兰斯基 Roman Polanski / 雅丝米娜·雷札 Yasmina Reza
    主  演 朱迪·福斯特 Jodie Foster
          凯特·温丝莱特 Kate Winslet
          克里斯托弗·沃尔兹 Christoph Waltz
          约翰·C·赖利 John C. Reilly


    标  签 黑色诙谐 | 法国 | 剧情 | 家庭 | 人性 | 2011 | 笑剧 | 英国

    简  介

      普通的一天,名叫扎克利和伊森的小男孩在某公园内发生争论,前者用棍子将后者的嘴打破。这起不大不小的儿童胶葛,将两对本没有任何交集的佳耦拉到了一路。经营小百货商铺的麦克·朗斯特里特(约翰·C·赖利 John C Reilly 饰)与身为作家的潘妮洛普(朱迪·福斯特 Jodie Foster 饰)是伊森的怙恃,他们在家中迎来扎克利的怙恃——律师艾伦·考温(克里斯托弗·沃尔兹 Christoph Waltz 饰)以及投资掮客人南希(凯特·温斯莱特 KateWinslet 饰)——的造访。他们就孩子的危险事务协商、会商、争论、冷言冷语、拐弯抹角,时而强作欢颜,时而面露不快,可是又不能不面临面度过这难熬与疾苦的一天……
    本片荣获2011年波士顿影评人奖最好群戏奖、2011年威尼斯电影节小金狮奖。

    获奖情况

      第68届威尼斯电影节(2011)
      金狮奖(提名) 罗曼·波兰斯基
      小金狮奖 罗曼·波兰斯基

      第69届金球奖(2012)
      电影类 音乐/笑剧片最好女配角(提名) 朱迪·福斯特 / 凯特·温丝莱特

      第25届欧洲电影奖(2012)
      最好女配角(提名) 凯特·温丝莱特
      最好编剧(提名) 罗曼·波兰斯基 / 雅丝米娜·雷札

      第26届西班牙戈雅奖(2012)
      最好欧洲电影(提名) 罗曼·波兰斯基

      第56届意大利大卫奖(2012)
      最好欧洲电影(提名) 罗曼·波兰斯基

      第32届波士顿影评人协会奖(2011)
      最好群像表演

      第16届圣地亚哥影评人协会奖(2011)
      最好群像表演(提名)



    • Video
    • ID             : 1
    • Format           : AVC
    • Format/Info          : Advanced Video Codec
    • Format profile         : [email protected]
    • Format settings, CABAC       : Yes
    • Format settings, ReFrames      : 5 frames
    • Codec ID           : V_MPEG4/ISO/AVC
    • Duration           : 1 h 19 min
    • Bit rate           : 8 316 kb/s
    • Width            : 1 920 pixels
    • Height           : 824 pixels
    • Display aspect ratio       : 2.35:1
    • Frame rate mode        : Constant
    • Frame rate           : 23.976 FPS
    • Color space          : YUV
    • Chroma subsampling       : 4:2:0
    • Bit depth          : 8 bits
    • Scan type          : Progressive
    • Bits/(Pixel*Frame)       : 0.219
    • Stream size          : 4.52 GiB (83%)
    • Writing library        : x264 core 120 r2164 da19765
    • Encoding settings        : cabac=1 / ref=5 / deblock=1:0:0 / analyse=0x3:0x133 / me=umh / subme=7 / psy=1 / psy_rd=1.00:0.00 / mixed_ref=1 / me_range=16 / chroma_me=1 / trellis=1 / 8x8dct=1 / cqm=0 / deadzone=21,11 / fast_pskip=0 / chroma_qp_offset=-2 / threads=18 / sliced_threads=0 / nr=0 / decimate=1 / interlaced=0 / bluray_compat=0 / constrained_intra=0 / bframes=3 / b_pyramid=2 / b_adapt=1 / b_bias=0 / direct=1 / weightb=1 / open_gop=0 / weightp=2 / keyint=250 / keyint_min=23 / scenecut=40 / intra_refresh=0 / rc_lookahead=40 / rc=2pass / mbtree=1 / bitrate=8316 / ratetol=1.0 / qcomp=0.60 / qpmin=0 / qpmax=69 / qpstep=4 / cplxblur=20.0 / qblur=0.5 / ip_ratio=1.40 / aq=1:1.00
    • Language           : English
    • Default            : Yes
    • Forced           : No
    • Audio
    • ID             : 2
    • Format           : DTS
    • Format/Info          : Digital Theater Systems
    • Mode             : 16
    • Format settings, Endianness    : Big
    • Codec ID           : A_DTS
    • Duration           : 1 h 19 min
    • Bit rate mode          : Constant
    • Bit rate           : 1 509 kb/s
    • Channel(s)           : 6 channels
    • Channel(s)_Original        : 5 channels
    • Channel positions        : Front: L C R, Side: L R
    • Sampling rate          : 48.0 kHz
    • Frame rate           : 93.750 FPS (512 spf)
    • Bit depth          : 24 bits
    • Compression mode         : Lossy
    • Stream size          : 859 MiB (15%)
    • Language           : English
    • Default            : Yes
    • Forced           : No
    • Text
    • ID             : 3
    • Format           : UTF-8
    • Codec ID           : S_TEXT/UTF8
    • Codec ID/Info          : UTF-8 Plain Text
    • Language           : English
    • Default            : No
    • Forced           : No
    • Menu
    • 00:00:00.000         : en:00:00:00.000
    • 00:06:37.939         : en:00:06:37.939
    • 00:09:39.078         : en:00:09:39.078
    • 00:14:21.444         : en:00:14:21.444
    • 00:19:06.145         : en:00:19:06.145
    • 00:23:58.520         : en:00:23:58.520
    • 00:28:30.542         : en:00:28:30.542
    • 00:33:06.860         : en:00:33:06.860
    • 00:37:04.139         : en:00:37:04.139
    • 00:41:15.390         : en:00:41:15.390
    • 00:45:18.758         : en:00:45:18.758
    • 00:49:15.578         : en:00:49:15.578
    • 00:52:52.586         : en:00:52:52.586
    • 01:00:39.469         : en:01:00:39.469
    • 01:06:42.498         : en:01:06:42.498
    • 01:11:29.535         : en:01:11:29.535

    复制代码

    杀戮/今晚谁当家 Carnage.2011.LIMITED.1080p.BluRay.x264-SPARKS 5.47GB-2.png 杀戮/今晚谁当家 Carnage.2011.LIMITED.1080p.BluRay.x264-SPARKS 5.47GB-3.png 杀戮/今晚谁当家 Carnage.2011.LIMITED.1080p.BluRay.x264-SPARKS 5.47GB-4.png 杀戮/今晚谁当家 Carnage.2011.LIMITED.1080p.BluRay.x264-SPARKS 5.47GB-5.png 杀戮/今晚谁当家 Carnage.2011.LIMITED.1080p.BluRay.x264-SPARKS 5.47GB-6.png 杀戮/今晚谁当家 Carnage.2011.LIMITED.1080p.BluRay.x264-SPARKS 5.47GB-7.png






    Carnage.2011.LIMITED.1080p.BluRay.x264-SPARKS.torrent (55.18 KB, 下载次数: 36)
    开通VIP免费下载本站所有资源---点这里
    新手必看:资源下载、资源播放、字幕使用、等常见问题---点这里
    回复

    使用道具 举报

  • TA的每日心情
    开心
    22 小时前
  • 签到天数: 29 天

    [LV.4]偶尔看看III

    发表于 7 天前 | 显示全部楼层
    楼主发贴辛苦了,谢谢楼主分享!我觉得蓝光电影网是注册对了!
    开通VIP免费下载本站所有资源---点这里
    新手必看:资源下载、资源播放、字幕使用、等常见问题---点这里
    回复 支持 反对

    使用道具 举报

  • TA的每日心情
    无聊
    12 小时前
  • 签到天数: 9 天

    [LV.3]偶尔看看II

    发表于 7 天前 | 显示全部楼层
    本片荣获2011年波士顿影评人奖最好群戏奖、2011年威尼斯电影节小金狮奖。
    开通VIP免费下载本站所有资源---点这里
    新手必看:资源下载、资源播放、字幕使用、等常见问题---点这里
    回复 支持 反对

    使用道具 举报

  • TA的每日心情
    擦汗
    14 小时前
  • 签到天数: 27 天

    [LV.4]偶尔看看III

    发表于 7 天前 | 显示全部楼层
    楼主发贴辛苦了,谢谢楼主分享!我觉得蓝光电影网是注册对了!
    [发帖际遇]: 一个袋子砸在了 renmeng 头上,renmeng 赚了 1 蓝光币. 幸运榜 / 衰神榜
    开通VIP免费下载本站所有资源---点这里
    新手必看:资源下载、资源播放、字幕使用、等常见问题---点这里
    回复 支持 反对

    使用道具 举报

  • TA的每日心情
    开心
    6 小时前
  • 签到天数: 13 天

    [LV.3]偶尔看看II

    发表于 7 天前 | 显示全部楼层

    感谢楼主的无私分享!
    开通VIP免费下载本站所有资源---点这里
    新手必看:资源下载、资源播放、字幕使用、等常见问题---点这里
    回复 支持 反对

    使用道具 举报

  • TA的每日心情
    开心
    14 小时前
  • 签到天数: 115 天

    [LV.6]常住居民II

    发表于 7 天前 | 显示全部楼层
    看到这帖子真是高兴!真是难得给力的帖子啊.楼主传的影片是真正的大片,我受益了.楼主,电影应该很好看我觉得,非常感谢楼主分享精彩好看的高清电影,楼主太厉害了!激动人心,无法言表!真是被感动的痛哭流涕……楼主发贴辛苦了,谢谢楼主分享!感恩无私的分享与奉献强烈支持楼主ing……再次多谢楼主楼主发贴辛苦了,谢谢楼主分享!这个帖子不回对不起自己!我想我是一天也不能离开.论坛里一定要有楼主这样无私甘于奉献的人才,我等才能享受到精品大片.论坛不能没有像楼主这样的人才啊!我会一直支持,楼主加油,我们都看好你哦。蓝光电影网真是个好地方!要想蓝光电影网好 就靠你我他.蓝光电影网真好!蓝光电影网太棒了!蓝光电影网是最棒的!我觉得蓝光电影网是注册对了!蓝光电影网不走平凡路。我会一直支持蓝光电影网。蓝光电影网越来越好!
    开通VIP免费下载本站所有资源---点这里
    新手必看:资源下载、资源播放、字幕使用、等常见问题---点这里
    回复 支持 反对

    使用道具 举报

  • TA的每日心情

    3 天前
  • 签到天数: 142 天

    [LV.7]常住居民III

     成长值: 2935

    发表于 7 天前 | 显示全部楼层
    感谢了。。。。。。。。。。。。感谢你的分享。。。。。。。。。。。赞。。。。。。。棒。。。。。。。
    [发帖际遇]: 一个袋子砸在了 京城安普 头上,京城安普 赚了 2 蓝光币. 幸运榜 / 衰神榜
    开通VIP免费下载本站所有资源---点这里
    新手必看:资源下载、资源播放、字幕使用、等常见问题---点这里
    回复 支持 反对

    使用道具 举报

  • TA的每日心情
    开心
    13 小时前
  • 签到天数: 12 天

    [LV.3]偶尔看看II

    发表于 7 天前 | 显示全部楼层

    楼主发贴辛苦了,谢谢楼主分享
    开通VIP免费下载本站所有资源---点这里
    新手必看:资源下载、资源播放、字幕使用、等常见问题---点这里
    回复 支持 反对

    使用道具 举报

  • TA的每日心情
    开心
    4 小时前
  • 签到天数: 42 天

    [LV.5]常住居民I

    发表于 7 天前 | 显示全部楼层

    这东西我收了!谢谢楼主!蓝光电影网真好!
    开通VIP免费下载本站所有资源---点这里
    新手必看:资源下载、资源播放、字幕使用、等常见问题---点这里
    回复 支持 反对

    使用道具 举报

  • TA的每日心情
    开心
    昨天 01:06
  • 签到天数: 87 天

    [LV.6]常住居民II

    发表于 7 天前 | 显示全部楼层
    感謝分享這電影
    开通VIP免费下载本站所有资源---点这里
    新手必看:资源下载、资源播放、字幕使用、等常见问题---点这里
    回复 支持 反对

    使用道具 举报

    *滑动验证:
    懒得打字嘛,点击右侧快捷回复 【右侧内容,后台自定义】
    您需要登录后才可以回帖 登录 | 立即加入

    本版积分规则

    现在加入蓝光电影网,注册一个账号

    QQ| 手机版|小黑屋| 蓝光电影网 |网站地图

    Copyright © 20013-2018 Comsenz Inc.  Template by 蓝光电影论坛 All Rights Reserved.

    Powered by 高清电影网 X3.4
    特别声明:本站所有资源均由网上收集而来,版权归原影音公司所有,如果侵犯了你的权益,请通知我们,我们会及时删除侵权内容.

    快速回复 返回顶部 返回列表