找回密码

蓝光电影网

查看: 319|回复: 21

[剧情] 曼哈顿 Manhattan.1979.1080p.BluRay.X264-AMIABLE 6.56GB

[复制链接]

 成长值: 21340

发表于 2019-6-9 23:18:57 | 显示全部楼层 |阅读模式
曼哈顿 Manhattan.1979.1080p.BluRay.X264-AMIABLE 6.56GB-1.png

译  名 曼哈顿
片  名 Manhattan
年  代 1979
产  地 美国
类  别 剧情 / 笑剧 / 恋爱
语  言 英语
上映日期 1979-04-25
IMDb评分8.0/10 from 121692 users
IMDb链接http://www.imdb.com/title/tt0079522
豆瓣评分 8.3/10 from 23321 users
豆瓣链接 https://movie.douban.com/subject/1294300/
片  长 96 分钟
导  演 伍迪·艾伦 Woody Allen
编  剧 马歇尔·布瑞克曼 Marshall Brickman / 伍迪·艾伦 Woody Allen
主  演 黛安·基顿 Diane Keaton
      梅丽尔·斯特里普 Meryl Streep
      伍迪·艾伦 Woody Allen
      迈克尔·墨菲 Michael Murphy
      玛瑞儿·海明威 Mariel Hemingway


标  签 伍迪·艾伦 | 美国 | 恋爱 | WoodyAllen | woodyallen | 1979 | 美国电影 | 伍迪艾伦

简  介

  40岁的艾萨克·戴维斯(伍迪·艾伦 Woody Allen 饰)在写作上不算成功,在豪情上更是一团糟。一方面,为了另一个女人而分开他的前妻吉尔(梅丽尔·斯特里普 Meryl Streep 饰)筹算出书一本有关他们私密婚姻生活的书,另一方面,17岁的女孩翠西(玛瑞儿·海明 威 Mariel Hemingway 饰)对于这段他并不筹算认真经营的豪情投入了越来越多的热情。在这个节骨眼上,好友耶尔(迈克尔·莫菲Michael Murphy饰)的情人玛丽(黛安·基顿 Diane Keaton 饰)闯入了戴维斯的视野,滑稽的辞吐,投机的话题,一切的一切都为两人的豪情擦出了火花。3个汉子,3个女人,在曼哈顿这个富贵又孤独的城市,这群成年人究竟该用何种方式来道德并公道的处理他们的豪情题目呢?
本片荣获1980年英国电影学院最好影片奖。

获奖情况

  第52届奥斯卡金像奖(1980)
  最好女配角(提名) 玛瑞儿·海明威
  最好原创剧本(提名) 马歇尔·布瑞克曼 / 伍迪·艾伦




  1. Video
  2. ID             : 1
  3. Format           : AVC
  4. Format/Info          : Advanced Video Codec
  5. Format profile         : <a href="/cdn-cgi/l/email-protection" class="__cf_email__" data-cfemail="c48cada3ac8488f0eaf5">[email protected]</a>
  6. Format settings        : CABAC / 5 Ref Frames
  7. Format settings, CABAC       : Yes
  8. Format settings, ReFrames      : 5 frames
  9. Codec ID           : V_MPEG4/ISO/AVC
  10. Duration           : 1 h 36 min
  11. Bit rate           : 8 238 kb/s
  12. Width            : 1 920 pixels
  13. Height           : 824 pixels
  14. Display aspect ratio       : 2.35:1
  15. Frame rate mode        : Constant
  16. Frame rate           : 23.976 (24000/1001) FPS
  17. Color space          : YUV
  18. Chroma subsampling       : 4:2:0
  19. Bit depth          : 8 bits
  20. Scan type          : Progressive
  21. Bits/(Pixel*Frame)       : 0.217
  22. Stream size          : 5.41 GiB (83%)
  23. Writing library        : x264 core 120 r2120 0c7dab9
  24. Encoding settings        : cabac=1 / ref=5 / deblock=1:0:0 / analyse=0x3:0x113 / me=umh / subme=8 / psy=1 / psy_rd=1.00:0.00 / mixed_ref=1 / me_range=16 / chroma_me=1 / trellis=1 / 8x8dct=1 / cqm=0 / deadzone=21,11 / fast_pskip=1 / chroma_qp_offset=-2 / threads=12 / sliced_threads=0 / nr=0 / decimate=1 / interlaced=0 / bluray_compat=0 / constrained_intra=0 / bframes=3 / b_pyramid=2 / b_adapt=2 / b_bias=0 / direct=3 / weightb=1 / open_gop=0 / weightp=2 / keyint=240 / keyint_min=24 / scenecut=40 / intra_refresh=0 / rc_lookahead=50 / rc=2pass / mbtree=1 / bitrate=8238 / ratetol=1.0 / qcomp=0.60 / qpmin=0 / qpmax=69 / qpstep=4 / cplxblur=20.0 / qblur=0.5 / ip_ratio=1.40 / aq=1:1.00
  25. Language           : English
  26. Default            : Yes
  27. Forced           : No

  28. Audio
  29. ID             : 2
  30. Format           : DTS
  31. Format/Info          : Digital Theater Systems
  32. Codec ID           : A_DTS
  33. Duration           : 1 h 36 min
  34. Bit rate mode          : Constant
  35. Bit rate           : 1 509 kb/s
  36. Channel(s)           : 6 channels
  37. Channel(s)_Original        : 2 channels
  38. Channel positions        : Front: L R
  39. Sampling rate          : 48.0 kHz
  40. Frame rate           : 93.750 FPS (512 SPF)
  41. Bit depth          : 24 bits
  42. Compression mode         : Lossy
  43. Stream size          : 1.02 GiB (15%)
  44. Language           : English
  45. Default            : Yes
  46. Forced           : No

  47. Text
  48. ID             : 3
  49. Format           : UTF-8
  50. Codec ID           : S_TEXT/UTF8
  51. Codec ID/Info          : UTF-8 Plain Text
  52. Language           : English
  53. Default            : No
  54. Forced           : No

  55. Menu
  56. 00:00:00.000         : en:00:00:00.000
  57. 00:04:08.874         : en:00:04:08.874
  58. 00:06:47.532         : en:00:06:47.532
  59. 00:11:02.537         : en:00:11:02.537
  60. 00:18:40.828         : en:00:18:40.828
  61. 00:21:38.047         : en:00:21:38.047
  62. 00:24:04.318         : en:00:24:04.318
  63. 00:28:33.086         : en:00:28:33.086
  64. 00:32:12.639         : en:00:32:12.639
  65. 00:35:10.775         : en:00:35:10.775
  66. 00:41:14.514         : en:00:41:14.514
  67. 00:44:34.630         : en:00:44:34.630
  68. 00:50:40.579         : en:00:50:40.579
  69. 00:53:53.981         : en:00:53:53.981
  70. 00:59:13.133         : en:00:59:13.133
  71. 01:03:16.918         : en:01:03:16.918
  72. 01:05:58.997         : en:01:05:58.997
  73. 01:11:55.770         : en:01:11:55.770
  74. 01:14:49.735         : en:01:14:49.735
  75. 01:18:24.491         : en:01:18:24.491
  76. 01:21:26.340         : en:01:21:26.340
  77. 01:24:08.377         : en:01:24:08.377
  78. 01:27:09.474         : en:01:27:09.474
  79. 01:33:56.130         : en:01:33:56.130
复制代码

复制代码

曼哈顿 Manhattan.1979.1080p.BluRay.X264-AMIABLE 6.56GB-2.png 曼哈顿 Manhattan.1979.1080p.BluRay.X264-AMIABLE 6.56GB-3.png 曼哈顿 Manhattan.1979.1080p.BluRay.X264-AMIABLE 6.56GB-4.png 曼哈顿 Manhattan.1979.1080p.BluRay.X264-AMIABLE 6.56GB-5.png 曼哈顿 Manhattan.1979.1080p.BluRay.X264-AMIABLE 6.56GB-6.png 曼哈顿 Manhattan.1979.1080p.BluRay.X264-AMIABLE 6.56GB-7.png







开通VIP免费下载本站所有资源---点这里
新手必看:资源下载、资源播放、字幕使用、等常见问题---点这里
回复

使用道具 举报

发表于 2019-6-10 00:22:36 | 显示全部楼层

楼主太厉害了!楼主,电影应该很好看我觉得蓝光电影网真是个好地方!
开通VIP免费下载本站所有资源---点这里
新手必看:资源下载、资源播放、字幕使用、等常见问题---点这里
回复 支持 反对

使用道具 举报

发表于 2019-6-10 08:42:09 | 显示全部楼层
成年人究竟该用何种方式来道德并公道的处理他们的豪情题目呢?
开通VIP免费下载本站所有资源---点这里
新手必看:资源下载、资源播放、字幕使用、等常见问题---点这里
回复 支持 反对

使用道具 举报

发表于 2019-6-10 11:37:35 | 显示全部楼层
<font size="1">看到这帖子真是高兴!真是难得给力的帖子啊.楼主传的影片是真正的大片,我受益了.楼主,电影应该很好看我觉得,非常感谢楼主分享精彩好看的高清电影,楼主太厉害了!激动人心,无法言表!真是被感动的痛哭流涕……楼主发贴辛苦了,谢谢楼主分享!感恩无私的分享与奉献强烈支持楼主ing……再次多谢楼主楼主发贴辛苦了,谢谢楼主分享!这个帖子不回对不起自己!我想我是一天也不能离开.论坛里一定要有楼主这样无私甘于奉献的人才,我等才能享受到精品大片.论坛不能没有像楼主这样的人才啊!我会一直支持,楼主加油,我们都看好你哦。蓝光电影网真是个好地方!要想蓝光电影网好 就靠你我他.蓝光电影网真好!蓝光电影网太棒了!蓝光电影网是最棒的!我觉得蓝光电影网是注册对了!蓝光电影网不走平凡路。我会一直支持蓝光电影网。蓝光电影网越来越好!</font>
开通VIP免费下载本站所有资源---点这里
新手必看:资源下载、资源播放、字幕使用、等常见问题---点这里
回复 支持 反对

使用道具 举报

发表于 2019-6-10 14:07:06 | 显示全部楼层
好资源的两个基本条件:一是能够成功下载; 二是中文字幕必须有。
开通VIP免费下载本站所有资源---点这里
新手必看:资源下载、资源播放、字幕使用、等常见问题---点这里
回复 支持 反对

使用道具 举报

发表于 2019-6-10 14:21:24 | 显示全部楼层

这东西我收了!谢谢楼主!蓝光电影网真好!
开通VIP免费下载本站所有资源---点这里
新手必看:资源下载、资源播放、字幕使用、等常见问题---点这里
回复 支持 反对

使用道具 举报

 成长值: 2965

发表于 2019-6-10 16:32:22 | 显示全部楼层
感谢了。。。。。。。。。。。。感谢你的分享。。。。。。。。。。。赞。。。。。。。棒。。。。。。。
开通VIP免费下载本站所有资源---点这里
新手必看:资源下载、资源播放、字幕使用、等常见问题---点这里
回复 支持 反对

使用道具 举报

发表于 2019-6-11 08:29:44 | 显示全部楼层
楼主发贴辛苦了,谢谢楼主分享!我觉得蓝光电影网是注册对了!
开通VIP免费下载本站所有资源---点这里
新手必看:资源下载、资源播放、字幕使用、等常见问题---点这里
回复 支持 反对

使用道具 举报

发表于 2019-6-11 11:42:20 | 显示全部楼层
谢谢楼主分享!
开通VIP免费下载本站所有资源---点这里
新手必看:资源下载、资源播放、字幕使用、等常见问题---点这里
回复 支持 反对

使用道具 举报

发表于 2019-6-11 18:10:08 | 显示全部楼层

这个帖子不回对不起自己!我想我是一天也不能离开蓝光电影网
开通VIP免费下载本站所有资源---点这里
新手必看:资源下载、资源播放、字幕使用、等常见问题---点这里
回复 支持 反对

使用道具 举报

懒得打字嘛,点击右侧快捷回复 【右侧内容,后台自定义】
您需要登录后才可以回帖 登录 | 立即加入

本版积分规则

现在加入蓝光电影网,注册一个账号

QQ| 手机版|小黑屋| 蓝光电影网 |网站地图

Copyright © 2015-2019 Comsenz Inc.  Template by 蓝光电影网 All Rights Reserved.

Powered by 蓝光电影网 X3.4

特别声明:本站所有资源均由网上收集而来,版权归原影音公司所有,如果侵犯了你的权益,请通知我们,我们会及时删除侵权内容.

快速回复 返回顶部 返回列表