找回密码

蓝光电影网

查看: 1227|回复: 59

[8bit.SDR] 冲出康普顿/再别康城 Straight.Outta.Compton.2015.DC.2160p.BluRay.x264.8bit.SDR.DTS-X.7.1-SWTYBLZ 32.83GB

[复制链接]

 成长值: 21340

发表于 2019-6-9 12:17:32 | 显示全部楼层 |阅读模式
冲出康普顿/再别康城 Straight.Outta.Compton.2015.DC.2160p.BluRay.x264.8bit.SDR.DTS-X.7.1-SWTYBLZ 32.83GB-1.png

译  名 冲出康普顿 / 再别康城
片  名 Straight Outta Compton
年  代 2015
产  地 美国
类  别 剧情 / 音乐 / 列传
语  言 英语
上映日期 2015-08-14(美国)
IMDb评分7.9/10 from 165222 users
IMDb链接http://www.imdb.com/title/tt1398426
豆瓣评分 7.7/10 from 10813 users
豆瓣链接 https://movie.douban.com/subject/3608742/
片  长 147分钟
导  演 F·加里·格雷 F. Gary Gray
编  剧 乔纳森·赫尔曼 Jonathan Herman / S·雷·利萨维治 S. Leigh Savidge / 艾伦·温库 Alan Wenkus / 安德丽亚·贝尔洛夫 Andrea Berloff
主  演 科里·霍金斯 Corey Hawkins
      杰森·米切尔 Jason Mitchell
      小奥谢拉·杰克逊 O'Shea Jackson Jr.
      阿尔迪斯·霍吉 Aldis Hodge
      保罗·吉亚玛提 Paul Giamatti
      凯斯·斯坦菲尔德 Keith Stanfield
      小尼尔·布朗 Neil Brown Jr.
      小马龙·耶茨 Marlon Yates Jr.
      马修·博兰 Matthew Boylan
      R·马科斯·泰勒 R. Marcos Taylor
      卡拉·帕特森 Carra Patterson
      亚历山德拉·希普 Alexandra Shipp
      科瑞·雷诺兹 Corey Reynolds


标  签 列传 | 音乐 | 美国 | 说唱 | 2015 | 黑帮 | 剧情 | 种族

简  介

  1980年月中期,加州康普顿的陌头因犯罪、毒品、黑帮等题目成为美国最危险的地方之一,五个身世此地的年轻人:爱斯·库柏(小奥谢拉·杰克逊 O'Shea Jackson Jr. 饰)、MC Ren(阿尔迪斯·霍吉 Aldis Hodge 饰)、德瑞博士(科里·霍金斯 Cor ey Hawkins 饰)、DJ耶拉(小尼尔·布朗 Neil Brown Jr. 饰)、Eazy-E(杰森·米切尔 Jason Mitchell 饰)调集起来,组成了说唱组合N.W.A,将他们的长大履历转化成粗鲁间接的音乐,并借此向政府转达他们的抵挡心声。

获奖情况

  第88届奥斯卡金像奖(2016)
  最好原创剧本(提名) 安德丽亚·贝尔洛夫 / 乔纳森·赫尔曼 / S·雷·利萨维治 / 艾伦·温库

  第22届美国演员工会奖(2016)
  电影奖 最好群戏(提名)

  第68届美国编剧工会奖(2016)
  电影奖 最好原创剧本(提名) 安德丽亚·贝尔洛夫 / 乔纳森·赫尔曼 / S·雷·利萨维治 / 艾伦·温库

  第27届美国制片野生会奖(2016)
  最好电影制片人奖(提名)

  第87届美国国家批评协会奖(2015)
  年度佳片

  第21届美国批评家挑选电影奖(2016)
  最好群戏(提名)

  第16届美国电影学会奖(2015)
  年度佳片

  第19届好莱坞电影奖(2015)
  最好冲破群戏 小奥谢拉·杰克逊 / 科里·霍金斯 / 杰森·米切尔




  1. Video
  2. ID             : 1
  3. Format           : AVC
  4. Format/Info          : Advanced Video Codec
  5. Format profile         : <a href="/cdn-cgi/l/email-protection" class="__cf_email__" data-cfemail="125a7b757a525e273c23">[email protected]</a>
  6. Format settings        : CABAC / 5 Ref Frames
  7. Format settings, CABAC       : Yes
  8. Format settings, RefFrames     : 5 frames
  9. Codec ID           : V_MPEG4/ISO/AVC
  10. Duration           : 2 h 46 min
  11. Bit rate           : 21.9 Mb/s
  12. Width            : 3 840 pixels
  13. Height           : 1 600 pixels
  14. Display aspect ratio       : 2.40:1
  15. Frame rate mode        : Constant
  16. Frame rate           : 23.976 (24000/1001) FPS
  17. Color space          : YUV
  18. Chroma subsampling       : 4:2:0
  19. Bit depth          : 8 bits
  20. Scan type          : Progressive
  21. Bits/(Pixel*Frame)       : 0.149
  22. Stream size          : 25.5 GiB (78%)
  23. Title            : Straight.Outta.Compton.2015.DC.2160p.BluRay.x264.8bit.SDR.DTS-X.7.1-SWTYBLZ
  24. Writing library        : x264 core 157 r2935 545de2f
  25. Encoding settings        : cabac=1 / ref=5 / deblock=1:-1:-1 / analyse=0x3:0x113 / me=umh / subme=10 / psy=1 / psy_rd=1.00:0.15 / mixed_ref=1 / me_range=48 / chroma_me=1 / trellis=2 / 8x8dct=1 / cqm=0 / deadzone=21,11 / fast_pskip=1 / chroma_qp_offset=-3 / threads=48 / lookahead_threads=4 / sliced_threads=0 / nr=0 / decimate=0 / interlaced=0 / bluray_compat=0 / constrained_intra=0 / bframes=3 / b_pyramid=2 / b_adapt=2 / b_bias=0 / direct=3 / weightb=1 / open_gop=0 / weightp=2 / keyint=250 / keyint_min=23 / scenecut=40 / intra_refresh=0 / rc_lookahead=50 / rc=crf / mbtree=1 / crf=18.0 / qcomp=0.60 / qpmin=0 / qpmax=69 / qpstep=4 / ip_ratio=1.40 / aq=1:1.00
  26. Default            : Yes
  27. Forced           : No

  28. Audio #1
  29. ID             : 2
  30. Format           : DTS XLL X
  31. Format/Info          : Digital Theater Systems
  32. Commercial name        : DTS-HD Master Audio
  33. Codec ID           : A_DTS
  34. Duration           : 2 h 46 min
  35. Bit rate mode          : Variable
  36. Bit rate           : 5 519 kb/s
  37. Channel(s)           : 8 channels
  38. Channel(s)_Original        : Object Based
  39. Channel layout         : Object Based
  40. Sampling rate          : 48.0 kHz
  41. Frame rate           : 93.750 FPS (512 SPF)
  42. Bit depth          : 24 bits
  43. Stream size          : 6.43 GiB (20%)
  44. Title            : Straight.Outta.Compton.2015.DC.2160p.BluRay.x264.8bit.SDR.DTS-X.7.1-SWTYBLZ
  45. Language           : English
  46. Default            : Yes
  47. Forced           : No

  48. Audio #2
  49. ID             : 3
  50. Format           : AC-3
  51. Format/Info          : Audio Coding 3
  52. Commercial name        : Dolby Digital
  53. Codec ID           : A_AC3
  54. Duration           : 2 h 46 min
  55. Bit rate mode          : Constant
  56. Bit rate           : 640 kb/s
  57. Channel(s)           : 6 channels
  58. Channel layout         : L R C LFE Ls Rs
  59. Sampling rate          : 48.0 kHz
  60. Frame rate           : 31.250 FPS (1536 SPF)
  61. Bit depth          : 16 bits
  62. Compression mode         : Lossy
  63. Stream size          : 763 MiB (2%)
  64. Title            : Straight.Outta.Compton.2015.DC.2160p.BluRay.x264.8bit.SDR.DTS-X.7.1-SWTYBLZ
  65. Language           : English
  66. Service kind         : Complete Main
  67. Default            : No
  68. Forced           : No

  69. Text #1
  70. ID             : 4
  71. Format           : UTF-8
  72. Codec ID           : S_TEXT/UTF8
  73. Codec ID/Info          : UTF-8 Plain Text
  74. Duration           : 2 h 41 min
  75. Bit rate           : 82 b/s
  76. Count of elements        : 2963
  77. Stream size          : 97.3 KiB (0%)
  78. Title            : English-SRT
  79. Language           : English
  80. Default            : Yes
  81. Forced           : No

  82. Text #2
  83. ID             : 5
  84. Format           : PGS
  85. Muxing mode          : zlib
  86. Codec ID           : S_HDMV/PGS
  87. Codec ID/Info          : Picture based subtitle format used on BDs/HD-DVDs
  88. Duration           : 2 h 46 min
  89. Bit rate           : 71.7 kb/s
  90. Count of elements        : 6084
  91. Stream size          : 85.2 MiB (0%)
  92. Title            : English-PGS
  93. Language           : English
  94. Default            : No
  95. Forced           : No

  96. Text #3
  97. ID             : 6
  98. Format           : PGS
  99. Muxing mode          : zlib
  100. Codec ID           : S_HDMV/PGS
  101. Codec ID/Info          : Picture based subtitle format used on BDs/HD-DVDs
  102. Duration           : 2 h 46 min
  103. Bit rate           : 41.1 kb/s
  104. Count of elements        : 4730
  105. Stream size          : 49.0 MiB (0%)
  106. Title            : French-PGS
  107. Language           : French
  108. Default            : No
  109. Forced           : No

  110. Text #4
  111. ID             : 7
  112. Format           : PGS
  113. Muxing mode          : zlib
  114. Codec ID           : S_HDMV/PGS
  115. Codec ID/Info          : Picture based subtitle format used on BDs/HD-DVDs
  116. Duration           : 2 h 46 min
  117. Bit rate           : 65.3 kb/s
  118. Count of elements        : 5163
  119. Stream size          : 77.9 MiB (0%)
  120. Title            : German-PGS
  121. Language           : German
  122. Default            : No
  123. Forced           : No

  124. Text #5
  125. ID             : 8
  126. Format           : PGS
  127. Muxing mode          : zlib
  128. Codec ID           : S_HDMV/PGS
  129. Codec ID/Info          : Picture based subtitle format used on BDs/HD-DVDs
  130. Duration           : 2 h 46 min
  131. Bit rate           : 40.3 kb/s
  132. Count of elements        : 3834
  133. Stream size          : 48.1 MiB (0%)
  134. Title            : Dutch-PGS
  135. Language           : Dutch
  136. Default            : No
  137. Forced           : No

  138. Text #6
  139. ID             : 9
  140. Format           : PGS
  141. Muxing mode          : zlib
  142. Codec ID           : S_HDMV/PGS
  143. Codec ID/Info          : Picture based subtitle format used on BDs/HD-DVDs
  144. Duration           : 2 h 46 min
  145. Bit rate           : 49.3 kb/s
  146. Count of elements        : 4070
  147. Stream size          : 58.8 MiB (0%)
  148. Title            : Danish-PGS
  149. Language           : Danish
  150. Default            : No
  151. Forced           : No

  152. Text #7
  153. ID             : 10
  154. Format           : PGS
  155. Muxing mode          : zlib
  156. Codec ID           : S_HDMV/PGS
  157. Codec ID/Info          : Picture based subtitle format used on BDs/HD-DVDs
  158. Duration           : 2 h 46 min
  159. Bit rate           : 38.4 kb/s
  160. Count of elements        : 3786
  161. Stream size          : 45.7 MiB (0%)
  162. Title            : Finnish-PGS
  163. Language           : Finnish
  164. Default            : No
  165. Forced           : No

  166. Text #8
  167. ID             : 11
  168. Format           : PGS
  169. Muxing mode          : zlib
  170. Codec ID           : S_HDMV/PGS
  171. Codec ID/Info          : Picture based subtitle format used on BDs/HD-DVDs
  172. Duration           : 2 h 46 min
  173. Bit rate           : 57.7 kb/s
  174. Count of elements        : 5207
  175. Stream size          : 68.8 MiB (0%)
  176. Title            : Norwegian-PGS
  177. Language           : Norwegian
  178. Default            : No
  179. Forced           : No

  180. Text #9
  181. ID             : 12
  182. Format           : PGS
  183. Muxing mode          : zlib
  184. Codec ID           : S_HDMV/PGS
  185. Codec ID/Info          : Picture based subtitle format used on BDs/HD-DVDs
  186. Duration           : 2 h 46 min
  187. Bit rate           : 53.3 kb/s
  188. Count of elements        : 4630
  189. Stream size          : 63.6 MiB (0%)
  190. Title            : Swedish-PGS
  191. Language           : Swedish
  192. Default            : No
  193. Forced           : No

  194. Menu
  195. 00:00:00.000         : en:Chapter 01
  196. 00:05:46.929         : en:Chapter 02
  197. 00:09:54.635         : en:Chapter 03
  198. 00:17:31.091         : en:Chapter 04
  199. 00:26:33.675         : en:Chapter 05
  200. 00:35:39.095         : en:Chapter 06
  201. 00:47:28.011         : en:Chapter 07
  202. 00:55:37.751         : en:Chapter 08
  203. 01:04:41.210         : en:Chapter 09
  204. 01:11:27.199         : en:Chapter 10
  205. 01:18:59.901         : en:Chapter 11
  206. 01:25:46.266         : en:Chapter 12
  207. 01:33:55.296         : en:Chapter 13
  208. 01:44:20.796         : en:Chapter 14
  209. 01:54:02.418         : en:Chapter 15
  210. 02:02:54.909         : en:Chapter 16
  211. 02:16:10.787         : en:Chapter 17
  212. 02:26:23.316         : en:Chapter 18
  213. 02:33:05.968         : en:Chapter 19
  214. 02:39:20.884         : en:Chapter 20
复制代码

复制代码

冲出康普顿/再别康城 Straight.Outta.Compton.2015.DC.2160p.BluRay.x264.8bit.SDR.DTS-X.7.1-SWTYBLZ 32.83GB-1.png 冲出康普顿/再别康城 Straight.Outta.Compton.2015.DC.2160p.BluRay.x264.8bit.SDR.DTS-X.7.1-SWTYBLZ 32.83GB-3.png 冲出康普顿/再别康城 Straight.Outta.Compton.2015.DC.2160p.BluRay.x264.8bit.SDR.DTS-X.7.1-SWTYBLZ 32.83GB-4.png 冲出康普顿/再别康城 Straight.Outta.Compton.2015.DC.2160p.BluRay.x264.8bit.SDR.DTS-X.7.1-SWTYBLZ 32.83GB-5.png 冲出康普顿/再别康城 Straight.Outta.Compton.2015.DC.2160p.BluRay.x264.8bit.SDR.DTS-X.7.1-SWTYBLZ 32.83GB-6.png 冲出康普顿/再别康城 Straight.Outta.Compton.2015.DC.2160p.BluRay.x264.8bit.SDR.DTS-X.7.1-SWTYBLZ 32.83GB-7.png





开通VIP免费下载本站所有资源---点这里
新手必看:资源下载、资源播放、字幕使用、等常见问题---点这里
回复

使用道具 举报

发表于 2019-6-9 16:57:56 | 显示全部楼层
楼主发贴辛苦了,谢谢楼主分享!我觉得蓝光电影网是注册对了!
开通VIP免费下载本站所有资源---点这里
新手必看:资源下载、资源播放、字幕使用、等常见问题---点这里
回复 支持 1 反对 0

使用道具 举报

 成长值: 2965

发表于 2019-6-9 12:58:11 | 显示全部楼层
感谢。。。。。。。。。。。感谢你的分享。。。。。。。。赞。。。。。。。棒。。。。。。。
开通VIP免费下载本站所有资源---点这里
新手必看:资源下载、资源播放、字幕使用、等常见问题---点这里
回复 支持 反对

使用道具 举报

发表于 2019-6-9 13:57:45 | 显示全部楼层
我要看最新的电影
开通VIP免费下载本站所有资源---点这里
新手必看:资源下载、资源播放、字幕使用、等常见问题---点这里
回复 支持 反对

使用道具 举报

发表于 2019-6-9 14:55:12 | 显示全部楼层
楼主发贴辛苦了,谢谢楼主分享!我觉得蓝光电影网是注册对了!
开通VIP免费下载本站所有资源---点这里
新手必看:资源下载、资源播放、字幕使用、等常见问题---点这里
回复 支持 反对

使用道具 举报

发表于 2019-6-9 15:40:30 | 显示全部楼层
谢谢楼主分享
开通VIP免费下载本站所有资源---点这里
新手必看:资源下载、资源播放、字幕使用、等常见问题---点这里
回复 支持 反对

使用道具 举报

发表于 2019-6-9 16:03:28 | 显示全部楼层

楼主,我太崇拜你了!我想我是一天也不能离开蓝光电影网
开通VIP免费下载本站所有资源---点这里
新手必看:资源下载、资源播放、字幕使用、等常见问题---点这里
回复 支持 反对

使用道具 举报

发表于 2019-6-9 16:08:45 | 显示全部楼层

感谢。。。。。。。。。。。感谢你的分享。。。。。。。。赞。。。。。。。棒。。。。。。。
开通VIP免费下载本站所有资源---点这里
新手必看:资源下载、资源播放、字幕使用、等常见问题---点这里
回复 支持 反对

使用道具 举报

发表于 2019-6-9 18:53:34 | 显示全部楼层

我看不错噢 谢谢楼主!蓝光电影网越来越好!
开通VIP免费下载本站所有资源---点这里
新手必看:资源下载、资源播放、字幕使用、等常见问题---点这里
回复 支持 反对

使用道具 举报

发表于 2019-6-9 19:16:29 | 显示全部楼层

感谢。。。。。。。。。。。感谢你的分享。。。。。。。。赞。。。。。。。棒。。。。。。。
开通VIP免费下载本站所有资源---点这里
新手必看:资源下载、资源播放、字幕使用、等常见问题---点这里
回复 支持 反对

使用道具 举报

懒得打字嘛,点击右侧快捷回复 【右侧内容,后台自定义】
您需要登录后才可以回帖 登录 | 立即加入

本版积分规则

现在加入蓝光电影网,注册一个账号

QQ| 手机版|小黑屋| 蓝光电影网 |网站地图

Copyright © 2015-2019 Comsenz Inc.  Template by 蓝光电影网 All Rights Reserved.

Powered by 蓝光电影网 X3.4

特别声明:本站所有资源均由网上收集而来,版权归原影音公司所有,如果侵犯了你的权益,请通知我们,我们会及时删除侵权内容.

快速回复 返回顶部 返回列表