找回密码

蓝光电影网

查看: 866|回复: 38

[8bit.SDR] 天生好手/天赋 The.Natural.1984.DC.2160p.BluRay.x264.8bit.SDR.DTS-HD.MA.TrueHD.7.1.Atmos-SWTYBLZ 60.76GB

[复制链接]

 成长值: 21865

发表于 2019-6-8 21:47:19 | 显示全部楼层 |阅读模式
天生好手/天赋 The.Natural.1984.DC.2160p.BluRay.x264.8bit.SDR.DTS-HD.MA.TrueHD.7.1.Atmos-SWTYBLZ 60.76GB-1.png

译  名 天生妙手 / 天赋 / 天赐奇才
片  名 The Natural
年  代 1984
产  地 美国
类  别 剧情 / 活动
语  言 英语
上映日期 1984-05-11
IMDb评分7.5/10 from 39848 users
IMDb链接http://www.imdb.com/title/tt0087781
豆瓣评分 7.5/10 from 470 users
豆瓣链接 https://movie.douban.com/subject/1297507/
片  长 134 分钟
导  演 Barry Levinson
编  剧 Roger Towne / Phil Dusenberry
主  演 Robert Redford
      Glenn Close
      Robert Duvall
      Kim Basinger
      Wilford Brimley


标  签 美国 | 棒球 | 体育 | 励志 | 美国电影 | RobertRedford | 1984 | 传奇

简  介

  罗伊(罗伯特·雷德福 Robert Redford 饰)在年少期间便已经展现出了精采的棒球天赋,在父亲的经心种植之下,罗伊的球技飞速的提升着。在罗伊十九岁那一年,父亲归天了,哀痛和疾苦当中,罗伊挥别了女和睦丽丝(格伦·克洛斯 Glenn Close 饰),决议前往芝加哥斥地属于自己的新六合。
在芝加哥,罗伊碰见了那时很是著名的击球手帕里斯,两人之间展开了一场较劲,罗伊获得了终极的成功。但是好景不长,一场意外的枪击让罗伊渐渐阔别了赛场,并终极成为了一支渣滓球队中的一员。当女和睦丽丝带着他们的儿子再度回到罗伊身旁时,罗伊找到了大张旗鼓的动力。

获奖情况

  第57届奥斯卡金像奖(1985)
  最好女配角(提名) 格伦·克洛斯
  最好摄影(提名) 凯莱布·德夏奈尔
  最好艺术指导(提名) Bruce Weintraub / Mel Bourne / 安杰洛·P·格雷厄姆
  最好原创配乐(提名) 兰迪·纽曼

  第9届报知映画赏(1984)
  外洋作品奖 巴瑞·莱文森




  1. Video
  2. ID             : 1
  3. Format           : AVC
  4. Format/Info          : Advanced Video Codec
  5. Format profile         : <a href="/cdn-cgi/l/email-protection" class="__cf_email__" data-cfemail="b6fedfd1def6fa839887">[email protected]</a>
  6. Format settings        : CABAC / 5 Ref Frames
  7. Format settings, CABAC       : Yes
  8. Format settings, RefFrames     : 5 frames
  9. Codec ID           : V_MPEG4/ISO/AVC
  10. Duration           : 2 h 23 min
  11. Bit rate           : 51.8 Mb/s
  12. Width            : 3 840 pixels
  13. Height           : 2 076 pixels
  14. Display aspect ratio       : 1.85:1
  15. Frame rate mode        : Constant
  16. Frame rate           : 23.976 (24000/1001) FPS
  17. Color space          : YUV
  18. Chroma subsampling       : 4:2:0
  19. Bit depth          : 8 bits
  20. Scan type          : Progressive
  21. Bits/(Pixel*Frame)       : 0.271
  22. Stream size          : 52.0 GiB (86%)
  23. Title            : The.Natural.1984.2160p.BluRay.x264.8bit.SDR.DTS-HD.MA.TrueHD.7.1.Atmos-SWTYBLZ
  24. Writing library        : x264 core 157 r2935 545de2f
  25. Encoding settings        : cabac=1 / ref=5 / deblock=1:-1:-1 / analyse=0x3:0x113 / me=umh / subme=10 / psy=1 / psy_rd=1.00:0.15 / mixed_ref=1 / me_range=48 / chroma_me=1 / trellis=2 / 8x8dct=1 / cqm=0 / deadzone=21,11 / fast_pskip=1 / chroma_qp_offset=-3 / threads=48 / lookahead_threads=4 / sliced_threads=0 / nr=0 / decimate=0 / interlaced=0 / bluray_compat=0 / constrained_intra=0 / bframes=3 / b_pyramid=2 / b_adapt=2 / b_bias=0 / direct=3 / weightb=1 / open_gop=0 / weightp=2 / keyint=250 / keyint_min=23 / scenecut=40 / intra_refresh=0 / rc_lookahead=50 / rc=crf / mbtree=1 / crf=22.0 / qcomp=0.60 / qpmin=0 / qpmax=69 / qpstep=4 / ip_ratio=1.40 / aq=1:1.00
  26. Default            : Yes
  27. Forced           : No

  28. Audio #1
  29. ID             : 2
  30. Format           : MLP FBA 16-ch
  31. Format/Info          : Meridian Lossless Packing FBA with 16-channel presentation
  32. Commercial name        : Dolby TrueHD with Dolby Atmos
  33. Codec ID           : A_TRUEHD
  34. Duration           : 2 h 23 min
  35. Bit rate mode          : Variable
  36. Bit rate           : 3 216 kb/s
  37. Channel(s)           : 8 channels
  38. Channel layout         : L R C LFE Ls Rs Lb Rb
  39. Sampling rate          : 48.0 kHz
  40. Frame rate           : 1 200.000 FPS (40 SPF)
  41. Compression mode         : Lossless
  42. Stream size          : 3.23 GiB (5%)
  43. Title            : The.Natural.1984.2160p.BluRay.x264.8bit.SDR.DTS-HD.MA.TrueHD.7.1.Atmos-SWTYBLZ
  44. Language           : English
  45. Default            : Yes
  46. Forced           : No
  47. Number of dynamic objects      : 11
  48. Bed channel count        : 1 channel
  49. Bed channel configuration      : LFE

  50. Audio #2
  51. ID             : 3
  52. Format           : DTS XLL
  53. Format/Info          : Digital Theater Systems
  54. Commercial name        : DTS-HD Master Audio
  55. Codec ID           : A_DTS
  56. Duration           : 2 h 23 min
  57. Bit rate mode          : Variable
  58. Bit rate           : 4 374 kb/s
  59. Channel(s)           : 8 channels
  60. Channel layout         : C L R LFE Lb Rb Lss Rss
  61. Sampling rate          : 48.0 kHz
  62. Frame rate           : 93.750 FPS (512 SPF)
  63. Bit depth          : 24 bits
  64. Compression mode         : Lossless
  65. Stream size          : 4.39 GiB (7%)
  66. Title            : The.Natural.1984.2160p.BluRay.x264.8bit.SDR.DTS-HD.MA.TrueHD.7.1.Atmos-SWTYBLZ
  67. Language           : English
  68. Default            : No
  69. Forced           : No

  70. Audio #3
  71. ID             : 4
  72. Format           : AC-3
  73. Format/Info          : Audio Coding 3
  74. Commercial name        : Dolby Digital
  75. Codec ID           : A_AC3
  76. Duration           : 2 h 23 min
  77. Bit rate mode          : Constant
  78. Bit rate           : 448 kb/s
  79. Channel(s)           : 6 channels
  80. Channel layout         : L R C LFE Ls Rs
  81. Sampling rate          : 48.0 kHz
  82. Frame rate           : 31.250 FPS (1536 SPF)
  83. Bit depth          : 16 bits
  84. Compression mode         : Lossy
  85. Stream size          : 460 MiB (1%)
  86. Title            : The.Natural.1984.2160p.BluRay.x264.8bit.SDR.DTS-HD.MA.TrueHD.7.1.Atmos-SWTYBLZ
  87. Language           : English
  88. Service kind         : Complete Main
  89. Default            : No
  90. Forced           : No

  91. Text #1
  92. ID             : 5
  93. Format           : UTF-8
  94. Codec ID           : S_TEXT/UTF8
  95. Codec ID/Info          : UTF-8 Plain Text
  96. Duration           : 2 h 15 min
  97. Bit rate           : 62 b/s
  98. Count of elements        : 1839
  99. Stream size          : 61.6 KiB (0%)
  100. Title            : English-SRT
  101. Language           : English
  102. Default            : Yes
  103. Forced           : No

  104. Text #2
  105. ID             : 6
  106. Format           : PGS
  107. Muxing mode          : zlib
  108. Codec ID           : S_HDMV/PGS
  109. Codec ID/Info          : Picture based subtitle format used on BDs/HD-DVDs
  110. Duration           : 2 h 17 min
  111. Bit rate           : 31.5 kb/s
  112. Count of elements        : 3404
  113. Stream size          : 31.1 MiB (0%)
  114. Title            : English-PGS
  115. Language           : English
  116. Default            : No
  117. Forced           : No

  118. Text #3
  119. ID             : 7
  120. Format           : PGS
  121. Muxing mode          : zlib
  122. Codec ID           : S_HDMV/PGS
  123. Codec ID/Info          : Picture based subtitle format used on BDs/HD-DVDs
  124. Duration           : 2 h 20 min
  125. Bit rate           : 37.6 kb/s
  126. Count of elements        : 4031
  127. Stream size          : 37.7 MiB (0%)
  128. Title            : English-SDH-PGS
  129. Language           : English
  130. Default            : No
  131. Forced           : No

  132. Text #4
  133. ID             : 8
  134. Format           : PGS
  135. Muxing mode          : zlib
  136. Codec ID           : S_HDMV/PGS
  137. Codec ID/Info          : Picture based subtitle format used on BDs/HD-DVDs
  138. Duration           : 2 h 23 min
  139. Bit rate           : 17.9 kb/s
  140. Count of elements        : 3498
  141. Stream size          : 18.4 MiB (0%)
  142. Title            : Arabic-PGS
  143. Language           : Arabic
  144. Default            : No
  145. Forced           : No

  146. Text #5
  147. ID             : 9
  148. Format           : PGS
  149. Muxing mode          : zlib
  150. Codec ID           : S_HDMV/PGS
  151. Codec ID/Info          : Picture based subtitle format used on BDs/HD-DVDs
  152. Duration           : 2 h 23 min
  153. Bit rate           : 29.8 kb/s
  154. Count of elements        : 3470
  155. Stream size          : 30.6 MiB (0%)
  156. Title            : Bulgarian-PGS
  157. Language           : Bulgarian
  158. Default            : No
  159. Forced           : No

  160. Text #6
  161. ID             : 10
  162. Format           : PGS
  163. Muxing mode          : zlib
  164. Codec ID           : S_HDMV/PGS
  165. Codec ID/Info          : Picture based subtitle format used on BDs/HD-DVDs
  166. Duration           : 2 h 23 min
  167. Bit rate           : 27.2 kb/s
  168. Count of elements        : 3516
  169. Stream size          : 27.9 MiB (0%)
  170. Title            : Chinese-PGS
  171. Language           : Chinese
  172. Default            : No
  173. Forced           : No

  174. Text #7
  175. ID             : 11
  176. Format           : PGS
  177. Muxing mode          : zlib
  178. Codec ID           : S_HDMV/PGS
  179. Codec ID/Info          : Picture based subtitle format used on BDs/HD-DVDs
  180. Duration           : 2 h 20 min
  181. Bit rate           : 28.1 kb/s
  182. Count of elements        : 3458
  183. Stream size          : 28.1 MiB (0%)
  184. Title            : Czech-PGS
  185. Language           : Czech
  186. Default            : No
  187. Forced           : No

  188. Text #8
  189. ID             : 12
  190. Format           : PGS
  191. Muxing mode          : zlib
  192. Codec ID           : S_HDMV/PGS
  193. Codec ID/Info          : Picture based subtitle format used on BDs/HD-DVDs
  194. Duration           : 2 h 17 min
  195. Bit rate           : 26.2 kb/s
  196. Count of elements        : 2432
  197. Stream size          : 25.8 MiB (0%)
  198. Title            : Danish-PGS
  199. Language           : Danish
  200. Default            : No
  201. Forced           : No

  202. Text #9
  203. ID             : 13
  204. Format           : PGS
  205. Muxing mode          : zlib
  206. Codec ID           : S_HDMV/PGS
  207. Codec ID/Info          : Picture based subtitle format used on BDs/HD-DVDs
  208. Duration           : 2 h 17 min
  209. Bit rate           : 29.6 kb/s
  210. Count of elements        : 3178
  211. Stream size          : 29.2 MiB (0%)
  212. Title            : Dutch-PGS
  213. Language           : Dutch
  214. Default            : No
  215. Forced           : No

  216. Text #10
  217. ID             : 14
  218. Format           : PGS
  219. Muxing mode          : zlib
  220. Codec ID           : S_HDMV/PGS
  221. Codec ID/Info          : Picture based subtitle format used on BDs/HD-DVDs
  222. Duration           : 2 h 17 min
  223. Bit rate           : 27.6 kb/s
  224. Count of elements        : 2906
  225. Stream size          : 27.3 MiB (0%)
  226. Title            : Finnish-PGS
  227. Language           : Finnish
  228. Default            : No
  229. Forced           : No

  230. Text #11
  231. ID             : 15
  232. Format           : PGS
  233. Muxing mode          : zlib
  234. Codec ID           : S_HDMV/PGS
  235. Codec ID/Info          : Picture based subtitle format used on BDs/HD-DVDs
  236. Duration           : 2 h 23 min
  237. Bit rate           : 25.5 kb/s
  238. Count of elements        : 3420
  239. Stream size          : 26.1 MiB (0%)
  240. Title            : French-PGS
  241. Language           : French
  242. Default            : No
  243. Forced           : No

  244. Text #12
  245. ID             : 16
  246. Format           : PGS
  247. Muxing mode          : zlib
  248. Codec ID           : S_HDMV/PGS
  249. Codec ID/Info          : Picture based subtitle format used on BDs/HD-DVDs
  250. Duration           : 2 h 17 min
  251. Bit rate           : 36.0 kb/s
  252. Count of elements        : 3528
  253. Stream size          : 35.5 MiB (0%)
  254. Title            : German-PGS
  255. Language           : German
  256. Default            : No
  257. Forced           : No

  258. Text #13
  259. ID             : 17
  260. Format           : PGS
  261. Muxing mode          : zlib
  262. Codec ID           : S_HDMV/PGS
  263. Codec ID/Info          : Picture based subtitle format used on BDs/HD-DVDs
  264. Duration           : 2 h 17 min
  265. Bit rate           : 25.2 kb/s
  266. Count of elements        : 3426
  267. Stream size          : 24.9 MiB (0%)
  268. Title            : Greek-PGS
  269. Language           : Greek
  270. Default            : No
  271. Forced           : No

  272. Text #14
  273. ID             : 18
  274. Format           : PGS
  275. Muxing mode          : zlib
  276. Codec ID           : S_HDMV/PGS
  277. Codec ID/Info          : Picture based subtitle format used on BDs/HD-DVDs
  278. Duration           : 2 h 23 min
  279. Bit rate           : 24.1 kb/s
  280. Count of elements        : 3518
  281. Stream size          : 24.7 MiB (0%)
  282. Title            : Hebrew-PGS
  283. Language           : Hebrew
  284. Default            : No
  285. Forced           : No

  286. Text #15
  287. ID             : 19
  288. Format           : PGS
  289. Muxing mode          : zlib
  290. Codec ID           : S_HDMV/PGS
  291. Codec ID/Info          : Picture based subtitle format used on BDs/HD-DVDs
  292. Duration           : 2 h 17 min
  293. Bit rate           : 22.7 kb/s
  294. Count of elements        : 3476
  295. Stream size          : 22.4 MiB (0%)
  296. Title            : Hindi-PGS
  297. Language           : Hindi
  298. Default            : No
  299. Forced           : No

  300. Text #16
  301. ID             : 20
  302. Format           : PGS
  303. Muxing mode          : zlib
  304. Codec ID           : S_HDMV/PGS
  305. Codec ID/Info          : Picture based subtitle format used on BDs/HD-DVDs
  306. Duration           : 2 h 23 min
  307. Bit rate           : 27.0 kb/s
  308. Count of elements        : 3524
  309. Stream size          : 27.7 MiB (0%)
  310. Title            : Hungarian-PGS
  311. Language           : Hungarian
  312. Default            : No
  313. Forced           : No

  314. Text #17
  315. ID             : 21
  316. Format           : PGS
  317. Muxing mode          : zlib
  318. Codec ID           : S_HDMV/PGS
  319. Codec ID/Info          : Picture based subtitle format used on BDs/HD-DVDs
  320. Duration           : 2 h 17 min
  321. Bit rate           : 31.8 kb/s
  322. Count of elements        : 3472
  323. Stream size          : 31.4 MiB (0%)
  324. Title            : Icelandic-PGS
  325. Language           : Icelandic
  326. Default            : No
  327. Forced           : No

  328. Text #18
  329. ID             : 22
  330. Format           : PGS
  331. Muxing mode          : zlib
  332. Codec ID           : S_HDMV/PGS
  333. Codec ID/Info          : Picture based subtitle format used on BDs/HD-DVDs
  334. Duration           : 2 h 23 min
  335. Bit rate           : 29.6 kb/s
  336. Count of elements        : 3546
  337. Stream size          : 30.4 MiB (0%)
  338. Title            : Italian-PGS
  339. Language           : Italian
  340. Default            : No
  341. Forced           : No

  342. Text #19
  343. ID             : 23
  344. Format           : PGS
  345. Muxing mode          : zlib
  346. Codec ID           : S_HDMV/PGS
  347. Codec ID/Info          : Picture based subtitle format used on BDs/HD-DVDs
  348. Duration           : 2 h 17 min
  349. Bit rate           : 19.3 kb/s
  350. Count of elements        : 2862
  351. Stream size          : 19.0 MiB (0%)
  352. Title            : Japanese-PGS
  353. Language           : Japanese
  354. Default            : No
  355. Forced           : No

  356. Text #20
  357. ID             : 24
  358. Format           : PGS
  359. Muxing mode          : zlib
  360. Codec ID           : S_HDMV/PGS
  361. Codec ID/Info          : Picture based subtitle format used on BDs/HD-DVDs
  362. Duration           : 2 h 17 min
  363. Bit rate           : 19.7 kb/s
  364. Count of elements        : 3500
  365. Stream size          : 19.5 MiB (0%)
  366. Title            : Korean-PGS
  367. Language           : Korean
  368. Default            : No
  369. Forced           : No

  370. Text #21
  371. ID             : 25
  372. Format           : PGS
  373. Muxing mode          : zlib
  374. Codec ID           : S_HDMV/PGS
  375. Codec ID/Info          : Picture based subtitle format used on BDs/HD-DVDs
  376. Duration           : 2 h 17 min
  377. Bit rate           : 24.8 kb/s
  378. Count of elements        : 2500
  379. Stream size          : 24.5 MiB (0%)
  380. Title            : Norwegian-PGS
  381. Language           : Norwegian
  382. Default            : No
  383. Forced           : No

  384. Text #22
  385. ID             : 26
  386. Format           : PGS
  387. Muxing mode          : zlib
  388. Codec ID           : S_HDMV/PGS
  389. Codec ID/Info          : Picture based subtitle format used on BDs/HD-DVDs
  390. Duration           : 2 h 17 min
  391. Bit rate           : 25.7 kb/s
  392. Count of elements        : 3412
  393. Stream size          : 25.4 MiB (0%)
  394. Title            : Polish-PGS
  395. Language           : Polish
  396. Default            : No
  397. Forced           : No

  398. Text #23
  399. ID             : 27
  400. Format           : PGS
  401. Muxing mode          : zlib
  402. Codec ID           : S_HDMV/PGS
  403. Codec ID/Info          : Picture based subtitle format used on BDs/HD-DVDs
  404. Duration           : 2 h 17 min
  405. Bit rate           : 27.3 kb/s
  406. Count of elements        : 3468
  407. Stream size          : 27.0 MiB (0%)
  408. Title            : Portuguese-PGS
  409. Language           : Portuguese
  410. Default            : No
  411. Forced           : No

  412. Text #24
  413. ID             : 28
  414. Format           : PGS
  415. Muxing mode          : zlib
  416. Codec ID           : S_HDMV/PGS
  417. Codec ID/Info          : Picture based subtitle format used on BDs/HD-DVDs
  418. Duration           : 2 h 23 min
  419. Bit rate           : 31.2 kb/s
  420. Count of elements        : 3516
  421. Stream size          : 32.0 MiB (0%)
  422. Title            : Portuguese-PGS
  423. Language           : Portuguese
  424. Default            : No
  425. Forced           : No

  426. Text #25
  427. ID             : 29
  428. Format           : PGS
  429. Muxing mode          : zlib
  430. Codec ID           : S_HDMV/PGS
  431. Codec ID/Info          : Picture based subtitle format used on BDs/HD-DVDs
  432. Duration           : 2 h 23 min
  433. Bit rate           : 31.1 kb/s
  434. Count of elements        : 3558
  435. Stream size          : 32.0 MiB (0%)
  436. Title            : Russian-PGS
  437. Language           : Russian
  438. Default            : No
  439. Forced           : No

  440. Text #26
  441. ID             : 30
  442. Format           : PGS
  443. Muxing mode          : zlib
  444. Codec ID           : S_HDMV/PGS
  445. Codec ID/Info          : Picture based subtitle format used on BDs/HD-DVDs
  446. Duration           : 2 h 20 min
  447. Bit rate           : 29.4 kb/s
  448. Count of elements        : 3514
  449. Stream size          : 29.5 MiB (0%)
  450. Title            : Spanish-PGS
  451. Language           : Spanish
  452. Default            : No
  453. Forced           : No

  454. Text #27
  455. ID             : 31
  456. Format           : PGS
  457. Muxing mode          : zlib
  458. Codec ID           : S_HDMV/PGS
  459. Codec ID/Info          : Picture based subtitle format used on BDs/HD-DVDs
  460. Duration           : 2 h 17 min
  461. Bit rate           : 31.3 kb/s
  462. Count of elements        : 3476
  463. Stream size          : 30.9 MiB (0%)
  464. Title            : Spanish-PGS
  465. Language           : Spanish
  466. Default            : No
  467. Forced           : No

  468. Text #28
  469. ID             : 32
  470. Format           : PGS
  471. Muxing mode          : zlib
  472. Codec ID           : S_HDMV/PGS
  473. Codec ID/Info          : Picture based subtitle format used on BDs/HD-DVDs
  474. Duration           : 2 h 17 min
  475. Bit rate           : 26.0 kb/s
  476. Count of elements        : 2422
  477. Stream size          : 25.6 MiB (0%)
  478. Title            : Swedish-PGS
  479. Language           : Swedish
  480. Default            : No
  481. Forced           : No

  482. Text #29
  483. ID             : 33
  484. Format           : PGS
  485. Muxing mode          : zlib
  486. Codec ID           : S_HDMV/PGS
  487. Codec ID/Info          : Picture based subtitle format used on BDs/HD-DVDs
  488. Duration           : 2 h 17 min
  489. Bit rate           : 26.6 kb/s
  490. Count of elements        : 3500
  491. Stream size          : 26.3 MiB (0%)
  492. Title            : Thai-PGS
  493. Language           : Thai
  494. Default            : No
  495. Forced           : No

  496. Text #30
  497. ID             : 34
  498. Format           : PGS
  499. Muxing mode          : zlib
  500. Codec ID           : S_HDMV/PGS
  501. Codec ID/Info          : Picture based subtitle format used on BDs/HD-DVDs
  502. Duration           : 2 h 20 min
  503. Bit rate           : 29.3 kb/s
  504. Count of elements        : 3470
  505. Stream size          : 29.4 MiB (0%)
  506. Title            : Turkish-PGS
  507. Language           : Turkish
  508. Default            : No
  509. Forced           : No

  510. Text #31
  511. ID             : 35
  512. Format           : PGS
  513. Muxing mode          : zlib
  514. Codec ID           : S_HDMV/PGS
  515. Codec ID/Info          : Picture based subtitle format used on BDs/HD-DVDs
  516. Duration           : 2 h 15 min
  517. Bit rate           : 465 b/s
  518. Count of elements        : 102
  519. Stream size          : 463 KiB (0%)
  520. Title            : Japanese-PGS
  521. Language           : Japanese
  522. Default            : No
  523. Forced           : No

  524. Menu
  525. 00:00:00.000         : en:Chapter 01
  526. 00:09:19.725         : en:Chapter 02
  527. 00:13:35.189         : en:Chapter 03
  528. 00:18:43.997         : en:Chapter 04
  529. 00:31:54.787         : en:Chapter 05
  530. 00:47:06.615         : en:Chapter 06
  531. 00:51:24.372         : en:Chapter 07
  532. 01:03:32.725         : en:Chapter 08
  533. 01:15:02.498         : en:Chapter 09
  534. 01:25:19.697         : en:Chapter 10
  535. 01:35:42.862         : en:Chapter 11
  536. 01:40:36.030         : en:Chapter 12
  537. 01:49:50.375         : en:Chapter 13
  538. 01:57:14.110         : en:Chapter 14
  539. 02:03:11.425         : en:Chapter 15
  540. 02:12:11.089         : en:Chapter 16
复制代码

复制代码

天生好手/天赋 The.Natural.1984.DC.2160p.BluRay.x264.8bit.SDR.DTS-HD.MA.TrueHD.7.1.Atmos-SWTYBLZ 60.76GB-2.png 天生好手/天赋 The.Natural.1984.DC.2160p.BluRay.x264.8bit.SDR.DTS-HD.MA.TrueHD.7.1.Atmos-SWTYBLZ 60.76GB-3.png 天生好手/天赋 The.Natural.1984.DC.2160p.BluRay.x264.8bit.SDR.DTS-HD.MA.TrueHD.7.1.Atmos-SWTYBLZ 60.76GB-4.png 天生好手/天赋 The.Natural.1984.DC.2160p.BluRay.x264.8bit.SDR.DTS-HD.MA.TrueHD.7.1.Atmos-SWTYBLZ 60.76GB-5.png 天生好手/天赋 The.Natural.1984.DC.2160p.BluRay.x264.8bit.SDR.DTS-HD.MA.TrueHD.7.1.Atmos-SWTYBLZ 60.76GB-6.png 天生好手/天赋 The.Natural.1984.DC.2160p.BluRay.x264.8bit.SDR.DTS-HD.MA.TrueHD.7.1.Atmos-SWTYBLZ 60.76GB-7.png 天生好手/天赋 The.Natural.1984.DC.2160p.BluRay.x264.8bit.SDR.DTS-HD.MA.TrueHD.7.1.Atmos-SWTYBLZ 60.76GB-8.png






开通VIP免费下载本站所有资源---点这里
新手必看:资源下载、资源播放、字幕使用、等常见问题---点这里
回复

使用道具 举报

发表于 2019-6-8 22:22:36 | 显示全部楼层
楼主发贴辛苦了,谢谢楼主分享!
开通VIP免费下载本站所有资源---点这里
新手必看:资源下载、资源播放、字幕使用、等常见问题---点这里
回复 支持 反对

使用道具 举报

发表于 2019-6-8 22:57:50 | 显示全部楼层
想看点最新的电影
开通VIP免费下载本站所有资源---点这里
新手必看:资源下载、资源播放、字幕使用、等常见问题---点这里
回复 支持 反对

使用道具 举报

发表于 2019-6-8 23:51:23 | 显示全部楼层
感谢分享
开通VIP免费下载本站所有资源---点这里
新手必看:资源下载、资源播放、字幕使用、等常见问题---点这里
回复

使用道具 举报

发表于 2019-6-9 01:06:57 | 显示全部楼层
楼主发贴辛苦了,谢谢楼主分享!我觉得蓝光电影网是注册对了!
开通VIP免费下载本站所有资源---点这里
新手必看:资源下载、资源播放、字幕使用、等常见问题---点这里
回复 支持 反对

使用道具 举报

发表于 2019-6-9 01:08:49 | 显示全部楼层
楼主发贴辛苦了,谢谢楼主分享!我觉得蓝光电影网是注册对了!
开通VIP免费下载本站所有资源---点这里
新手必看:资源下载、资源播放、字幕使用、等常见问题---点这里
回复 支持 反对

使用道具 举报

发表于 2019-6-9 01:10:32 | 显示全部楼层
楼主发贴辛苦了,谢谢楼主分享!我觉得蓝光电影网是注册对了!
开通VIP免费下载本站所有资源---点这里
新手必看:资源下载、资源播放、字幕使用、等常见问题---点这里
回复 支持 反对

使用道具 举报

发表于 2019-6-9 01:33:44 | 显示全部楼层
楼主发贴辛苦了,谢谢楼主分享!我觉得蓝光电影网是注册对了!
开通VIP免费下载本站所有资源---点这里
新手必看:资源下载、资源播放、字幕使用、等常见问题---点这里
回复 支持 反对

使用道具 举报

发表于 2019-6-9 06:03:35 | 显示全部楼层
666666666666666666666
开通VIP免费下载本站所有资源---点这里
新手必看:资源下载、资源播放、字幕使用、等常见问题---点这里
回复 支持 反对

使用道具 举报

发表于 2019-6-9 08:02:25 | 显示全部楼层
楼主发贴辛苦了,谢谢楼主分享!我觉得蓝光电影网是注册对了!
开通VIP免费下载本站所有资源---点这里
新手必看:资源下载、资源播放、字幕使用、等常见问题---点这里
回复 支持 反对

使用道具 举报

懒得打字嘛,点击右侧快捷回复 【右侧内容,后台自定义】
您需要登录后才可以回帖 登录 | 立即加入

本版积分规则

现在加入蓝光电影网,注册一个账号

QQ| 手机版|小黑屋| 蓝光电影网 |网站地图

Copyright © 2015-2019 Comsenz Inc.  Template by 蓝光电影网 All Rights Reserved.

Powered by 蓝光电影网 X3.4

特别声明:本站所有资源均由网上收集而来,版权归原影音公司所有,如果侵犯了你的权益,请通知我们,我们会及时删除侵权内容.

快速回复 返回顶部 返回列表