找回密码

蓝光电影网

查看: 573|回复: 36

天生好手/天赋 The.Natural.1984.DC.2160p.BluRay.x264.8bit.SDR.DTS-HD.MA.TrueHD.7.1.Atmos-SWTYBLZ 60.76GB

[复制链接]
  • TA的每日心情
    开心
    11 小时前
  • 签到天数: 204 天

    [LV.7]常住居民III

     成长值: 20905

    发表于 2019-6-8 21:47:19 | 显示全部楼层 |阅读模式

    马上注册,获取最新影视资讯,享用更多功能,让你轻松玩转蓝光电影网。

    您需要 登录 才可以下载或查看,没有帐号?立即加入

    x
    天生好手/天赋 The.Natural.1984.DC.2160p.BluRay.x264.8bit.SDR.DTS-HD.MA.TrueHD.7.1.Atmos-SWTYBLZ 60.76GB-1.png

    译  名 天生妙手 / 天赋 / 天赐奇才
    片  名 The Natural
    年  代 1984
    产  地 美国
    类  别 剧情 / 活动
    语  言 英语
    上映日期 1984-05-11
    IMDb评分7.5/10 from 39848 users
    IMDb链接http://www.imdb.com/title/tt0087781
    豆瓣评分 7.5/10 from 470 users
    豆瓣链接 https://movie.douban.com/subject/1297507/
    片  长 134 分钟
    导  演 Barry Levinson
    编  剧 Roger Towne / Phil Dusenberry
    主  演 Robert Redford
          Glenn Close
          Robert Duvall
          Kim Basinger
          Wilford Brimley


    标  签 美国 | 棒球 | 体育 | 励志 | 美国电影 | RobertRedford | 1984 | 传奇

    简  介

      罗伊(罗伯特·雷德福 Robert Redford 饰)在年少期间便已经展现出了精采的棒球天赋,在父亲的经心种植之下,罗伊的球技飞速的提升着。在罗伊十九岁那一年,父亲归天了,哀痛和疾苦当中,罗伊挥别了女和睦丽丝(格伦·克洛斯 Glenn Close 饰),决议前往芝加哥斥地属于自己的新六合。
    在芝加哥,罗伊碰见了那时很是著名的击球手帕里斯,两人之间展开了一场较劲,罗伊获得了终极的成功。但是好景不长,一场意外的枪击让罗伊渐渐阔别了赛场,并终极成为了一支渣滓球队中的一员。当女和睦丽丝带着他们的儿子再度回到罗伊身旁时,罗伊找到了大张旗鼓的动力。

    获奖情况

      第57届奥斯卡金像奖(1985)
      最好女配角(提名) 格伦·克洛斯
      最好摄影(提名) 凯莱布·德夏奈尔
      最好艺术指导(提名) Bruce Weintraub / Mel Bourne / 安杰洛·P·格雷厄姆
      最好原创配乐(提名) 兰迪·纽曼

      第9届报知映画赏(1984)
      外洋作品奖 巴瑞·莱文森



    • Video
    • ID             : 1
    • Format           : AVC
    • Format/Info          : Advanced Video Codec
    • Format profile         : [email protected]
    • Format settings        : CABAC / 5 Ref Frames
    • Format settings, CABAC       : Yes
    • Format settings, RefFrames     : 5 frames
    • Codec ID           : V_MPEG4/ISO/AVC
    • Duration           : 2 h 23 min
    • Bit rate           : 51.8 Mb/s
    • Width            : 3 840 pixels
    • Height           : 2 076 pixels
    • Display aspect ratio       : 1.85:1
    • Frame rate mode        : Constant
    • Frame rate           : 23.976 (24000/1001) FPS
    • Color space          : YUV
    • Chroma subsampling       : 4:2:0
    • Bit depth          : 8 bits
    • Scan type          : Progressive
    • Bits/(Pixel*Frame)       : 0.271
    • Stream size          : 52.0 GiB (86%)
    • Title            : The.Natural.1984.2160p.BluRay.x264.8bit.SDR.DTS-HD.MA.TrueHD.7.1.Atmos-SWTYBLZ
    • Writing library        : x264 core 157 r2935 545de2f
    • Encoding settings        : cabac=1 / ref=5 / deblock=1:-1:-1 / analyse=0x3:0x113 / me=umh / subme=10 / psy=1 / psy_rd=1.00:0.15 / mixed_ref=1 / me_range=48 / chroma_me=1 / trellis=2 / 8x8dct=1 / cqm=0 / deadzone=21,11 / fast_pskip=1 / chroma_qp_offset=-3 / threads=48 / lookahead_threads=4 / sliced_threads=0 / nr=0 / decimate=0 / interlaced=0 / bluray_compat=0 / constrained_intra=0 / bframes=3 / b_pyramid=2 / b_adapt=2 / b_bias=0 / direct=3 / weightb=1 / open_gop=0 / weightp=2 / keyint=250 / keyint_min=23 / scenecut=40 / intra_refresh=0 / rc_lookahead=50 / rc=crf / mbtree=1 / crf=22.0 / qcomp=0.60 / qpmin=0 / qpmax=69 / qpstep=4 / ip_ratio=1.40 / aq=1:1.00
    • Default            : Yes
    • Forced           : No
    • Audio #1
    • ID             : 2
    • Format           : MLP FBA 16-ch
    • Format/Info          : Meridian Lossless Packing FBA with 16-channel presentation
    • Commercial name        : Dolby TrueHD with Dolby Atmos
    • Codec ID           : A_TRUEHD
    • Duration           : 2 h 23 min
    • Bit rate mode          : Variable
    • Bit rate           : 3 216 kb/s
    • Channel(s)           : 8 channels
    • Channel layout         : L R C LFE Ls Rs Lb Rb
    • Sampling rate          : 48.0 kHz
    • Frame rate           : 1 200.000 FPS (40 SPF)
    • Compression mode         : Lossless
    • Stream size          : 3.23 GiB (5%)
    • Title            : The.Natural.1984.2160p.BluRay.x264.8bit.SDR.DTS-HD.MA.TrueHD.7.1.Atmos-SWTYBLZ
    • Language           : English
    • Default            : Yes
    • Forced           : No
    • Number of dynamic objects      : 11
    • Bed channel count        : 1 channel
    • Bed channel configuration      : LFE
    • Audio #2
    • ID             : 3
    • Format           : DTS XLL
    • Format/Info          : Digital Theater Systems
    • Commercial name        : DTS-HD Master Audio
    • Codec ID           : A_DTS
    • Duration           : 2 h 23 min
    • Bit rate mode          : Variable
    • Bit rate           : 4 374 kb/s
    • Channel(s)           : 8 channels
    • Channel layout         : C L R LFE Lb Rb Lss Rss
    • Sampling rate          : 48.0 kHz
    • Frame rate           : 93.750 FPS (512 SPF)
    • Bit depth          : 24 bits
    • Compression mode         : Lossless
    • Stream size          : 4.39 GiB (7%)
    • Title            : The.Natural.1984.2160p.BluRay.x264.8bit.SDR.DTS-HD.MA.TrueHD.7.1.Atmos-SWTYBLZ
    • Language           : English
    • Default            : No
    • Forced           : No
    • Audio #3
    • ID             : 4
    • Format           : AC-3
    • Format/Info          : Audio Coding 3
    • Commercial name        : Dolby Digital
    • Codec ID           : A_AC3
    • Duration           : 2 h 23 min
    • Bit rate mode          : Constant
    • Bit rate           : 448 kb/s
    • Channel(s)           : 6 channels
    • Channel layout         : L R C LFE Ls Rs
    • Sampling rate          : 48.0 kHz
    • Frame rate           : 31.250 FPS (1536 SPF)
    • Bit depth          : 16 bits
    • Compression mode         : Lossy
    • Stream size          : 460 MiB (1%)
    • Title            : The.Natural.1984.2160p.BluRay.x264.8bit.SDR.DTS-HD.MA.TrueHD.7.1.Atmos-SWTYBLZ
    • Language           : English
    • Service kind         : Complete Main
    • Default            : No
    • Forced           : No
    • Text #1
    • ID             : 5
    • Format           : UTF-8
    • Codec ID           : S_TEXT/UTF8
    • Codec ID/Info          : UTF-8 Plain Text
    • Duration           : 2 h 15 min
    • Bit rate           : 62 b/s
    • Count of elements        : 1839
    • Stream size          : 61.6 KiB (0%)
    • Title            : English-SRT
    • Language           : English
    • Default            : Yes
    • Forced           : No
    • Text #2
    • ID             : 6
    • Format           : PGS
    • Muxing mode          : zlib
    • Codec ID           : S_HDMV/PGS
    • Codec ID/Info          : Picture based subtitle format used on BDs/HD-DVDs
    • Duration           : 2 h 17 min
    • Bit rate           : 31.5 kb/s
    • Count of elements        : 3404
    • Stream size          : 31.1 MiB (0%)
    • Title            : English-PGS
    • Language           : English
    • Default            : No
    • Forced           : No
    • Text #3
    • ID             : 7
    • Format           : PGS
    • Muxing mode          : zlib
    • Codec ID           : S_HDMV/PGS
    • Codec ID/Info          : Picture based subtitle format used on BDs/HD-DVDs
    • Duration           : 2 h 20 min
    • Bit rate           : 37.6 kb/s
    • Count of elements        : 4031
    • Stream size          : 37.7 MiB (0%)
    • Title            : English-SDH-PGS
    • Language           : English
    • Default            : No
    • Forced           : No
    • Text #4
    • ID             : 8
    • Format           : PGS
    • Muxing mode          : zlib
    • Codec ID           : S_HDMV/PGS
    • Codec ID/Info          : Picture based subtitle format used on BDs/HD-DVDs
    • Duration           : 2 h 23 min
    • Bit rate           : 17.9 kb/s
    • Count of elements        : 3498
    • Stream size          : 18.4 MiB (0%)
    • Title            : Arabic-PGS
    • Language           : Arabic
    • Default            : No
    • Forced           : No
    • Text #5
    • ID             : 9
    • Format           : PGS
    • Muxing mode          : zlib
    • Codec ID           : S_HDMV/PGS
    • Codec ID/Info          : Picture based subtitle format used on BDs/HD-DVDs
    • Duration           : 2 h 23 min
    • Bit rate           : 29.8 kb/s
    • Count of elements        : 3470
    • Stream size          : 30.6 MiB (0%)
    • Title            : Bulgarian-PGS
    • Language           : Bulgarian
    • Default            : No
    • Forced           : No
    • Text #6
    • ID             : 10
    • Format           : PGS
    • Muxing mode          : zlib
    • Codec ID           : S_HDMV/PGS
    • Codec ID/Info          : Picture based subtitle format used on BDs/HD-DVDs
    • Duration           : 2 h 23 min
    • Bit rate           : 27.2 kb/s
    • Count of elements        : 3516
    • Stream size          : 27.9 MiB (0%)
    • Title            : Chinese-PGS
    • Language           : Chinese
    • Default            : No
    • Forced           : No
    • Text #7
    • ID             : 11
    • Format           : PGS
    • Muxing mode          : zlib
    • Codec ID           : S_HDMV/PGS
    • Codec ID/Info          : Picture based subtitle format used on BDs/HD-DVDs
    • Duration           : 2 h 20 min
    • Bit rate           : 28.1 kb/s
    • Count of elements        : 3458
    • Stream size          : 28.1 MiB (0%)
    • Title            : Czech-PGS
    • Language           : Czech
    • Default            : No
    • Forced           : No
    • Text #8
    • ID             : 12
    • Format           : PGS
    • Muxing mode          : zlib
    • Codec ID           : S_HDMV/PGS
    • Codec ID/Info          : Picture based subtitle format used on BDs/HD-DVDs
    • Duration           : 2 h 17 min
    • Bit rate           : 26.2 kb/s
    • Count of elements        : 2432
    • Stream size          : 25.8 MiB (0%)
    • Title            : Danish-PGS
    • Language           : Danish
    • Default            : No
    • Forced           : No
    • Text #9
    • ID             : 13
    • Format           : PGS
    • Muxing mode          : zlib
    • Codec ID           : S_HDMV/PGS
    • Codec ID/Info          : Picture based subtitle format used on BDs/HD-DVDs
    • Duration           : 2 h 17 min
    • Bit rate           : 29.6 kb/s
    • Count of elements        : 3178
    • Stream size          : 29.2 MiB (0%)
    • Title            : Dutch-PGS
    • Language           : Dutch
    • Default            : No
    • Forced           : No
    • Text #10
    • ID             : 14
    • Format           : PGS
    • Muxing mode          : zlib
    • Codec ID           : S_HDMV/PGS
    • Codec ID/Info          : Picture based subtitle format used on BDs/HD-DVDs
    • Duration           : 2 h 17 min
    • Bit rate           : 27.6 kb/s
    • Count of elements        : 2906
    • Stream size          : 27.3 MiB (0%)
    • Title            : Finnish-PGS
    • Language           : Finnish
    • Default            : No
    • Forced           : No
    • Text #11
    • ID             : 15
    • Format           : PGS
    • Muxing mode          : zlib
    • Codec ID           : S_HDMV/PGS
    • Codec ID/Info          : Picture based subtitle format used on BDs/HD-DVDs
    • Duration           : 2 h 23 min
    • Bit rate           : 25.5 kb/s
    • Count of elements        : 3420
    • Stream size          : 26.1 MiB (0%)
    • Title            : French-PGS
    • Language           : French
    • Default            : No
    • Forced           : No
    • Text #12
    • ID             : 16
    • Format           : PGS
    • Muxing mode          : zlib
    • Codec ID           : S_HDMV/PGS
    • Codec ID/Info          : Picture based subtitle format used on BDs/HD-DVDs
    • Duration           : 2 h 17 min
    • Bit rate           : 36.0 kb/s
    • Count of elements        : 3528
    • Stream size          : 35.5 MiB (0%)
    • Title            : German-PGS
    • Language           : German
    • Default            : No
    • Forced           : No
    • Text #13
    • ID             : 17
    • Format           : PGS
    • Muxing mode          : zlib
    • Codec ID           : S_HDMV/PGS
    • Codec ID/Info          : Picture based subtitle format used on BDs/HD-DVDs
    • Duration           : 2 h 17 min
    • Bit rate           : 25.2 kb/s
    • Count of elements        : 3426
    • Stream size          : 24.9 MiB (0%)
    • Title            : Greek-PGS
    • Language           : Greek
    • Default            : No
    • Forced           : No
    • Text #14
    • ID             : 18
    • Format           : PGS
    • Muxing mode          : zlib
    • Codec ID           : S_HDMV/PGS
    • Codec ID/Info          : Picture based subtitle format used on BDs/HD-DVDs
    • Duration           : 2 h 23 min
    • Bit rate           : 24.1 kb/s
    • Count of elements        : 3518
    • Stream size          : 24.7 MiB (0%)
    • Title            : Hebrew-PGS
    • Language           : Hebrew
    • Default            : No
    • Forced           : No
    • Text #15
    • ID             : 19
    • Format           : PGS
    • Muxing mode          : zlib
    • Codec ID           : S_HDMV/PGS
    • Codec ID/Info          : Picture based subtitle format used on BDs/HD-DVDs
    • Duration           : 2 h 17 min
    • Bit rate           : 22.7 kb/s
    • Count of elements        : 3476
    • Stream size          : 22.4 MiB (0%)
    • Title            : Hindi-PGS
    • Language           : Hindi
    • Default            : No
    • Forced           : No
    • Text #16
    • ID             : 20
    • Format           : PGS
    • Muxing mode          : zlib
    • Codec ID           : S_HDMV/PGS
    • Codec ID/Info          : Picture based subtitle format used on BDs/HD-DVDs
    • Duration           : 2 h 23 min
    • Bit rate           : 27.0 kb/s
    • Count of elements        : 3524
    • Stream size          : 27.7 MiB (0%)
    • Title            : Hungarian-PGS
    • Language           : Hungarian
    • Default            : No
    • Forced           : No
    • Text #17
    • ID             : 21
    • Format           : PGS
    • Muxing mode          : zlib
    • Codec ID           : S_HDMV/PGS
    • Codec ID/Info          : Picture based subtitle format used on BDs/HD-DVDs
    • Duration           : 2 h 17 min
    • Bit rate           : 31.8 kb/s
    • Count of elements        : 3472
    • Stream size          : 31.4 MiB (0%)
    • Title            : Icelandic-PGS
    • Language           : Icelandic
    • Default            : No
    • Forced           : No
    • Text #18
    • ID             : 22
    • Format           : PGS
    • Muxing mode          : zlib
    • Codec ID           : S_HDMV/PGS
    • Codec ID/Info          : Picture based subtitle format used on BDs/HD-DVDs
    • Duration           : 2 h 23 min
    • Bit rate           : 29.6 kb/s
    • Count of elements        : 3546
    • Stream size          : 30.4 MiB (0%)
    • Title            : Italian-PGS
    • Language           : Italian
    • Default            : No
    • Forced           : No
    • Text #19
    • ID             : 23
    • Format           : PGS
    • Muxing mode          : zlib
    • Codec ID           : S_HDMV/PGS
    • Codec ID/Info          : Picture based subtitle format used on BDs/HD-DVDs
    • Duration           : 2 h 17 min
    • Bit rate           : 19.3 kb/s
    • Count of elements        : 2862
    • Stream size          : 19.0 MiB (0%)
    • Title            : Japanese-PGS
    • Language           : Japanese
    • Default            : No
    • Forced           : No
    • Text #20
    • ID             : 24
    • Format           : PGS
    • Muxing mode          : zlib
    • Codec ID           : S_HDMV/PGS
    • Codec ID/Info          : Picture based subtitle format used on BDs/HD-DVDs
    • Duration           : 2 h 17 min
    • Bit rate           : 19.7 kb/s
    • Count of elements        : 3500
    • Stream size          : 19.5 MiB (0%)
    • Title            : Korean-PGS
    • Language           : Korean
    • Default            : No
    • Forced           : No
    • Text #21
    • ID             : 25
    • Format           : PGS
    • Muxing mode          : zlib
    • Codec ID           : S_HDMV/PGS
    • Codec ID/Info          : Picture based subtitle format used on BDs/HD-DVDs
    • Duration           : 2 h 17 min
    • Bit rate           : 24.8 kb/s
    • Count of elements        : 2500
    • Stream size          : 24.5 MiB (0%)
    • Title            : Norwegian-PGS
    • Language           : Norwegian
    • Default            : No
    • Forced           : No
    • Text #22
    • ID             : 26
    • Format           : PGS
    • Muxing mode          : zlib
    • Codec ID           : S_HDMV/PGS
    • Codec ID/Info          : Picture based subtitle format used on BDs/HD-DVDs
    • Duration           : 2 h 17 min
    • Bit rate           : 25.7 kb/s
    • Count of elements        : 3412
    • Stream size          : 25.4 MiB (0%)
    • Title            : Polish-PGS
    • Language           : Polish
    • Default            : No
    • Forced           : No
    • Text #23
    • ID             : 27
    • Format           : PGS
    • Muxing mode          : zlib
    • Codec ID           : S_HDMV/PGS
    • Codec ID/Info          : Picture based subtitle format used on BDs/HD-DVDs
    • Duration           : 2 h 17 min
    • Bit rate           : 27.3 kb/s
    • Count of elements        : 3468
    • Stream size          : 27.0 MiB (0%)
    • Title            : Portuguese-PGS
    • Language           : Portuguese
    • Default            : No
    • Forced           : No
    • Text #24
    • ID             : 28
    • Format           : PGS
    • Muxing mode          : zlib
    • Codec ID           : S_HDMV/PGS
    • Codec ID/Info          : Picture based subtitle format used on BDs/HD-DVDs
    • Duration           : 2 h 23 min
    • Bit rate           : 31.2 kb/s
    • Count of elements        : 3516
    • Stream size          : 32.0 MiB (0%)
    • Title            : Portuguese-PGS
    • Language           : Portuguese
    • Default            : No
    • Forced           : No
    • Text #25
    • ID             : 29
    • Format           : PGS
    • Muxing mode          : zlib
    • Codec ID           : S_HDMV/PGS
    • Codec ID/Info          : Picture based subtitle format used on BDs/HD-DVDs
    • Duration           : 2 h 23 min
    • Bit rate           : 31.1 kb/s
    • Count of elements        : 3558
    • Stream size          : 32.0 MiB (0%)
    • Title            : Russian-PGS
    • Language           : Russian
    • Default            : No
    • Forced           : No
    • Text #26
    • ID             : 30
    • Format           : PGS
    • Muxing mode          : zlib
    • Codec ID           : S_HDMV/PGS
    • Codec ID/Info          : Picture based subtitle format used on BDs/HD-DVDs
    • Duration           : 2 h 20 min
    • Bit rate           : 29.4 kb/s
    • Count of elements        : 3514
    • Stream size          : 29.5 MiB (0%)
    • Title            : Spanish-PGS
    • Language           : Spanish
    • Default            : No
    • Forced           : No
    • Text #27
    • ID             : 31
    • Format           : PGS
    • Muxing mode          : zlib
    • Codec ID           : S_HDMV/PGS
    • Codec ID/Info          : Picture based subtitle format used on BDs/HD-DVDs
    • Duration           : 2 h 17 min
    • Bit rate           : 31.3 kb/s
    • Count of elements        : 3476
    • Stream size          : 30.9 MiB (0%)
    • Title            : Spanish-PGS
    • Language           : Spanish
    • Default            : No
    • Forced           : No
    • Text #28
    • ID             : 32
    • Format           : PGS
    • Muxing mode          : zlib
    • Codec ID           : S_HDMV/PGS
    • Codec ID/Info          : Picture based subtitle format used on BDs/HD-DVDs
    • Duration           : 2 h 17 min
    • Bit rate           : 26.0 kb/s
    • Count of elements        : 2422
    • Stream size          : 25.6 MiB (0%)
    • Title            : Swedish-PGS
    • Language           : Swedish
    • Default            : No
    • Forced           : No
    • Text #29
    • ID             : 33
    • Format           : PGS
    • Muxing mode          : zlib
    • Codec ID           : S_HDMV/PGS
    • Codec ID/Info          : Picture based subtitle format used on BDs/HD-DVDs
    • Duration           : 2 h 17 min
    • Bit rate           : 26.6 kb/s
    • Count of elements        : 3500
    • Stream size          : 26.3 MiB (0%)
    • Title            : Thai-PGS
    • Language           : Thai
    • Default            : No
    • Forced           : No
    • Text #30
    • ID             : 34
    • Format           : PGS
    • Muxing mode          : zlib
    • Codec ID           : S_HDMV/PGS
    • Codec ID/Info          : Picture based subtitle format used on BDs/HD-DVDs
    • Duration           : 2 h 20 min
    • Bit rate           : 29.3 kb/s
    • Count of elements        : 3470
    • Stream size          : 29.4 MiB (0%)
    • Title            : Turkish-PGS
    • Language           : Turkish
    • Default            : No
    • Forced           : No
    • Text #31
    • ID             : 35
    • Format           : PGS
    • Muxing mode          : zlib
    • Codec ID           : S_HDMV/PGS
    • Codec ID/Info          : Picture based subtitle format used on BDs/HD-DVDs
    • Duration           : 2 h 15 min
    • Bit rate           : 465 b/s
    • Count of elements        : 102
    • Stream size          : 463 KiB (0%)
    • Title            : Japanese-PGS
    • Language           : Japanese
    • Default            : No
    • Forced           : No
    • Menu
    • 00:00:00.000         : en:Chapter 01
    • 00:09:19.725         : en:Chapter 02
    • 00:13:35.189         : en:Chapter 03
    • 00:18:43.997         : en:Chapter 04
    • 00:31:54.787         : en:Chapter 05
    • 00:47:06.615         : en:Chapter 06
    • 00:51:24.372         : en:Chapter 07
    • 01:03:32.725         : en:Chapter 08
    • 01:15:02.498         : en:Chapter 09
    • 01:25:19.697         : en:Chapter 10
    • 01:35:42.862         : en:Chapter 11
    • 01:40:36.030         : en:Chapter 12
    • 01:49:50.375         : en:Chapter 13
    • 01:57:14.110         : en:Chapter 14
    • 02:03:11.425         : en:Chapter 15
    • 02:12:11.089         : en:Chapter 16

    复制代码

    天生好手/天赋 The.Natural.1984.DC.2160p.BluRay.x264.8bit.SDR.DTS-HD.MA.TrueHD.7.1.Atmos-SWTYBLZ 60.76GB-2.png 天生好手/天赋 The.Natural.1984.DC.2160p.BluRay.x264.8bit.SDR.DTS-HD.MA.TrueHD.7.1.Atmos-SWTYBLZ 60.76GB-3.png 天生好手/天赋 The.Natural.1984.DC.2160p.BluRay.x264.8bit.SDR.DTS-HD.MA.TrueHD.7.1.Atmos-SWTYBLZ 60.76GB-4.png 天生好手/天赋 The.Natural.1984.DC.2160p.BluRay.x264.8bit.SDR.DTS-HD.MA.TrueHD.7.1.Atmos-SWTYBLZ 60.76GB-5.png 天生好手/天赋 The.Natural.1984.DC.2160p.BluRay.x264.8bit.SDR.DTS-HD.MA.TrueHD.7.1.Atmos-SWTYBLZ 60.76GB-6.png 天生好手/天赋 The.Natural.1984.DC.2160p.BluRay.x264.8bit.SDR.DTS-HD.MA.TrueHD.7.1.Atmos-SWTYBLZ 60.76GB-7.png 天生好手/天赋 The.Natural.1984.DC.2160p.BluRay.x264.8bit.SDR.DTS-HD.MA.TrueHD.7.1.Atmos-SWTYBLZ 60.76GB-8.png






    The.Natural.1984.DC.2160p.BluRay.x264.8bit.SDR.DTS-HD.MA.TrueHD.7.1.Atmos-SWTYBLZ.torrent (152.53 KB, 下载次数: 23)
    开通VIP免费下载本站所有资源---点这里
    新手必看:资源下载、资源播放、字幕使用、等常见问题---点这里
    回复

    使用道具 举报

  • TA的每日心情
    开心
    22 小时前
  • 签到天数: 46 天

    [LV.5]常住居民I

    发表于 2019-6-8 22:22:36 | 显示全部楼层
    楼主发贴辛苦了,谢谢楼主分享!
    开通VIP免费下载本站所有资源---点这里
    新手必看:资源下载、资源播放、字幕使用、等常见问题---点这里
    回复 支持 反对

    使用道具 举报

  • TA的每日心情
    无聊
    前天 17:07
  • 签到天数: 15 天

    [LV.4]偶尔看看III

    发表于 2019-6-8 22:57:50 | 显示全部楼层
    想看点最新的电影
    开通VIP免费下载本站所有资源---点这里
    新手必看:资源下载、资源播放、字幕使用、等常见问题---点这里
    回复 支持 反对

    使用道具 举报

  • TA的每日心情

    7 天前
  • 签到天数: 1 天

    [LV.1]初来乍到

    发表于 2019-6-8 23:51:23 | 显示全部楼层
    感谢分享
    开通VIP免费下载本站所有资源---点这里
    新手必看:资源下载、资源播放、字幕使用、等常见问题---点这里
    回复

    使用道具 举报

  • TA的每日心情
    开心
    22 小时前
  • 签到天数: 29 天

    [LV.4]偶尔看看III

    发表于 2019-6-9 01:06:57 | 显示全部楼层
    楼主发贴辛苦了,谢谢楼主分享!我觉得蓝光电影网是注册对了!
    开通VIP免费下载本站所有资源---点这里
    新手必看:资源下载、资源播放、字幕使用、等常见问题---点这里
    回复 支持 反对

    使用道具 举报

  • TA的每日心情
    开心
    22 小时前
  • 签到天数: 29 天

    [LV.4]偶尔看看III

    发表于 2019-6-9 01:08:49 | 显示全部楼层
    楼主发贴辛苦了,谢谢楼主分享!我觉得蓝光电影网是注册对了!
    开通VIP免费下载本站所有资源---点这里
    新手必看:资源下载、资源播放、字幕使用、等常见问题---点这里
    回复 支持 反对

    使用道具 举报

  • TA的每日心情
    开心
    22 小时前
  • 签到天数: 29 天

    [LV.4]偶尔看看III

    发表于 2019-6-9 01:10:32 | 显示全部楼层
    楼主发贴辛苦了,谢谢楼主分享!我觉得蓝光电影网是注册对了!
    开通VIP免费下载本站所有资源---点这里
    新手必看:资源下载、资源播放、字幕使用、等常见问题---点这里
    回复 支持 反对

    使用道具 举报

  • TA的每日心情
    擦汗
    2019-6-9 01:35
  • 签到天数: 2 天

    [LV.1]初来乍到

    发表于 2019-6-9 01:33:44 | 显示全部楼层
    楼主发贴辛苦了,谢谢楼主分享!我觉得蓝光电影网是注册对了!
    开通VIP免费下载本站所有资源---点这里
    新手必看:资源下载、资源播放、字幕使用、等常见问题---点这里
    回复 支持 反对

    使用道具 举报

  • TA的每日心情
    慵懒
    7 小时前
  • 签到天数: 67 天

    [LV.6]常住居民II

    发表于 2019-6-9 06:03:35 | 显示全部楼层
    666666666666666666666
    [发帖际遇]: 一个袋子砸在了 w6485777 头上,w6485777 赚了 2 蓝光币. 幸运榜 / 衰神榜
    开通VIP免费下载本站所有资源---点这里
    新手必看:资源下载、资源播放、字幕使用、等常见问题---点这里
    回复 支持 反对

    使用道具 举报

  • TA的每日心情
    开心
    14 小时前
  • 签到天数: 125 天

    [LV.7]常住居民III

    发表于 2019-6-9 08:02:25 | 显示全部楼层
    楼主发贴辛苦了,谢谢楼主分享!我觉得蓝光电影网是注册对了!
    开通VIP免费下载本站所有资源---点这里
    新手必看:资源下载、资源播放、字幕使用、等常见问题---点这里
    回复 支持 反对

    使用道具 举报

    *滑动验证:
    懒得打字嘛,点击右侧快捷回复 【右侧内容,后台自定义】
    您需要登录后才可以回帖 登录 | 立即加入

    本版积分规则

    现在加入蓝光电影网,注册一个账号

    QQ| 手机版|小黑屋| 蓝光电影网 |网站地图

    Copyright © 20013-2018 Comsenz Inc.  Template by 蓝光电影论坛 All Rights Reserved.

    Powered by 高清电影网 X3.4
    特别声明:本站所有资源均由网上收集而来,版权归原影音公司所有,如果侵犯了你的权益,请通知我们,我们会及时删除侵权内容.

    快速回复 返回顶部 返回列表