找回密码

蓝光电影网

查看: 280|回复: 4

[10bit.SDR] 天生好手/天赋 The.Natural.1984.DC.2160p.BluRay.x265.10bit.SDR.DTS-HD.MA.TrueHD.7.1.Atmos-SWTYBLZ 53.66GB

[复制链接]

 成长值: 21340

发表于 2019-6-8 21:42:25 | 显示全部楼层 |阅读模式
天生好手/天赋 The.Natural.1984.DC.2160p.BluRay.x265.10bit.SDR.DTS-HD.MA.TrueHD.7.1.Atmos-SWTYBLZ 53.66GB-1.png

译  名 天生妙手 / 天赋 / 天赐奇才
片  名 The Natural
年  代 1984
产  地 美国
类  别 剧情 / 活动
语  言 英语
上映日期 1984-05-11
IMDb评分7.5/10 from 39848 users
IMDb链接http://www.imdb.com/title/tt0087781
豆瓣评分 7.5/10 from 470 users
豆瓣链接 https://movie.douban.com/subject/1297507/
片  长 134 分钟
导  演 Barry Levinson
编  剧 Roger Towne / Phil Dusenberry
主  演 Robert Redford
      Glenn Close
      Robert Duvall
      Kim Basinger
      Wilford Brimley


标  签 美国 | 棒球 | 体育 | 励志 | 美国电影 | RobertRedford | 1984 | 传奇

简  介

  罗伊(罗伯特·雷德福 Robert Redford 饰)在年少期间便已经展现出了精采的棒球天赋,在父亲的经心种植之下,罗伊的球技飞速的提升着。在罗伊十九岁那一年,父亲归天了,哀痛和疾苦当中,罗伊挥别了女和睦丽丝(格伦·克洛斯 Glenn Close 饰),决议前往芝加哥斥地属于自己的新六合。
在芝加哥,罗伊碰见了那时很是著名的击球手帕里斯,两人之间展开了一场较劲,罗伊获得了终极的成功。但是好景不长,一场意外的枪击让罗伊渐渐阔别了赛场,并终极成为了一支渣滓球队中的一员。当女和睦丽丝带着他们的儿子再度回到罗伊身旁时,罗伊找到了大张旗鼓的动力。

获奖情况

  第57届奥斯卡金像奖(1985)
  最好女配角(提名) 格伦·克洛斯
  最好摄影(提名) 凯莱布·德夏奈尔
  最好艺术指导(提名) Bruce Weintraub / Mel Bourne / 安杰洛·P·格雷厄姆
  最好原创配乐(提名) 兰迪·纽曼

  第9届报知映画赏(1984)
  外洋作品奖 巴瑞·莱文森




  1. Video
  2. ID             : 1
  3. Format           : HEVC
  4. Format/Info          : High Efficiency Video Coding
  5. Format profile         : Main <a href="/cdn-cgi/l/email-protection" class="__cf_email__" data-cfemail="cffeff8f83fae1fe">[email protected]</a>@High
  6. Codec ID           : V_MPEGH/ISO/HEVC
  7. Duration           : 2 h 23 min
  8. Bit rate           : 44.8 Mb/s
  9. Width            : 3 840 pixels
  10. Height           : 2 076 pixels
  11. Display aspect ratio       : 1.85:1
  12. Frame rate mode        : Constant
  13. Frame rate           : 23.976 (24000/1001) FPS
  14. Color space          : YUV
  15. Chroma subsampling       : 4:2:0
  16. Bit depth          : 10 bits
  17. Bits/(Pixel*Frame)       : 0.234
  18. Stream size          : 44.9 GiB (84%)
  19. Title            : The.Natural.1984.2160p.BluRay.x265.10bit.SDR.DTS-HD.MA.TrueHD.7.1.Atmos-SWTYBLZ
  20. Writing library        : x265 3.0ed72af837053:[Windows][GCC 8.2.0][64 bit] 10bit
  21. Encoding settings        : cpuid=1111039 / frame-threads=16 / numa-pools=44,44 / wpp / no-pmode / no-pme / no-psnr / no-ssim / log-level=2 / input-csp=1 / input-res=3840x2076 / interlace=0 / total-frames=206665 / level-idc=51 / high-tier=1 / uhd-bd=0 / ref=3 / no-allow-non-conformance / repeat-headers / annexb / aud / hrd / info / hash=0 / no-temporal-layers / no-open-gop / min-keyint=1 / keyint=24 / gop-lookahead=0 / bframes=4 / b-adapt=2 / b-pyramid / bframe-bias=0 / rc-lookahead=25 / lookahead-slices=4 / scenecut=40 / radl=0 / no-splice / no-intra-refresh / ctu=64 / min-cu-size=8 / no-rect / no-amp / max-tu-size=32 / tu-inter-depth=1 / tu-intra-depth=1 / limit-tu=0 / rdoq-level=0 / dynamic-rd=0.00 / no-ssim-rd / signhide / no-tskip / nr-intra=0 / nr-inter=0 / no-constrained-intra / strong-intra-smoothing / max-merge=2 / limit-refs=3 / no-limit-modes / me=1 / subme=2 / merange=57 / temporal-mvp / weightp / no-weightb / no-analyze-src-pics / deblock=0:0 / no-sao / no-sao-non-deblock / rd=3 / no-early-skip / rskip / no-fast-intra / no-tskip-fast / no-cu-lossless / no-b-intra / no-splitrd-skip / rdpenalty=0 / psy-rd=2.00 / psy-rdoq=0.00 / no-rd-refine / no-lossless / cbqpoffs=0 / crqpoffs=0 / rc=crf / crf=20.0 / qcomp=0.60 / qpstep=4 / stats-write=0 / stats-read=0 / vbv-maxrate=160000 / vbv-bufsize=160000 / vbv-init=0.9 / crf-max=0.0 / crf-min=0.0 / ipratio=1.40 / pbratio=1.30 / aq-mode=1 / aq-strength=1.00 / cutree / zone-count=0 / no-strict-cbr / qg-size=32 / no-rc-grain / qpmax=69 / qpmin=0 / no-const-vbv / sar=1 / overscan=0 / videoformat=5 / range=0 / colorprim=2 / transfer=2 / colormatrix=2 / chromaloc=0 / display-window=0 / max-cll=0,0 / min-luma=0 / max-luma=1023 / log2-max-poc-lsb=8 / vui-timing-info / vui-hrd-info / slices=1 / opt-qp-pps / opt-ref-list-length-pps / no-multi-pass-opt-rps / scenecut-bias=0.05 / no-opt-cu-delta-qp / no-aq-motion / no-hdr / no-hdr-opt / no-dhdr10-opt / no-idr-recovery-sei / analysis-reuse-level=5 / scale-factor=0 / refine-intra=0 / refine-inter=0 / refine-mv=0 / refine-ctu-distortion=0 / no-limit-sao / ctu-info=0 / no-lowpass-dct / refine-analysis-type=0 / copy-pic=1 / max-ausize-factor=1.0 / no-dynamic-refine / no-single-sei / no-hevc-aq / qp-adaptation-range=1.00
  22. Default            : Yes
  23. Forced           : No

  24. Audio #1
  25. ID             : 2
  26. Format           : MLP FBA 16-ch
  27. Format/Info          : Meridian Lossless Packing FBA with 16-channel presentation
  28. Commercial name        : Dolby TrueHD with Dolby Atmos
  29. Codec ID           : A_TRUEHD
  30. Duration           : 2 h 23 min
  31. Bit rate mode          : Variable
  32. Bit rate           : 3 216 kb/s
  33. Channel(s)           : 8 channels
  34. Channel layout         : L R C LFE Ls Rs Lb Rb
  35. Sampling rate          : 48.0 kHz
  36. Frame rate           : 1 200.000 FPS (40 SPF)
  37. Compression mode         : Lossless
  38. Stream size          : 3.23 GiB (6%)
  39. Title            : The.Natural.1984.2160p.BluRay.x265.10bit.SDR.DTS-HD.MA.TrueHD.7.1.Atmos-SWTYBLZ
  40. Language           : English
  41. Default            : Yes
  42. Forced           : No
  43. Number of dynamic objects      : 11
  44. Bed channel count        : 1 channel
  45. Bed channel configuration      : LFE

  46. Audio #2
  47. ID             : 3
  48. Format           : DTS XLL
  49. Format/Info          : Digital Theater Systems
  50. Commercial name        : DTS-HD Master Audio
  51. Codec ID           : A_DTS
  52. Duration           : 2 h 23 min
  53. Bit rate mode          : Variable
  54. Bit rate           : 4 374 kb/s
  55. Channel(s)           : 8 channels
  56. Channel layout         : C L R LFE Lb Rb Lss Rss
  57. Sampling rate          : 48.0 kHz
  58. Frame rate           : 93.750 FPS (512 SPF)
  59. Bit depth          : 24 bits
  60. Compression mode         : Lossless
  61. Stream size          : 4.39 GiB (8%)
  62. Title            : The.Natural.1984.2160p.BluRay.x265.10bit.SDR.DTS-HD.MA.TrueHD.7.1.Atmos-SWTYBLZ
  63. Language           : English
  64. Default            : No
  65. Forced           : No

  66. Audio #3
  67. ID             : 4
  68. Format           : AC-3
  69. Format/Info          : Audio Coding 3
  70. Commercial name        : Dolby Digital
  71. Codec ID           : A_AC3
  72. Duration           : 2 h 23 min
  73. Bit rate mode          : Constant
  74. Bit rate           : 448 kb/s
  75. Channel(s)           : 6 channels
  76. Channel layout         : L R C LFE Ls Rs
  77. Sampling rate          : 48.0 kHz
  78. Frame rate           : 31.250 FPS (1536 SPF)
  79. Bit depth          : 16 bits
  80. Compression mode         : Lossy
  81. Stream size          : 460 MiB (1%)
  82. Title            : The.Natural.1984.2160p.BluRay.x265.10bit.SDR.DTS-HD.MA.TrueHD.7.1.Atmos-SWTYBLZ
  83. Language           : English
  84. Service kind         : Complete Main
  85. Default            : No
  86. Forced           : No

  87. Text #1
  88. ID             : 5
  89. Format           : UTF-8
  90. Codec ID           : S_TEXT/UTF8
  91. Codec ID/Info          : UTF-8 Plain Text
  92. Duration           : 2 h 15 min
  93. Bit rate           : 62 b/s
  94. Count of elements        : 1839
  95. Stream size          : 61.6 KiB (0%)
  96. Title            : English-SRT
  97. Language           : English
  98. Default            : Yes
  99. Forced           : No

  100. Text #2
  101. ID             : 6
  102. Format           : PGS
  103. Muxing mode          : zlib
  104. Codec ID           : S_HDMV/PGS
  105. Codec ID/Info          : Picture based subtitle format used on BDs/HD-DVDs
  106. Duration           : 2 h 17 min
  107. Bit rate           : 31.5 kb/s
  108. Count of elements        : 3404
  109. Stream size          : 31.1 MiB (0%)
  110. Title            : English-PGS
  111. Language           : English
  112. Default            : No
  113. Forced           : No

  114. Text #3
  115. ID             : 7
  116. Format           : PGS
  117. Muxing mode          : zlib
  118. Codec ID           : S_HDMV/PGS
  119. Codec ID/Info          : Picture based subtitle format used on BDs/HD-DVDs
  120. Duration           : 2 h 20 min
  121. Bit rate           : 37.6 kb/s
  122. Count of elements        : 4031
  123. Stream size          : 37.7 MiB (0%)
  124. Title            : English-SDH-PGS
  125. Language           : English
  126. Default            : No
  127. Forced           : No

  128. Text #4
  129. ID             : 8
  130. Format           : PGS
  131. Muxing mode          : zlib
  132. Codec ID           : S_HDMV/PGS
  133. Codec ID/Info          : Picture based subtitle format used on BDs/HD-DVDs
  134. Duration           : 2 h 23 min
  135. Bit rate           : 17.9 kb/s
  136. Count of elements        : 3498
  137. Stream size          : 18.4 MiB (0%)
  138. Title            : Arabic-PGS
  139. Language           : Arabic
  140. Default            : No
  141. Forced           : No

  142. Text #5
  143. ID             : 9
  144. Format           : PGS
  145. Muxing mode          : zlib
  146. Codec ID           : S_HDMV/PGS
  147. Codec ID/Info          : Picture based subtitle format used on BDs/HD-DVDs
  148. Duration           : 2 h 23 min
  149. Bit rate           : 29.8 kb/s
  150. Count of elements        : 3470
  151. Stream size          : 30.6 MiB (0%)
  152. Title            : Bulgarian-PGS
  153. Language           : Bulgarian
  154. Default            : No
  155. Forced           : No

  156. Text #6
  157. ID             : 10
  158. Format           : PGS
  159. Muxing mode          : zlib
  160. Codec ID           : S_HDMV/PGS
  161. Codec ID/Info          : Picture based subtitle format used on BDs/HD-DVDs
  162. Duration           : 2 h 23 min
  163. Bit rate           : 27.2 kb/s
  164. Count of elements        : 3516
  165. Stream size          : 27.9 MiB (0%)
  166. Title            : Chinese-PGS
  167. Language           : Chinese
  168. Default            : No
  169. Forced           : No

  170. Text #7
  171. ID             : 11
  172. Format           : PGS
  173. Muxing mode          : zlib
  174. Codec ID           : S_HDMV/PGS
  175. Codec ID/Info          : Picture based subtitle format used on BDs/HD-DVDs
  176. Duration           : 2 h 20 min
  177. Bit rate           : 28.1 kb/s
  178. Count of elements        : 3458
  179. Stream size          : 28.1 MiB (0%)
  180. Title            : Czech-PGS
  181. Language           : Czech
  182. Default            : No
  183. Forced           : No

  184. Text #8
  185. ID             : 12
  186. Format           : PGS
  187. Muxing mode          : zlib
  188. Codec ID           : S_HDMV/PGS
  189. Codec ID/Info          : Picture based subtitle format used on BDs/HD-DVDs
  190. Duration           : 2 h 17 min
  191. Bit rate           : 26.2 kb/s
  192. Count of elements        : 2432
  193. Stream size          : 25.8 MiB (0%)
  194. Title            : Danish-PGS
  195. Language           : Danish
  196. Default            : No
  197. Forced           : No

  198. Text #9
  199. ID             : 13
  200. Format           : PGS
  201. Muxing mode          : zlib
  202. Codec ID           : S_HDMV/PGS
  203. Codec ID/Info          : Picture based subtitle format used on BDs/HD-DVDs
  204. Duration           : 2 h 17 min
  205. Bit rate           : 29.6 kb/s
  206. Count of elements        : 3178
  207. Stream size          : 29.2 MiB (0%)
  208. Title            : Dutch-PGS
  209. Language           : Dutch
  210. Default            : No
  211. Forced           : No

  212. Text #10
  213. ID             : 14
  214. Format           : PGS
  215. Muxing mode          : zlib
  216. Codec ID           : S_HDMV/PGS
  217. Codec ID/Info          : Picture based subtitle format used on BDs/HD-DVDs
  218. Duration           : 2 h 17 min
  219. Bit rate           : 27.6 kb/s
  220. Count of elements        : 2906
  221. Stream size          : 27.3 MiB (0%)
  222. Title            : Finnish-PGS
  223. Language           : Finnish
  224. Default            : No
  225. Forced           : No

  226. Text #11
  227. ID             : 15
  228. Format           : PGS
  229. Muxing mode          : zlib
  230. Codec ID           : S_HDMV/PGS
  231. Codec ID/Info          : Picture based subtitle format used on BDs/HD-DVDs
  232. Duration           : 2 h 23 min
  233. Bit rate           : 25.5 kb/s
  234. Count of elements        : 3420
  235. Stream size          : 26.1 MiB (0%)
  236. Title            : French-PGS
  237. Language           : French
  238. Default            : No
  239. Forced           : No

  240. Text #12
  241. ID             : 16
  242. Format           : PGS
  243. Muxing mode          : zlib
  244. Codec ID           : S_HDMV/PGS
  245. Codec ID/Info          : Picture based subtitle format used on BDs/HD-DVDs
  246. Duration           : 2 h 17 min
  247. Bit rate           : 36.0 kb/s
  248. Count of elements        : 3528
  249. Stream size          : 35.5 MiB (0%)
  250. Title            : German-PGS
  251. Language           : German
  252. Default            : No
  253. Forced           : No

  254. Text #13
  255. ID             : 17
  256. Format           : PGS
  257. Muxing mode          : zlib
  258. Codec ID           : S_HDMV/PGS
  259. Codec ID/Info          : Picture based subtitle format used on BDs/HD-DVDs
  260. Duration           : 2 h 17 min
  261. Bit rate           : 25.2 kb/s
  262. Count of elements        : 3426
  263. Stream size          : 24.9 MiB (0%)
  264. Title            : Greek-PGS
  265. Language           : Greek
  266. Default            : No
  267. Forced           : No

  268. Text #14
  269. ID             : 18
  270. Format           : PGS
  271. Muxing mode          : zlib
  272. Codec ID           : S_HDMV/PGS
  273. Codec ID/Info          : Picture based subtitle format used on BDs/HD-DVDs
  274. Duration           : 2 h 23 min
  275. Bit rate           : 24.1 kb/s
  276. Count of elements        : 3518
  277. Stream size          : 24.7 MiB (0%)
  278. Title            : Hebrew-PGS
  279. Language           : Hebrew
  280. Default            : No
  281. Forced           : No

  282. Text #15
  283. ID             : 19
  284. Format           : PGS
  285. Muxing mode          : zlib
  286. Codec ID           : S_HDMV/PGS
  287. Codec ID/Info          : Picture based subtitle format used on BDs/HD-DVDs
  288. Duration           : 2 h 17 min
  289. Bit rate           : 22.7 kb/s
  290. Count of elements        : 3476
  291. Stream size          : 22.4 MiB (0%)
  292. Title            : Hindi-PGS
  293. Language           : Hindi
  294. Default            : No
  295. Forced           : No

  296. Text #16
  297. ID             : 20
  298. Format           : PGS
  299. Muxing mode          : zlib
  300. Codec ID           : S_HDMV/PGS
  301. Codec ID/Info          : Picture based subtitle format used on BDs/HD-DVDs
  302. Duration           : 2 h 23 min
  303. Bit rate           : 27.0 kb/s
  304. Count of elements        : 3524
  305. Stream size          : 27.7 MiB (0%)
  306. Title            : Hungarian-PGS
  307. Language           : Hungarian
  308. Default            : No
  309. Forced           : No

  310. Text #17
  311. ID             : 21
  312. Format           : PGS
  313. Muxing mode          : zlib
  314. Codec ID           : S_HDMV/PGS
  315. Codec ID/Info          : Picture based subtitle format used on BDs/HD-DVDs
  316. Duration           : 2 h 17 min
  317. Bit rate           : 31.8 kb/s
  318. Count of elements        : 3472
  319. Stream size          : 31.4 MiB (0%)
  320. Title            : Icelandic-PGS
  321. Language           : Icelandic
  322. Default            : No
  323. Forced           : No

  324. Text #18
  325. ID             : 22
  326. Format           : PGS
  327. Muxing mode          : zlib
  328. Codec ID           : S_HDMV/PGS
  329. Codec ID/Info          : Picture based subtitle format used on BDs/HD-DVDs
  330. Duration           : 2 h 23 min
  331. Bit rate           : 29.6 kb/s
  332. Count of elements        : 3546
  333. Stream size          : 30.4 MiB (0%)
  334. Title            : Italian-PGS
  335. Language           : Italian
  336. Default            : No
  337. Forced           : No

  338. Text #19
  339. ID             : 23
  340. Format           : PGS
  341. Muxing mode          : zlib
  342. Codec ID           : S_HDMV/PGS
  343. Codec ID/Info          : Picture based subtitle format used on BDs/HD-DVDs
  344. Duration           : 2 h 17 min
  345. Bit rate           : 19.3 kb/s
  346. Count of elements        : 2862
  347. Stream size          : 19.0 MiB (0%)
  348. Title            : Japanese-PGS
  349. Language           : Japanese
  350. Default            : No
  351. Forced           : No

  352. Text #20
  353. ID             : 24
  354. Format           : PGS
  355. Muxing mode          : zlib
  356. Codec ID           : S_HDMV/PGS
  357. Codec ID/Info          : Picture based subtitle format used on BDs/HD-DVDs
  358. Duration           : 2 h 17 min
  359. Bit rate           : 19.7 kb/s
  360. Count of elements        : 3500
  361. Stream size          : 19.5 MiB (0%)
  362. Title            : Korean-PGS
  363. Language           : Korean
  364. Default            : No
  365. Forced           : No

  366. Text #21
  367. ID             : 25
  368. Format           : PGS
  369. Muxing mode          : zlib
  370. Codec ID           : S_HDMV/PGS
  371. Codec ID/Info          : Picture based subtitle format used on BDs/HD-DVDs
  372. Duration           : 2 h 17 min
  373. Bit rate           : 24.8 kb/s
  374. Count of elements        : 2500
  375. Stream size          : 24.5 MiB (0%)
  376. Title            : Norwegian-PGS
  377. Language           : Norwegian
  378. Default            : No
  379. Forced           : No

  380. Text #22
  381. ID             : 26
  382. Format           : PGS
  383. Muxing mode          : zlib
  384. Codec ID           : S_HDMV/PGS
  385. Codec ID/Info          : Picture based subtitle format used on BDs/HD-DVDs
  386. Duration           : 2 h 17 min
  387. Bit rate           : 25.7 kb/s
  388. Count of elements        : 3412
  389. Stream size          : 25.4 MiB (0%)
  390. Title            : Polish-PGS
  391. Language           : Polish
  392. Default            : No
  393. Forced           : No

  394. Text #23
  395. ID             : 27
  396. Format           : PGS
  397. Muxing mode          : zlib
  398. Codec ID           : S_HDMV/PGS
  399. Codec ID/Info          : Picture based subtitle format used on BDs/HD-DVDs
  400. Duration           : 2 h 17 min
  401. Bit rate           : 27.3 kb/s
  402. Count of elements        : 3468
  403. Stream size          : 27.0 MiB (0%)
  404. Title            : Portuguese-PGS
  405. Language           : Portuguese
  406. Default            : No
  407. Forced           : No

  408. Text #24
  409. ID             : 28
  410. Format           : PGS
  411. Muxing mode          : zlib
  412. Codec ID           : S_HDMV/PGS
  413. Codec ID/Info          : Picture based subtitle format used on BDs/HD-DVDs
  414. Duration           : 2 h 23 min
  415. Bit rate           : 31.2 kb/s
  416. Count of elements        : 3516
  417. Stream size          : 32.0 MiB (0%)
  418. Title            : Portuguese-PGS
  419. Language           : Portuguese
  420. Default            : No
  421. Forced           : No

  422. Text #25
  423. ID             : 29
  424. Format           : PGS
  425. Muxing mode          : zlib
  426. Codec ID           : S_HDMV/PGS
  427. Codec ID/Info          : Picture based subtitle format used on BDs/HD-DVDs
  428. Duration           : 2 h 23 min
  429. Bit rate           : 31.1 kb/s
  430. Count of elements        : 3558
  431. Stream size          : 32.0 MiB (0%)
  432. Title            : Russian-PGS
  433. Language           : Russian
  434. Default            : No
  435. Forced           : No

  436. Text #26
  437. ID             : 30
  438. Format           : PGS
  439. Muxing mode          : zlib
  440. Codec ID           : S_HDMV/PGS
  441. Codec ID/Info          : Picture based subtitle format used on BDs/HD-DVDs
  442. Duration           : 2 h 20 min
  443. Bit rate           : 29.4 kb/s
  444. Count of elements        : 3514
  445. Stream size          : 29.5 MiB (0%)
  446. Title            : Spanish-PGS
  447. Language           : Spanish
  448. Default            : No
  449. Forced           : No

  450. Text #27
  451. ID             : 31
  452. Format           : PGS
  453. Muxing mode          : zlib
  454. Codec ID           : S_HDMV/PGS
  455. Codec ID/Info          : Picture based subtitle format used on BDs/HD-DVDs
  456. Duration           : 2 h 17 min
  457. Bit rate           : 31.3 kb/s
  458. Count of elements        : 3476
  459. Stream size          : 30.9 MiB (0%)
  460. Title            : Spanish-PGS
  461. Language           : Spanish
  462. Default            : No
  463. Forced           : No

  464. Text #28
  465. ID             : 32
  466. Format           : PGS
  467. Muxing mode          : zlib
  468. Codec ID           : S_HDMV/PGS
  469. Codec ID/Info          : Picture based subtitle format used on BDs/HD-DVDs
  470. Duration           : 2 h 17 min
  471. Bit rate           : 26.0 kb/s
  472. Count of elements        : 2422
  473. Stream size          : 25.6 MiB (0%)
  474. Title            : Swedish-PGS
  475. Language           : Swedish
  476. Default            : No
  477. Forced           : No

  478. Text #29
  479. ID             : 33
  480. Format           : PGS
  481. Muxing mode          : zlib
  482. Codec ID           : S_HDMV/PGS
  483. Codec ID/Info          : Picture based subtitle format used on BDs/HD-DVDs
  484. Duration           : 2 h 17 min
  485. Bit rate           : 26.6 kb/s
  486. Count of elements        : 3500
  487. Stream size          : 26.3 MiB (0%)
  488. Title            : Thai-PGS
  489. Language           : Thai
  490. Default            : No
  491. Forced           : No

  492. Text #30
  493. ID             : 34
  494. Format           : PGS
  495. Muxing mode          : zlib
  496. Codec ID           : S_HDMV/PGS
  497. Codec ID/Info          : Picture based subtitle format used on BDs/HD-DVDs
  498. Duration           : 2 h 20 min
  499. Bit rate           : 29.3 kb/s
  500. Count of elements        : 3470
  501. Stream size          : 29.4 MiB (0%)
  502. Title            : Turkish-PGS
  503. Language           : Turkish
  504. Default            : No
  505. Forced           : No

  506. Text #31
  507. ID             : 35
  508. Format           : PGS
  509. Muxing mode          : zlib
  510. Codec ID           : S_HDMV/PGS
  511. Codec ID/Info          : Picture based subtitle format used on BDs/HD-DVDs
  512. Duration           : 2 h 15 min
  513. Bit rate           : 465 b/s
  514. Count of elements        : 102
  515. Stream size          : 463 KiB (0%)
  516. Title            : Japanese-PGS
  517. Language           : Japanese
  518. Default            : No
  519. Forced           : No

  520. Menu
  521. 00:00:00.000         : en:Chapter 01
  522. 00:09:19.725         : en:Chapter 02
  523. 00:13:35.189         : en:Chapter 03
  524. 00:18:43.997         : en:Chapter 04
  525. 00:31:54.787         : en:Chapter 05
  526. 00:47:06.615         : en:Chapter 06
  527. 00:51:24.372         : en:Chapter 07
  528. 01:03:32.725         : en:Chapter 08
  529. 01:15:02.498         : en:Chapter 09
  530. 01:25:19.697         : en:Chapter 10
  531. 01:35:42.862         : en:Chapter 11
  532. 01:40:36.030         : en:Chapter 12
  533. 01:49:50.375         : en:Chapter 13
  534. 01:57:14.110         : en:Chapter 14
  535. 02:03:11.425         : en:Chapter 15
  536. 02:12:11.089         : en:Chapter 16
复制代码

复制代码

天生好手/天赋 The.Natural.1984.DC.2160p.BluRay.x265.10bit.SDR.DTS-HD.MA.TrueHD.7.1.Atmos-SWTYBLZ 53.66GB-2.png 天生好手/天赋 The.Natural.1984.DC.2160p.BluRay.x265.10bit.SDR.DTS-HD.MA.TrueHD.7.1.Atmos-SWTYBLZ 53.66GB-3.png 天生好手/天赋 The.Natural.1984.DC.2160p.BluRay.x265.10bit.SDR.DTS-HD.MA.TrueHD.7.1.Atmos-SWTYBLZ 53.66GB-4.png 天生好手/天赋 The.Natural.1984.DC.2160p.BluRay.x265.10bit.SDR.DTS-HD.MA.TrueHD.7.1.Atmos-SWTYBLZ 53.66GB-5.png 天生好手/天赋 The.Natural.1984.DC.2160p.BluRay.x265.10bit.SDR.DTS-HD.MA.TrueHD.7.1.Atmos-SWTYBLZ 53.66GB-6.png 天生好手/天赋 The.Natural.1984.DC.2160p.BluRay.x265.10bit.SDR.DTS-HD.MA.TrueHD.7.1.Atmos-SWTYBLZ 53.66GB-7.png 天生好手/天赋 The.Natural.1984.DC.2160p.BluRay.x265.10bit.SDR.DTS-HD.MA.TrueHD.7.1.Atmos-SWTYBLZ 53.66GB-8.png






开通VIP免费下载本站所有资源---点这里
新手必看:资源下载、资源播放、字幕使用、等常见问题---点这里
回复

使用道具 举报

发表于 2019-6-9 14:42:24 | 显示全部楼层
看看看看放松放松
开通VIP免费下载本站所有资源---点这里
新手必看:资源下载、资源播放、字幕使用、等常见问题---点这里
回复 支持 反对

使用道具 举报

发表于 2019-6-12 09:14:09 | 显示全部楼层
楼主发贴辛苦了,谢谢楼主分享!我觉得蓝光电影网是注册对了!
开通VIP免费下载本站所有资源---点这里
新手必看:资源下载、资源播放、字幕使用、等常见问题---点这里
回复 支持 反对

使用道具 举报

发表于 2019-6-13 14:08:41 | 显示全部楼层
最喜欢下点高友率的电影看4K了
开通VIP免费下载本站所有资源---点这里
新手必看:资源下载、资源播放、字幕使用、等常见问题---点这里
回复 支持 反对

使用道具 举报

发表于 2019-7-6 16:03:32 | 显示全部楼层

楼主太厉害了!楼主,电影应该很好看我觉得蓝光电影网真是个好地方!
开通VIP免费下载本站所有资源---点这里
新手必看:资源下载、资源播放、字幕使用、等常见问题---点这里
回复 支持 反对

使用道具 举报

懒得打字嘛,点击右侧快捷回复 【右侧内容,后台自定义】
您需要登录后才可以回帖 登录 | 立即加入

本版积分规则

现在加入蓝光电影网,注册一个账号

QQ| 手机版|小黑屋| 蓝光电影网 |网站地图

Copyright © 2015-2019 Comsenz Inc.  Template by 蓝光电影网 All Rights Reserved.

Powered by 蓝光电影网 X3.4

特别声明:本站所有资源均由网上收集而来,版权归原影音公司所有,如果侵犯了你的权益,请通知我们,我们会及时删除侵权内容.

快速回复 返回顶部 返回列表