找回密码

蓝光电影网

查看: 344|回复: 14

[REMUX.HEVC] 天生好手/天赋 The.Natural.1984.DC.2160p.BluRay.REMUX.HEVC.DTS-HD.MA.TrueHD.7.1.Atmos-FGT 61.08GB

[复制链接]

 成长值: 21340

发表于 2019-6-7 13:04:36 | 显示全部楼层 |阅读模式
天生好手/天赋 The.Natural.1984.DC.2160p.BluRay.REMUX.HEVC.DTS-HD.MA.TrueHD.7.1.Atmos-FGT 61.08GB-1.png

译  名 天生妙手 / 天赋 / 天赐奇才
片  名 The Natural
年  代 1984
产  地 美国
类  别 剧情 / 活动
语  言 英语
上映日期 1984-05-11
IMDb评分7.5/10 from 39848 users
IMDb链接http://www.imdb.com/title/tt0087781
豆瓣评分 7.5/10 from 470 users
豆瓣链接 https://movie.douban.com/subject/1297507/
片  长 134 分钟
导  演 Barry Levinson
编  剧 Roger Towne / Phil Dusenberry
主  演 Robert Redford
      Glenn Close
      Robert Duvall
      Kim Basinger
      Wilford Brimley


标  签 美国 | 棒球 | 体育 | 励志 | 美国电影 | RobertRedford | 1984 | 传奇

简  介

  罗伊(罗伯特·雷德福 Robert Redford 饰)在年少期间便已经展现出了精采的棒球天赋,在父亲的经心种植之下,罗伊的球技飞速的提升着。在罗伊十九岁那一年,父亲归天了,哀痛和疾苦当中,罗伊挥别了女和睦丽丝(格伦·克洛斯 Glenn Close 饰),决议前往芝加哥斥地属于自己的新六合。
在芝加哥,罗伊碰见了那时很是著名的击球手帕里斯,两人之间展开了一场较劲,罗伊获得了终极的成功。但是好景不长,一场意外的枪击让罗伊渐渐阔别了赛场,并终极成为了一支渣滓球队中的一员。当女和睦丽丝带着他们的儿子再度回到罗伊身旁时,罗伊找到了大张旗鼓的动力。

获奖情况

  第57届奥斯卡金像奖(1985)
  最好女配角(提名) 格伦·克洛斯
  最好摄影(提名) 凯莱布·德夏奈尔
  最好艺术指导(提名) Bruce Weintraub / Mel Bourne / 安杰洛·P·格雷厄姆
  最好原创配乐(提名) 兰迪·纽曼

  第9届报知映画赏(1984)
  外洋作品奖 巴瑞·莱文森




  1. Video
  2. ID             : 1
  3. Format           : HEVC
  4. Format/Info          : High Efficiency Video Coding
  5. Commercial name        : HDR10
  6. Format profile         : Main <a href="/cdn-cgi/l/email-protection" class="__cf_email__" data-cfemail="d6e7e6969ae3f8e7">[email protected]</a>@High
  7. Codec ID           : V_MPEGH/ISO/HEVC
  8. Duration           : 2 h 23 min
  9. Bit rate           : 51.7 Mb/s
  10. Width            : 3 840 pixels
  11. Height           : 2 160 pixels
  12. Display aspect ratio       : 16:9
  13. Frame rate mode        : Constant
  14. Frame rate           : 23.976 (24000/1001) FPS
  15. Color space          : YUV
  16. Chroma subsampling       : 4:2:0 (Type 2)
  17. Bit depth          : 10 bits
  18. Bits/(Pixel*Frame)       : 0.260
  19. Stream size          : 51.9 GiB (85%)
  20. Title            : The.Natural.1984.DC.2160p.BluRay.REMUX.HEVC.DTS-HD.MA.TrueHD.7.1.Atmos-FGT
  21. Language           : English
  22. Default            : No
  23. Forced           : No
  24. Color range          : Limited
  25. Color primaries        : BT.2020
  26. Transfer characteristics     : PQ
  27. Matrix coefficients        : BT.2020 non-constant
  28. Mastering display color primaries  : Display P3
  29. Mastering display luminance    : min: 0.0050 cd/m2, max: 4000 cd/m2
  30. Maximum Content Light Level    : 10000 cd/m2
  31. Maximum Frame-Average Light Level  : 9370 cd/m2

  32. Audio #1
  33. ID             : 2
  34. Format           : MLP FBA 16-ch
  35. Format/Info          : Meridian Lossless Packing FBA with 16-channel presentation
  36. Commercial name        : Dolby TrueHD with Dolby Atmos
  37. Codec ID           : A_TRUEHD
  38. Duration           : 2 h 23 min
  39. Bit rate mode          : Variable
  40. Bit rate           : 3 216 kb/s
  41. Channel(s)           : 8 channels
  42. Channel layout         : L R C LFE Ls Rs Lb Rb
  43. Sampling rate          : 48.0 kHz
  44. Frame rate           : 1 200.000 FPS (40 SPF)
  45. Compression mode         : Lossless
  46. Stream size          : 3.23 GiB (5%)
  47. Title            : The.Natural.1984.DC.2160p.BluRay.REMUX.HEVC.DTS-HD.MA.TrueHD.7.1.Atmos-FGT
  48. Language           : English
  49. Default            : Yes
  50. Forced           : No
  51. Number of dynamic objects      : 11
  52. Bed channel count        : 1 channel
  53. Bed channel configuration      : LFE

  54. Audio #2
  55. ID             : 3
  56. Format           : DTS XLL
  57. Format/Info          : Digital Theater Systems
  58. Commercial name        : DTS-HD Master Audio
  59. Codec ID           : A_DTS
  60. Duration           : 2 h 23 min
  61. Bit rate mode          : Variable
  62. Bit rate           : 4 374 kb/s
  63. Channel(s)           : 8 channels
  64. Channel layout         : C L R LFE Lb Rb Lss Rss
  65. Sampling rate          : 48.0 kHz
  66. Frame rate           : 93.750 FPS (512 SPF)
  67. Bit depth          : 24 bits
  68. Compression mode         : Lossless
  69. Stream size          : 4.39 GiB (7%)
  70. Title            : The.Natural.1984.DC.2160p.BluRay.REMUX.HEVC.DTS-HD.MA.TrueHD.7.1.Atmos-FGT
  71. Language           : English
  72. Default            : No
  73. Forced           : No

  74. Audio #3
  75. ID             : 4
  76. Format           : AC-3
  77. Format/Info          : Audio Coding 3
  78. Commercial name        : Dolby Digital
  79. Codec ID           : A_AC3
  80. Duration           : 2 h 23 min
  81. Bit rate mode          : Constant
  82. Bit rate           : 448 kb/s
  83. Channel(s)           : 6 channels
  84. Channel layout         : L R C LFE Ls Rs
  85. Sampling rate          : 48.0 kHz
  86. Frame rate           : 31.250 FPS (1536 SPF)
  87. Bit depth          : 16 bits
  88. Compression mode         : Lossy
  89. Stream size          : 460 MiB (1%)
  90. Title            : The.Natural.1984.DC.2160p.BluRay.REMUX.HEVC.DTS-HD.MA.TrueHD.7.1.Atmos-FGT
  91. Language           : English
  92. Service kind         : Complete Main
  93. Default            : No
  94. Forced           : No

  95. Audio #4
  96. ID             : 5
  97. Format           : AC-3
  98. Format/Info          : Audio Coding 3
  99. Commercial name        : Dolby Digital
  100. Codec ID           : A_AC3
  101. Duration           : 2 h 23 min
  102. Bit rate mode          : Constant
  103. Bit rate           : 448 kb/s
  104. Channel(s)           : 6 channels
  105. Channel layout         : L R C LFE Ls Rs
  106. Sampling rate          : 48.0 kHz
  107. Frame rate           : 31.250 FPS (1536 SPF)
  108. Bit depth          : 16 bits
  109. Compression mode         : Lossy
  110. Stream size          : 460 MiB (1%)
  111. Title            : The.Natural.1984.DC.2160p.BluRay.REMUX.HEVC.DTS-HD.MA.TrueHD.7.1.Atmos-FGT
  112. Language           : Japanese
  113. Service kind         : Complete Main
  114. Default            : No
  115. Forced           : No

  116. Audio #5
  117. ID             : 6
  118. Format           : AC-3
  119. Format/Info          : Audio Coding 3
  120. Commercial name        : Dolby Digital
  121. Codec ID           : A_AC3
  122. Duration           : 2 h 23 min
  123. Bit rate mode          : Constant
  124. Bit rate           : 192 kb/s
  125. Channel(s)           : 2 channels
  126. Channel layout         : L R
  127. Sampling rate          : 48.0 kHz
  128. Frame rate           : 31.250 FPS (1536 SPF)
  129. Bit depth          : 16 bits
  130. Compression mode         : Lossy
  131. Stream size          : 197 MiB (0%)
  132. Title            : The.Natural.1984.DC.2160p.BluRay.REMUX.HEVC.DTS-HD.MA.TrueHD.7.1.Atmos-FGT
  133. Language           : Spanish
  134. Service kind         : Complete Main
  135. Default            : No
  136. Forced           : No

  137. Text #1
  138. ID             : 7
  139. Format           : UTF-8
  140. Codec ID           : S_TEXT/UTF8
  141. Codec ID/Info          : UTF-8 Plain Text
  142. Duration           : 2 h 15 min
  143. Bit rate           : 62 b/s
  144. Count of elements        : 1839
  145. Stream size          : 61.6 KiB (0%)
  146. Title            : English-SRT
  147. Language           : English
  148. Default            : Yes
  149. Forced           : No

  150. Text #2
  151. ID             : 8
  152. Format           : PGS
  153. Muxing mode          : zlib
  154. Codec ID           : S_HDMV/PGS
  155. Codec ID/Info          : Picture based subtitle format used on BDs/HD-DVDs
  156. Duration           : 2 h 17 min
  157. Bit rate           : 31.5 kb/s
  158. Count of elements        : 3404
  159. Stream size          : 31.1 MiB (0%)
  160. Title            : English-PGS
  161. Language           : English
  162. Default            : No
  163. Forced           : No

  164. Text #3
  165. ID             : 9
  166. Format           : PGS
  167. Muxing mode          : zlib
  168. Codec ID           : S_HDMV/PGS
  169. Codec ID/Info          : Picture based subtitle format used on BDs/HD-DVDs
  170. Duration           : 2 h 20 min
  171. Bit rate           : 37.6 kb/s
  172. Count of elements        : 4031
  173. Stream size          : 37.7 MiB (0%)
  174. Title            : English-SDH-PGS
  175. Language           : English
  176. Default            : No
  177. Forced           : No

  178. Text #4
  179. ID             : 10
  180. Format           : PGS
  181. Muxing mode          : zlib
  182. Codec ID           : S_HDMV/PGS
  183. Codec ID/Info          : Picture based subtitle format used on BDs/HD-DVDs
  184. Duration           : 2 h 23 min
  185. Bit rate           : 17.9 kb/s
  186. Count of elements        : 3498
  187. Stream size          : 18.4 MiB (0%)
  188. Title            : Arabic-PGS
  189. Language           : Arabic
  190. Default            : No
  191. Forced           : No

  192. Text #5
  193. ID             : 11
  194. Format           : PGS
  195. Muxing mode          : zlib
  196. Codec ID           : S_HDMV/PGS
  197. Codec ID/Info          : Picture based subtitle format used on BDs/HD-DVDs
  198. Duration           : 2 h 23 min
  199. Bit rate           : 29.8 kb/s
  200. Count of elements        : 3470
  201. Stream size          : 30.6 MiB (0%)
  202. Title            : Bulgarian-PGS
  203. Language           : Bulgarian
  204. Default            : No
  205. Forced           : No

  206. Text #6
  207. ID             : 12
  208. Format           : PGS
  209. Muxing mode          : zlib
  210. Codec ID           : S_HDMV/PGS
  211. Codec ID/Info          : Picture based subtitle format used on BDs/HD-DVDs
  212. Duration           : 2 h 23 min
  213. Bit rate           : 27.2 kb/s
  214. Count of elements        : 3516
  215. Stream size          : 27.9 MiB (0%)
  216. Title            : Chinese-PGS
  217. Language           : Chinese
  218. Default            : No
  219. Forced           : No

  220. Text #7
  221. ID             : 13
  222. Format           : PGS
  223. Muxing mode          : zlib
  224. Codec ID           : S_HDMV/PGS
  225. Codec ID/Info          : Picture based subtitle format used on BDs/HD-DVDs
  226. Duration           : 2 h 20 min
  227. Bit rate           : 28.1 kb/s
  228. Count of elements        : 3458
  229. Stream size          : 28.1 MiB (0%)
  230. Title            : Czech-PGS
  231. Language           : Czech
  232. Default            : No
  233. Forced           : No

  234. Text #8
  235. ID             : 14
  236. Format           : PGS
  237. Muxing mode          : zlib
  238. Codec ID           : S_HDMV/PGS
  239. Codec ID/Info          : Picture based subtitle format used on BDs/HD-DVDs
  240. Duration           : 2 h 17 min
  241. Bit rate           : 26.2 kb/s
  242. Count of elements        : 2432
  243. Stream size          : 25.8 MiB (0%)
  244. Title            : Danish-PGS
  245. Language           : Danish
  246. Default            : No
  247. Forced           : No

  248. Text #9
  249. ID             : 15
  250. Format           : PGS
  251. Muxing mode          : zlib
  252. Codec ID           : S_HDMV/PGS
  253. Codec ID/Info          : Picture based subtitle format used on BDs/HD-DVDs
  254. Duration           : 2 h 17 min
  255. Bit rate           : 29.6 kb/s
  256. Count of elements        : 3178
  257. Stream size          : 29.2 MiB (0%)
  258. Title            : Dutch-PGS
  259. Language           : Dutch
  260. Default            : No
  261. Forced           : No

  262. Text #10
  263. ID             : 16
  264. Format           : PGS
  265. Muxing mode          : zlib
  266. Codec ID           : S_HDMV/PGS
  267. Codec ID/Info          : Picture based subtitle format used on BDs/HD-DVDs
  268. Duration           : 2 h 17 min
  269. Bit rate           : 27.6 kb/s
  270. Count of elements        : 2906
  271. Stream size          : 27.3 MiB (0%)
  272. Title            : Finnish-PGS
  273. Language           : Finnish
  274. Default            : No
  275. Forced           : No

  276. Text #11
  277. ID             : 17
  278. Format           : PGS
  279. Muxing mode          : zlib
  280. Codec ID           : S_HDMV/PGS
  281. Codec ID/Info          : Picture based subtitle format used on BDs/HD-DVDs
  282. Duration           : 2 h 23 min
  283. Bit rate           : 25.5 kb/s
  284. Count of elements        : 3420
  285. Stream size          : 26.1 MiB (0%)
  286. Title            : French-PGS
  287. Language           : French
  288. Default            : No
  289. Forced           : No

  290. Text #12
  291. ID             : 18
  292. Format           : PGS
  293. Muxing mode          : zlib
  294. Codec ID           : S_HDMV/PGS
  295. Codec ID/Info          : Picture based subtitle format used on BDs/HD-DVDs
  296. Duration           : 2 h 17 min
  297. Bit rate           : 36.0 kb/s
  298. Count of elements        : 3528
  299. Stream size          : 35.5 MiB (0%)
  300. Title            : German-PGS
  301. Language           : German
  302. Default            : No
  303. Forced           : No

  304. Text #13
  305. ID             : 19
  306. Format           : PGS
  307. Muxing mode          : zlib
  308. Codec ID           : S_HDMV/PGS
  309. Codec ID/Info          : Picture based subtitle format used on BDs/HD-DVDs
  310. Duration           : 2 h 17 min
  311. Bit rate           : 25.2 kb/s
  312. Count of elements        : 3426
  313. Stream size          : 24.9 MiB (0%)
  314. Title            : Greek-PGS
  315. Language           : Greek
  316. Default            : No
  317. Forced           : No

  318. Text #14
  319. ID             : 20
  320. Format           : PGS
  321. Muxing mode          : zlib
  322. Codec ID           : S_HDMV/PGS
  323. Codec ID/Info          : Picture based subtitle format used on BDs/HD-DVDs
  324. Duration           : 2 h 23 min
  325. Bit rate           : 24.1 kb/s
  326. Count of elements        : 3518
  327. Stream size          : 24.7 MiB (0%)
  328. Title            : Hebrew-PGS
  329. Language           : Hebrew
  330. Default            : No
  331. Forced           : No

  332. Text #15
  333. ID             : 21
  334. Format           : PGS
  335. Muxing mode          : zlib
  336. Codec ID           : S_HDMV/PGS
  337. Codec ID/Info          : Picture based subtitle format used on BDs/HD-DVDs
  338. Duration           : 2 h 17 min
  339. Bit rate           : 22.7 kb/s
  340. Count of elements        : 3476
  341. Stream size          : 22.4 MiB (0%)
  342. Title            : Hindi-PGS
  343. Language           : Hindi
  344. Default            : No
  345. Forced           : No

  346. Text #16
  347. ID             : 22
  348. Format           : PGS
  349. Muxing mode          : zlib
  350. Codec ID           : S_HDMV/PGS
  351. Codec ID/Info          : Picture based subtitle format used on BDs/HD-DVDs
  352. Duration           : 2 h 23 min
  353. Bit rate           : 27.0 kb/s
  354. Count of elements        : 3524
  355. Stream size          : 27.7 MiB (0%)
  356. Title            : Hungarian-PGS
  357. Language           : Hungarian
  358. Default            : No
  359. Forced           : No

  360. Text #17
  361. ID             : 23
  362. Format           : PGS
  363. Muxing mode          : zlib
  364. Codec ID           : S_HDMV/PGS
  365. Codec ID/Info          : Picture based subtitle format used on BDs/HD-DVDs
  366. Duration           : 2 h 17 min
  367. Bit rate           : 31.8 kb/s
  368. Count of elements        : 3472
  369. Stream size          : 31.4 MiB (0%)
  370. Title            : Icelandic-PGS
  371. Language           : Icelandic
  372. Default            : No
  373. Forced           : No

  374. Text #18
  375. ID             : 24
  376. Format           : PGS
  377. Muxing mode          : zlib
  378. Codec ID           : S_HDMV/PGS
  379. Codec ID/Info          : Picture based subtitle format used on BDs/HD-DVDs
  380. Duration           : 2 h 23 min
  381. Bit rate           : 29.6 kb/s
  382. Count of elements        : 3546
  383. Stream size          : 30.4 MiB (0%)
  384. Title            : Italian-PGS
  385. Language           : Italian
  386. Default            : No
  387. Forced           : No

  388. Text #19
  389. ID             : 25
  390. Format           : PGS
  391. Muxing mode          : zlib
  392. Codec ID           : S_HDMV/PGS
  393. Codec ID/Info          : Picture based subtitle format used on BDs/HD-DVDs
  394. Duration           : 2 h 17 min
  395. Bit rate           : 19.3 kb/s
  396. Count of elements        : 2862
  397. Stream size          : 19.0 MiB (0%)
  398. Title            : Japanese-PGS
  399. Language           : Japanese
  400. Default            : No
  401. Forced           : No

  402. Text #20
  403. ID             : 26
  404. Format           : PGS
  405. Muxing mode          : zlib
  406. Codec ID           : S_HDMV/PGS
  407. Codec ID/Info          : Picture based subtitle format used on BDs/HD-DVDs
  408. Duration           : 2 h 17 min
  409. Bit rate           : 19.7 kb/s
  410. Count of elements        : 3500
  411. Stream size          : 19.5 MiB (0%)
  412. Title            : Korean-PGS
  413. Language           : Korean
  414. Default            : No
  415. Forced           : No

  416. Text #21
  417. ID             : 27
  418. Format           : PGS
  419. Muxing mode          : zlib
  420. Codec ID           : S_HDMV/PGS
  421. Codec ID/Info          : Picture based subtitle format used on BDs/HD-DVDs
  422. Duration           : 2 h 17 min
  423. Bit rate           : 24.8 kb/s
  424. Count of elements        : 2500
  425. Stream size          : 24.5 MiB (0%)
  426. Title            : Norwegian-PGS
  427. Language           : Norwegian
  428. Default            : No
  429. Forced           : No

  430. Text #22
  431. ID             : 28
  432. Format           : PGS
  433. Muxing mode          : zlib
  434. Codec ID           : S_HDMV/PGS
  435. Codec ID/Info          : Picture based subtitle format used on BDs/HD-DVDs
  436. Duration           : 2 h 17 min
  437. Bit rate           : 25.7 kb/s
  438. Count of elements        : 3412
  439. Stream size          : 25.4 MiB (0%)
  440. Title            : Polish-PGS
  441. Language           : Polish
  442. Default            : No
  443. Forced           : No

  444. Text #23
  445. ID             : 29
  446. Format           : PGS
  447. Muxing mode          : zlib
  448. Codec ID           : S_HDMV/PGS
  449. Codec ID/Info          : Picture based subtitle format used on BDs/HD-DVDs
  450. Duration           : 2 h 17 min
  451. Bit rate           : 27.3 kb/s
  452. Count of elements        : 3468
  453. Stream size          : 27.0 MiB (0%)
  454. Title            : Portuguese-PGS
  455. Language           : Portuguese
  456. Default            : No
  457. Forced           : No

  458. Text #24
  459. ID             : 30
  460. Format           : PGS
  461. Muxing mode          : zlib
  462. Codec ID           : S_HDMV/PGS
  463. Codec ID/Info          : Picture based subtitle format used on BDs/HD-DVDs
  464. Duration           : 2 h 23 min
  465. Bit rate           : 31.2 kb/s
  466. Count of elements        : 3516
  467. Stream size          : 32.0 MiB (0%)
  468. Title            : Portuguese-PGS
  469. Language           : Portuguese
  470. Default            : No
  471. Forced           : No

  472. Text #25
  473. ID             : 31
  474. Format           : PGS
  475. Muxing mode          : zlib
  476. Codec ID           : S_HDMV/PGS
  477. Codec ID/Info          : Picture based subtitle format used on BDs/HD-DVDs
  478. Duration           : 2 h 23 min
  479. Bit rate           : 31.1 kb/s
  480. Count of elements        : 3558
  481. Stream size          : 32.0 MiB (0%)
  482. Title            : Russian-PGS
  483. Language           : Russian
  484. Default            : No
  485. Forced           : No

  486. Text #26
  487. ID             : 32
  488. Format           : PGS
  489. Muxing mode          : zlib
  490. Codec ID           : S_HDMV/PGS
  491. Codec ID/Info          : Picture based subtitle format used on BDs/HD-DVDs
  492. Duration           : 2 h 20 min
  493. Bit rate           : 29.4 kb/s
  494. Count of elements        : 3514
  495. Stream size          : 29.5 MiB (0%)
  496. Title            : Spanish-PGS
  497. Language           : Spanish
  498. Default            : No
  499. Forced           : No

  500. Text #27
  501. ID             : 33
  502. Format           : PGS
  503. Muxing mode          : zlib
  504. Codec ID           : S_HDMV/PGS
  505. Codec ID/Info          : Picture based subtitle format used on BDs/HD-DVDs
  506. Duration           : 2 h 17 min
  507. Bit rate           : 31.3 kb/s
  508. Count of elements        : 3476
  509. Stream size          : 30.9 MiB (0%)
  510. Title            : Spanish-PGS
  511. Language           : Spanish
  512. Default            : No
  513. Forced           : No

  514. Text #28
  515. ID             : 34
  516. Format           : PGS
  517. Muxing mode          : zlib
  518. Codec ID           : S_HDMV/PGS
  519. Codec ID/Info          : Picture based subtitle format used on BDs/HD-DVDs
  520. Duration           : 2 h 17 min
  521. Bit rate           : 26.0 kb/s
  522. Count of elements        : 2422
  523. Stream size          : 25.6 MiB (0%)
  524. Title            : Swedish-PGS
  525. Language           : Swedish
  526. Default            : No
  527. Forced           : No

  528. Text #29
  529. ID             : 35
  530. Format           : PGS
  531. Muxing mode          : zlib
  532. Codec ID           : S_HDMV/PGS
  533. Codec ID/Info          : Picture based subtitle format used on BDs/HD-DVDs
  534. Duration           : 2 h 17 min
  535. Bit rate           : 26.6 kb/s
  536. Count of elements        : 3500
  537. Stream size          : 26.3 MiB (0%)
  538. Title            : Thai-PGS
  539. Language           : Thai
  540. Default            : No
  541. Forced           : No

  542. Text #30
  543. ID             : 36
  544. Format           : PGS
  545. Muxing mode          : zlib
  546. Codec ID           : S_HDMV/PGS
  547. Codec ID/Info          : Picture based subtitle format used on BDs/HD-DVDs
  548. Duration           : 2 h 20 min
  549. Bit rate           : 29.3 kb/s
  550. Count of elements        : 3470
  551. Stream size          : 29.4 MiB (0%)
  552. Title            : Turkish-PGS
  553. Language           : Turkish
  554. Default            : No
  555. Forced           : No

  556. Text #31
  557. ID             : 37
  558. Format           : PGS
  559. Muxing mode          : zlib
  560. Codec ID           : S_HDMV/PGS
  561. Codec ID/Info          : Picture based subtitle format used on BDs/HD-DVDs
  562. Duration           : 2 h 15 min
  563. Bit rate           : 465 b/s
  564. Count of elements        : 102
  565. Stream size          : 463 KiB (0%)
  566. Title            : Japanese-PGS
  567. Language           : Japanese
  568. Default            : No
  569. Forced           : No

  570. Menu
  571. 00:00:00.000         : en:Chapter 01
  572. 00:09:19.725         : en:Chapter 02
  573. 00:13:35.189         : en:Chapter 03
  574. 00:18:43.997         : en:Chapter 04
  575. 00:31:54.787         : en:Chapter 05
  576. 00:47:06.615         : en:Chapter 06
  577. 00:51:24.372         : en:Chapter 07
  578. 01:03:32.725         : en:Chapter 08
  579. 01:15:02.498         : en:Chapter 09
  580. 01:25:19.697         : en:Chapter 10
  581. 01:35:42.862         : en:Chapter 11
  582. 01:40:36.030         : en:Chapter 12
  583. 01:49:50.375         : en:Chapter 13
  584. 01:57:14.110         : en:Chapter 14
  585. 02:03:11.425         : en:Chapter 15
  586. 02:12:11.089         : en:Chapter 16
复制代码

复制代码

天生好手/天赋 The.Natural.1984.DC.2160p.BluRay.REMUX.HEVC.DTS-HD.MA.TrueHD.7.1.Atmos-FGT 61.08GB-2.png 天生好手/天赋 The.Natural.1984.DC.2160p.BluRay.REMUX.HEVC.DTS-HD.MA.TrueHD.7.1.Atmos-FGT 61.08GB-3.png 天生好手/天赋 The.Natural.1984.DC.2160p.BluRay.REMUX.HEVC.DTS-HD.MA.TrueHD.7.1.Atmos-FGT 61.08GB-4.png






开通VIP免费下载本站所有资源---点这里
新手必看:资源下载、资源播放、字幕使用、等常见问题---点这里
回复

使用道具 举报

 成长值: 2965

发表于 2019-6-8 11:00:56 | 显示全部楼层
感谢。。。。。。。。。。感谢你的分享。。。。。。。。。。。。。赞。。。。。。
开通VIP免费下载本站所有资源---点这里
新手必看:资源下载、资源播放、字幕使用、等常见问题---点这里
回复 支持 反对

使用道具 举报

发表于 2019-6-8 14:44:16 | 显示全部楼层
感谢蓝光电影网的分享
开通VIP免费下载本站所有资源---点这里
新手必看:资源下载、资源播放、字幕使用、等常见问题---点这里
回复 支持 反对

使用道具 举报

发表于 2019-6-8 14:44:25 | 显示全部楼层
楼主发贴辛苦了,谢谢楼主分享!我觉得蓝光电影网是注册对了!
开通VIP免费下载本站所有资源---点这里
新手必看:资源下载、资源播放、字幕使用、等常见问题---点这里
回复 支持 反对

使用道具 举报

发表于 2019-6-8 18:28:55 | 显示全部楼层
楼主发贴辛苦了,谢谢楼主分享!我觉得蓝光电影网是注册对了!
开通VIP免费下载本站所有资源---点这里
新手必看:资源下载、资源播放、字幕使用、等常见问题---点这里
回复 支持 反对

使用道具 举报

已抛锚 成长值: 240

发表于 2019-6-8 21:50:08 | 显示全部楼层
楼主发贴辛苦了,谢谢楼主分享!我觉得蓝光电影网是注册对了!
开通VIP免费下载本站所有资源---点这里
新手必看:资源下载、资源播放、字幕使用、等常见问题---点这里
回复 支持 反对

使用道具 举报

发表于 2019-6-9 23:08:24 | 显示全部楼层
楼主发贴辛苦了,谢谢楼主分享!我觉得蓝光电影网是注册对了!
开通VIP免费下载本站所有资源---点这里
新手必看:资源下载、资源播放、字幕使用、等常见问题---点这里
回复 支持 反对

使用道具 举报

发表于 2019-6-10 09:14:55 | 显示全部楼层
谢谢发片。
开通VIP免费下载本站所有资源---点这里
新手必看:资源下载、资源播放、字幕使用、等常见问题---点这里
回复

使用道具 举报

发表于 2019-6-11 22:03:46 | 显示全部楼层
楼主发贴辛苦了,谢谢楼主分享!我觉得蓝光电影网是注册对了!
开通VIP免费下载本站所有资源---点这里
新手必看:资源下载、资源播放、字幕使用、等常见问题---点这里
回复 支持 反对

使用道具 举报

发表于 2019-6-12 03:22:26 | 显示全部楼层
楼主发贴辛苦了,谢谢楼主分享!我觉得蓝光电影网是注册对了!
开通VIP免费下载本站所有资源---点这里
新手必看:资源下载、资源播放、字幕使用、等常见问题---点这里
回复 支持 反对

使用道具 举报

懒得打字嘛,点击右侧快捷回复 【右侧内容,后台自定义】
您需要登录后才可以回帖 登录 | 立即加入

本版积分规则

现在加入蓝光电影网,注册一个账号

QQ| 手机版|小黑屋| 蓝光电影网 |网站地图

Copyright © 2015-2019 Comsenz Inc.  Template by 蓝光电影网 All Rights Reserved.

Powered by 蓝光电影网 X3.4

特别声明:本站所有资源均由网上收集而来,版权归原影音公司所有,如果侵犯了你的权益,请通知我们,我们会及时删除侵权内容.

快速回复 返回顶部 返回列表