找回密码

蓝光电影网

查看: 1168|回复: 58

[8bit.SDR] 危机13小时 13.Hours.The.Secret.Soldiers.Of.Benghazi.2016.2160p.BluRay.x264.8bit.SDR.DTS-HD.MA.TrueHD.7.1.Atmos-SWTYBLZ 57.45GB

[复制链接]

 成长值: 21340

发表于 2019-6-6 12:24:56 | 显示全部楼层 |阅读模式
危机13小时 13.Hours.The.Secret.Soldiers.Of.Benghazi.2016.2160p.BluRay.x264.8bit.SDR.DTS-HD.MA.TrueHD.7.1.Atmos-SWTYBLZ 57.45GB-1.png

译  名 危机13小时 / 13 Hours / 13小时 / 13小时:班加西知名豪杰(港) / 13小时:班加西的奥秘兵士(台)
片  名 13 Hours: The Secret Soldiers of Benghazi
年  代 2016
产  地 美国
类  别 剧情 / 行动 / 惊悚 / 战争
语  言 英语
上映日期 2016-01-15(美国)
IMDb评分7.3/10 from 103474 users
IMDb链接http://www.imdb.com/title/tt4172430
豆瓣评分 7.8/10 from 40615 users
豆瓣链接 https://movie.douban.com/subject/26220717/
片  长 144分钟
导  演 迈克尔·贝 Michael Bay
编  剧 查克·霍根 Chuck Hogan / 米切尔·朱可夫 Mitchell Zuckoff
主  演 詹姆斯·戴尔 James Badge Dale
      约翰·卡拉辛斯基 John Krasinski
      马克斯·马蒂尼 Max Martini
      多米尼克·福穆萨 Dominic Fumusa
      巴勃罗·施瑞博尔 Pablo Schreiber
      大卫·丹曼 David Denman
      马特·莱斯切尔 Matt Letscher
      托比·斯蒂芬斯 Toby Stephens
      艾莉克西娅·芭利尔 Alexia Barlier
      弗雷迪·史卓玛 Freddie Stroma
      大卫·科斯塔贝尔 David Costabile
      莉莎·伊娃斯蒂娜 Liisa Evastina
      安德烈·克劳德 Andrei Claude
      大卫·君图力 David Giuntoli


标  签 战争 | 美国 | 实在事务改编 | 行动 | 政治 | 2016 | 剧情 | 真人真事改编

简  介

  迈克尔·贝导的这部新片按照米切尔·朱可夫(Mitchell Zuckoff)同名小说改编,是一部政治题材的电影。2012年9月11日,在利比亚班加西的美国领事馆前发生一路反美示威事务,入夜后数十名武装份子冲进领事馆,示威演变成暴力抵触,终极致使包括美国大使约翰·克里斯托弗·史蒂文斯(Christopher J. Stevens)在内的四人灭亡,这也是33年以来第一个被可骇份子杀戮的美国大使,影片《危机13小时》就是由这一实在事务取材。

获奖情况

  第89届奥斯卡金像奖(2017)
  最好混音(提名) Jeffrey J. Haboush / 加里·萨默斯 / 麦克·鲁斯

  第21届金卫星奖(2017)
  电影部分 最好音效(提名) 格雷格· P·罗素 / 加里·萨默斯 / 伊桑·范德莱恩 / 埃里克·阿达尔 / Jeffrey J. Haboush

  第3届豆瓣电影年度榜单(2016)
  评分最高的科幻/行动片(提名)




  1. Video
  2. ID             : 1
  3. Format           : AVC
  4. Format/Info          : Advanced Video Codec
  5. Format profile         : <a href="/cdn-cgi/l/email-protection" class="__cf_email__" data-cfemail="1a52737d725a562f342b">[email protected]</a>
  6. Format settings        : CABAC / 5 Ref Frames
  7. Format settings, CABAC       : Yes
  8. Format settings, RefFrames     : 5 frames
  9. Codec ID           : V_MPEG4/ISO/AVC
  10. Duration           : 2 h 24 min
  11. Bit rate           : 47.5 Mb/s
  12. Width            : 3 840 pixels
  13. Height           : 1 600 pixels
  14. Display aspect ratio       : 2.40:1
  15. Frame rate mode        : Constant
  16. Frame rate           : 23.976 (24000/1001) FPS
  17. Color space          : YUV
  18. Chroma subsampling       : 4:2:0
  19. Bit depth          : 8 bits
  20. Scan type          : Progressive
  21. Bits/(Pixel*Frame)       : 0.322
  22. Stream size          : 47.9 GiB (84%)
  23. Title            : 13.Hours.The.Secret.Soldiers.Of.Benghazi.2016.2160p.BluRay.x264.8bit.SDR.DTS-HD.MA.TrueHD.7.1.Atmos-SWTYBLZ
  24. Writing library        : x264 core 157 r2935 545de2f
  25. Encoding settings        : cabac=1 / ref=5 / deblock=1:-1:-1 / analyse=0x3:0x113 / me=umh / subme=10 / psy=1 / psy_rd=1.00:0.15 / mixed_ref=1 / me_range=48 / chroma_me=1 / trellis=2 / 8x8dct=1 / cqm=0 / deadzone=21,11 / fast_pskip=1 / chroma_qp_offset=-3 / threads=48 / lookahead_threads=4 / sliced_threads=0 / nr=0 / decimate=0 / interlaced=0 / bluray_compat=0 / constrained_intra=0 / bframes=3 / b_pyramid=2 / b_adapt=2 / b_bias=0 / direct=3 / weightb=1 / open_gop=0 / weightp=2 / keyint=250 / keyint_min=23 / scenecut=40 / intra_refresh=0 / rc_lookahead=50 / rc=crf / mbtree=1 / crf=18.0 / qcomp=0.60 / qpmin=0 / qpmax=69 / qpstep=4 / ip_ratio=1.40 / aq=1:1.00
  26. Default            : Yes
  27. Forced           : No

  28. Audio #1
  29. ID             : 2
  30. Format           : MLP FBA 16-ch
  31. Format/Info          : Meridian Lossless Packing FBA with 16-channel presentation
  32. Commercial name        : Dolby TrueHD with Dolby Atmos
  33. Codec ID           : A_TRUEHD
  34. Duration           : 2 h 24 min
  35. Bit rate mode          : Variable
  36. Bit rate           : 4 642 kb/s
  37. Maximum bit rate         : 7 500 kb/s
  38. Channel(s)           : 8 channels
  39. Channel layout         : L R C LFE Ls Rs Lb Rb
  40. Sampling rate          : 48.0 kHz
  41. Frame rate           : 1 200.000 FPS (40 SPF)
  42. Compression mode         : Lossless
  43. Stream size          : 4.68 GiB (8%)
  44. Title            : 13.Hours.The.Secret.Soldiers.Of.Benghazi.2016.2160p.BluRay.x264.8bit.SDR.DTS-HD.MA.TrueHD.7.1.Atmos-SWTYBLZ
  45. Language           : English
  46. Default            : Yes
  47. Forced           : No
  48. Number of dynamic objects      : 11
  49. Bed channel count        : 1 channel
  50. Bed channel configuration      : LFE

  51. Audio #2
  52. ID             : 3
  53. Format           : DTS XLL
  54. Format/Info          : Digital Theater Systems
  55. Commercial name        : DTS-HD Master Audio
  56. Codec ID           : A_DTS
  57. Duration           : 2 h 24 min
  58. Bit rate mode          : Variable
  59. Bit rate           : 3 854 kb/s
  60. Channel(s)           : 8 channels
  61. Channel layout         : C L R LFE Lb Rb Lss Rss
  62. Sampling rate          : 48.0 kHz
  63. Frame rate           : 93.750 FPS (512 SPF)
  64. Bit depth          : 24 bits
  65. Compression mode         : Lossless
  66. Stream size          : 3.89 GiB (7%)
  67. Title            : 13.Hours.The.Secret.Soldiers.Of.Benghazi.2016.2160p.BluRay.x264.8bit.SDR.DTS-HD.MA.TrueHD.7.1.Atmos-SWTYBLZ
  68. Language           : English
  69. Default            : No
  70. Forced           : No

  71. Audio #3
  72. ID             : 4
  73. Format           : AC-3
  74. Format/Info          : Audio Coding 3
  75. Commercial name        : Dolby Digital
  76. Codec ID           : A_AC3
  77. Duration           : 2 h 24 min
  78. Bit rate mode          : Constant
  79. Bit rate           : 640 kb/s
  80. Channel(s)           : 6 channels
  81. Channel layout         : L R C LFE Ls Rs
  82. Sampling rate          : 48.0 kHz
  83. Frame rate           : 31.250 FPS (1536 SPF)
  84. Bit depth          : 16 bits
  85. Compression mode         : Lossy
  86. Stream size          : 661 MiB (1%)
  87. Title            : 13.Hours.The.Secret.Soldiers.Of.Benghazi.2016.2160p.BluRay.x264.8bit.SDR.DTS-HD.MA.TrueHD.7.1.Atmos-SWTYBLZ
  88. Language           : English
  89. Service kind         : Complete Main
  90. Default            : No
  91. Forced           : No

  92. Text #1
  93. ID             : 5
  94. Format           : UTF-8
  95. Codec ID           : S_TEXT/UTF8
  96. Codec ID/Info          : UTF-8 Plain Text
  97. Duration           : 2 h 14 min
  98. Bit rate           : 65 b/s
  99. Count of elements        : 2037
  100. Stream size          : 64.3 KiB (0%)
  101. Title            : English-SRT
  102. Language           : English
  103. Default            : Yes
  104. Forced           : No

  105. Text #2
  106. ID             : 6
  107. Format           : PGS
  108. Muxing mode          : zlib
  109. Codec ID           : S_HDMV/PGS
  110. Codec ID/Info          : Picture based subtitle format used on BDs/HD-DVDs
  111. Duration           : 2 h 14 min
  112. Bit rate           : 40.5 kb/s
  113. Count of elements        : 4086
  114. Stream size          : 38.9 MiB (0%)
  115. Title            : English-PGS
  116. Language           : English
  117. Default            : No
  118. Forced           : No

  119. Text #3
  120. ID             : 7
  121. Format           : PGS
  122. Muxing mode          : zlib
  123. Codec ID           : S_HDMV/PGS
  124. Codec ID/Info          : Picture based subtitle format used on BDs/HD-DVDs
  125. Duration           : 2 h 15 min
  126. Bit rate           : 45.2 kb/s
  127. Count of elements        : 4548
  128. Stream size          : 43.7 MiB (0%)
  129. Title            : English-SDH-PGS
  130. Language           : English
  131. Default            : No
  132. Forced           : No

  133. Text #4
  134. ID             : 8
  135. Format           : PGS
  136. Muxing mode          : zlib
  137. Codec ID           : S_HDMV/PGS
  138. Codec ID/Info          : Picture based subtitle format used on BDs/HD-DVDs
  139. Duration           : 2 h 23 min
  140. Bit rate           : 36.8 kb/s
  141. Count of elements        : 4656
  142. Stream size          : 37.9 MiB (0%)
  143. Title            : French-PGS
  144. Language           : French
  145. Default            : No
  146. Forced           : No

  147. Text #5
  148. ID             : 9
  149. Format           : PGS
  150. Muxing mode          : zlib
  151. Codec ID           : S_HDMV/PGS
  152. Codec ID/Info          : Picture based subtitle format used on BDs/HD-DVDs
  153. Duration           : 2 h 23 min
  154. Bit rate           : 32.2 kb/s
  155. Count of elements        : 3674
  156. Stream size          : 33.2 MiB (0%)
  157. Title            : Portuguese-PGS
  158. Language           : Portuguese
  159. Default            : No
  160. Forced           : No

  161. Text #6
  162. ID             : 10
  163. Format           : PGS
  164. Muxing mode          : zlib
  165. Codec ID           : S_HDMV/PGS
  166. Codec ID/Info          : Picture based subtitle format used on BDs/HD-DVDs
  167. Duration           : 2 h 23 min
  168. Bit rate           : 38.3 kb/s
  169. Count of elements        : 3798
  170. Stream size          : 39.4 MiB (0%)
  171. Title            : Spanish-PGS
  172. Language           : Spanish
  173. Default            : No
  174. Forced           : No

  175. Menu
  176. 00:00:00.000         : en:Chapter 01
  177. 00:04:46.536         : en:Chapter 02
  178. 00:09:00.498         : en:Chapter 03
  179. 00:15:30.721         : en:Chapter 04
  180. 00:21:11.395         : en:Chapter 05
  181. 00:26:47.939         : en:Chapter 06
  182. 00:31:21.921         : en:Chapter 07
  183. 00:34:19.140         : en:Chapter 08
  184. 00:39:35.289         : en:Chapter 09
  185. 00:47:11.703         : en:Chapter 10
  186. 00:53:58.193         : en:Chapter 11
  187. 01:02:26.784         : en:Chapter 12
  188. 01:10:02.489         : en:Chapter 13
  189. 01:23:01.643         : en:Chapter 14
  190. 01:27:10.266         : en:Chapter 15
  191. 01:34:49.850         : en:Chapter 16
  192. 01:42:35.524         : en:Chapter 17
  193. 01:48:07.314         : en:Chapter 18
  194. 01:53:46.444         : en:Chapter 19
  195. 02:00:22.048         : en:Chapter 20
  196. 02:07:18.631         : en:Chapter 21
  197. 02:18:24.337         : en:Chapter 22
复制代码

复制代码

危机13小时 13.Hours.The.Secret.Soldiers.Of.Benghazi.2016.2160p.BluRay.x264.8bit.SDR.DTS-HD.MA.TrueHD.7.1.Atmos-SWTYBLZ 57.45GB-2.png 危机13小时 13.Hours.The.Secret.Soldiers.Of.Benghazi.2016.2160p.BluRay.x264.8bit.SDR.DTS-HD.MA.TrueHD.7.1.Atmos-SWTYBLZ 57.45GB-3.png 危机13小时 13.Hours.The.Secret.Soldiers.Of.Benghazi.2016.2160p.BluRay.x264.8bit.SDR.DTS-HD.MA.TrueHD.7.1.Atmos-SWTYBLZ 57.45GB-4.png 危机13小时 13.Hours.The.Secret.Soldiers.Of.Benghazi.2016.2160p.BluRay.x264.8bit.SDR.DTS-HD.MA.TrueHD.7.1.Atmos-SWTYBLZ 57.45GB-5.png 危机13小时 13.Hours.The.Secret.Soldiers.Of.Benghazi.2016.2160p.BluRay.x264.8bit.SDR.DTS-HD.MA.TrueHD.7.1.Atmos-SWTYBLZ 57.45GB-6.png 危机13小时 13.Hours.The.Secret.Soldiers.Of.Benghazi.2016.2160p.BluRay.x264.8bit.SDR.DTS-HD.MA.TrueHD.7.1.Atmos-SWTYBLZ 57.45GB-7.png







开通VIP免费下载本站所有资源---点这里
新手必看:资源下载、资源播放、字幕使用、等常见问题---点这里
回复

使用道具 举报

发表于 2019-6-6 12:43:05 | 显示全部楼层
蓝光电影网真棒,感谢楼主分享
开通VIP免费下载本站所有资源---点这里
新手必看:资源下载、资源播放、字幕使用、等常见问题---点这里
回复 支持 反对

使用道具 举报

发表于 2019-6-6 14:12:29 | 显示全部楼层
不知道有没有边境杀手那么好看?
开通VIP免费下载本站所有资源---点这里
新手必看:资源下载、资源播放、字幕使用、等常见问题---点这里
回复 支持 反对

使用道具 举报

发表于 2019-6-6 15:00:33 | 显示全部楼层

蓝光电影网真棒,感谢楼主分享
开通VIP免费下载本站所有资源---点这里
新手必看:资源下载、资源播放、字幕使用、等常见问题---点这里
回复 支持 反对

使用道具 举报

发表于 2019-6-6 15:29:20 | 显示全部楼层
感谢楼主分享
开通VIP免费下载本站所有资源---点这里
新手必看:资源下载、资源播放、字幕使用、等常见问题---点这里
回复 支持 反对

使用道具 举报

发表于 2019-6-6 16:19:28 | 显示全部楼层
楼主发贴辛苦了,谢谢楼主分享!我觉得蓝光电影网是注册对了!
开通VIP免费下载本站所有资源---点这里
新手必看:资源下载、资源播放、字幕使用、等常见问题---点这里
回复 支持 反对

使用道具 举报

发表于 2019-6-6 18:06:46 | 显示全部楼层
我要下载啊啊啊啊啊
开通VIP免费下载本站所有资源---点这里
新手必看:资源下载、资源播放、字幕使用、等常见问题---点这里
回复 支持 反对

使用道具 举报

发表于 2019-6-6 18:07:27 | 显示全部楼层
此片值得收藏!!!
开通VIP免费下载本站所有资源---点这里
新手必看:资源下载、资源播放、字幕使用、等常见问题---点这里
回复 支持 反对

使用道具 举报

发表于 2019-6-6 19:39:41 | 显示全部楼层

这个帖子不回对不起自己!我想我是一天也不能离开蓝光电影网
开通VIP免费下载本站所有资源---点这里
新手必看:资源下载、资源播放、字幕使用、等常见问题---点这里
回复 支持 反对

使用道具 举报

已抛锚 成长值: 240

发表于 2019-6-6 19:52:06 | 显示全部楼层
不错,谢谢,经典片子!
开通VIP免费下载本站所有资源---点这里
新手必看:资源下载、资源播放、字幕使用、等常见问题---点这里
回复 支持 反对

使用道具 举报

懒得打字嘛,点击右侧快捷回复 【右侧内容,后台自定义】
您需要登录后才可以回帖 登录 | 立即加入

本版积分规则

现在加入蓝光电影网,注册一个账号

QQ| 手机版|小黑屋| 蓝光电影网 |网站地图

Copyright © 2015-2019 Comsenz Inc.  Template by 蓝光电影网 All Rights Reserved.

Powered by 蓝光电影网 X3.4

特别声明:本站所有资源均由网上收集而来,版权归原影音公司所有,如果侵犯了你的权益,请通知我们,我们会及时删除侵权内容.

快速回复 返回顶部 返回列表