找回密码

蓝光电影网

查看: 10842|回复: 254

[剧情] 无主之作 Never.Look.Away.2018.GERMAN.1080p.BluRay.x264.DTS-WiKi 21.32GB

  [复制链接]

 成长值: 23155

发表于 2019-5-24 23:00:20 | 显示全部楼层 |阅读模式
无主之作 Never.Look.Away.2018.GERMAN.1080p.BluRay.x264.DTS-WiKi 21.32GB-1.png

译  名 无主之作 / Never Look Away / Work Without Author
片  名 Werk ohne Autor
年  代 2018
产  地 德国 / 意大利
类  别 剧情
语  言 德语 / 俄语
上映日期 2018-09-04(威尼斯电影节) / 2018-10-03(德国)
IMDb评分7.7/10 from 4104 users
IMDb链接http://www.imdb.com/title/tt5311542
豆瓣评分 8.6/10 from 16779 users
豆瓣链接 https://movie.douban.com/subject/26701196/
片  长 189分钟
导  演 弗洛里安·亨克尔·冯·多纳斯马 Florian Henckel von Donnersmarck
编  剧 弗洛里安·亨克尔·冯·多纳斯马尔克 Florian Henckel von Donnersmarck
主  演 汤姆·希林 Tom Schilling
      塞巴斯蒂安·科赫 Sebastian Koch
      葆拉·贝尔 Paula Beer
      莎斯琪亚·罗森道尔 Saskia Rosendahl
      奥利弗·马苏奇 Oliver Masucci
      叶甫根尼·希迪金 Yevgeni Sidikhin
      马克·扎克 Mark Zak
      乌尔里克·C·扎勒 Ulrike C. Tscharre
      巴斯蒂安·特罗斯特 Bastian Trost
      汉斯-尤韦·鲍尔 Hans-Uwe Bauer
      汉诺·科夫勒 Hanno Koffler
      辛纳克·勋纳曼 Hinnerk Sch?nemann
      詹妮特·海因 Jeanette Hain
      乔切·舒托夫 J?rg Schüttauf
      约翰娜·加斯多夫 Johanna Gastdorf
      弗罗里安·巴西奥罗麦 Florian Bartholom?i
      本·贝克 Ben Becker


标  签 德国 | 剧情 | 艺术 | 列传 | 2018 | 历史 | 悬疑 | 艺术史

简  介

  该片由塞巴斯蒂安·科赫、汤姆·希林、葆拉·贝尔出演,源于实在事务,报告艺术门生Kurt Barnert爱上了同学Ellie Seeband,Ellie的爸爸Carl Seeband却不喜好他,但他们的命运仍被多年前一路可怕的罪行联系在了一路。事关Barnert的身世:他是从东德逃往西德……

获奖情况

  第91届奥斯卡金像奖(2019)
  最好外语片(提名)
  最好摄影(提名) 凯莱布·德夏奈尔

  第75届威尼斯电影节(2018)
  主比赛单元 金狮奖 (提名) 弗洛里安·亨克尔·冯·多纳斯马尔克

  第76届金球奖(2019)
  电影类 最好外语片(提名)

  第66届美国音效剪辑协会奖(2019)
  金卷轴奖 最好外语片音效剪辑(提名)




  1. Video
  2. ID             : 1
  3. Format           : AVC
  4. Format/Info          : Advanced Video Codec
  5. Format profile         : <a href="/cdn-cgi/l/email-protection" class="__cf_email__" data-cfemail="521a3b353a121e667c63">High@L4.1</a>
  6. Format settings        : CABAC / 4 Ref Frames
  7. Format settings, CABAC       : Yes
  8. Format settings, ReFrames      : 4 frames
  9. Codec ID           : V_MPEG4/ISO/AVC
  10. Duration           : 3 h 9 min
  11. Bit rate           : 14.6 Mb/s
  12. Width            : 1 920 pixels
  13. Height           : 1 036 pixels
  14. Display aspect ratio       : 1.85:1
  15. Frame rate mode        : Constant
  16. Frame rate           : 23.976 (24000/1001) FPS
  17. Color space          : YUV
  18. Chroma subsampling       : 4:2:0
  19. Bit depth          : 8 bits
  20. Scan type          : Progressive
  21. Bits/(Pixel*Frame)       : 0.306
  22. Stream size          : 19.3 GiB (90%)
  23. Writing library        : x264 core 130 r2273 b3065e6
  24. Encoding settings        : cabac=1 / ref=4 / deblock=1:-3:-3 / analyse=0x3:0x113 / me=umh / subme=11 / psy=1 / psy_rd=1.00:0.00 / mixed_ref=1 / me_range=32 / chroma_me=1 / trellis=2 / 8x8dct=1 / cqm=0 / deadzone=21,11 / fast_pskip=0 / chroma_qp_offset=-4 / threads=12 / lookahead_threads=2 / sliced_threads=0 / nr=0 / decimate=0 / interlaced=0 / bluray_compat=0 / constrained_intra=0 / bframes=8 / b_pyramid=2 / b_adapt=2 / b_bias=0 / direct=3 / weightb=1 / open_gop=0 / weightp=2 / keyint=250 / keyint_min=23 / scenecut=40 / intra_refresh=0 / rc=2pass / mbtree=0 / bitrate=14600 / ratetol=1.0 / qcomp=0.60 / qpmin=0 / qpmax=69 / qpstep=4 / cplxblur=20.0 / qblur=0.5 / ip_ratio=1.40 / pb_ratio=1.30 / aq=1:0.85
  25. Language           : English
  26. Default            : Yes
  27. Forced           : No

  28. Audio
  29. ID             : 2
  30. Format           : DTS
  31. Format/Info          : Digital Theater Systems
  32. Codec ID           : A_DTS
  33. Duration           : 3 h 9 min
  34. Bit rate mode          : Constant
  35. Bit rate           : 1 509 kb/s
  36. Channel(s)           : 6 channels
  37. Channel layout         : C L R Ls Rs LFE
  38. Sampling rate          : 48.0 kHz
  39. Frame rate           : 93.750 FPS (512 SPF)
  40. Bit depth          : 24 bits
  41. Compression mode         : Lossy
  42. Stream size          : 1.99 GiB (9%)
  43. Language           : German
  44. Default            : Yes
  45. Forced           : No

  46. Text
  47. ID             : 3
  48. Format           : UTF-8
  49. Codec ID           : S_TEXT/UTF8
  50. Codec ID/Info          : UTF-8 Plain Text
  51. Duration           : 3 h 2 min
  52. Bit rate           : 35 b/s
  53. Count of elements        : 1474
  54. Stream size          : 47.4 KiB (0%)
  55. Language           : English
  56. Default            : Yes
  57. Forced           : No
复制代码

复制代码

无主之作 Never.Look.Away.2018.GERMAN.1080p.BluRay.x264.DTS-WiKi 21.32GB-2.png 无主之作 Never.Look.Away.2018.GERMAN.1080p.BluRay.x264.DTS-WiKi 21.32GB-3.png 无主之作 Never.Look.Away.2018.GERMAN.1080p.BluRay.x264.DTS-WiKi 21.32GB-4.png








回复

使用道具 举报

发表于 2019-5-30 11:01:33 | 显示全部楼层
提示: 该帖被管理员或版主屏蔽
回复 支持 2 反对 0

使用道具 举报

 成长值: 5740

发表于 2019-5-25 00:05:46 | 显示全部楼层
莫非是一楼?
回复 支持 反对

使用道具 举报

发表于 2019-5-25 00:26:08 | 显示全部楼层

楼主,大恩不言谢了!蓝光电影网是最棒的!
回复 支持 反对

使用道具 举报

发表于 2019-5-25 00:38:25 | 显示全部楼层

这东西我收了!谢谢楼主!蓝光电影网真好!
回复 支持 反对

使用道具 举报

 成长值: 5205

发表于 2019-5-25 07:50:41 | 显示全部楼层
「你如此美丽,这甚至不那么浪漫,因为爱上你是件太容易的事。」很喜欢。
回复 支持 反对

使用道具 举报

发表于 2019-5-25 08:55:45 | 显示全部楼层

楼主太厉害了!楼主,电影应该很好看我觉得蓝光电影网真是个好地方!
回复 支持 反对

使用道具 举报

发表于 2019-5-25 11:44:53 | 显示全部楼层
谢谢LZ分享,十分感谢。
回复 支持 反对

使用道具 举报

发表于 2019-5-25 11:45:38 | 显示全部楼层

这东西我收了!谢谢楼主!蓝光电影网真好!
回复 支持 反对

使用道具 举报

已抛锚 成长值: 4685

发表于 2019-5-25 12:26:16 | 显示全部楼层
这东西我收了!谢谢楼主!蓝光电影网真好!
回复 支持 反对

使用道具 举报

 成长值: 850

发表于 2019-5-25 12:52:47 | 显示全部楼层
因为我是新来的,所以下载不了??
回复 支持 反对

使用道具 举报

懒得打字嘛,点击右侧快捷回复 【右侧内容,后台自定义】
您需要登录后才可以回帖 登录 | 立即加入

本版积分规则

现在加入蓝光电影网,注册一个账号

QQ| 手机版|小黑屋| 蓝光电影网 |网站地图

Copyright © 2015-2019 Comsenz Inc.  Template by 蓝光电影论坛 All Rights Reserved.

Powered by 蓝光电影网 X3.4

特别声明:本站所有资源均由网上收集而来,版权归原影音公司所有,如果侵犯了你的权益,请通知我们,我们会及时删除侵权内容.

快速回复 返回顶部 返回列表