找回密码

蓝光电影网

查看: 621|回复: 23

掠食城市 Mortal.Engines.2018.2160p.BluRay.x265.10bit.SDR.DTS-HD.MA.TrueHD.7.1.Atmos-SWTYBLZ 26GB

[复制链接]
  • TA的每日心情
    开心
    18 小时前
  • 签到天数: 117 天

    [LV.6]常住居民II

     成长值: 19555

    发表于 7 天前 | 显示全部楼层 |阅读模式

    马上注册,获取最新影视资讯,享用更多功能,让你轻松玩转蓝光电影网。

    您需要 登录 才可以下载或查看,没有帐号?立即加入

    x
    掠食城市 2018.2160p.BluRay.x265.10bit.SDR.DTS-SWTYBLZ 26GB-1.jpg
    译  名 掠食城市 / 掠食城市:致命引擎 / 牵引城市 / 移动城市:致命引擎(港 / 台) / 致命引擎
    片  名 Mortal Engines
    年  代 2018
    产  地 美国 / 新西兰
    类  别 行动 / 科幻 / 冒险
    语  言 英语
    上映日期 2018-12-14(美国) / 2019-01-18(中国大陆)
    IMDb评分 6.2/10 from 44134 users
    IMDb链接 http://www.imdb.com/title/tt1571234
    豆瓣评分 6.5/10 from 29506 users
    豆瓣链接 https://movie.douban.com/subject/4221462/
    片  长 128分钟
    导  演 克里斯蒂安·瑞沃斯 Christian Rivers
    编  剧 弗兰·威尔士 Fran Walsh / 菲利帕·鲍恩斯 Philippa Boyens / 彼得·杰克逊 Peter Jackson / 菲利普·里夫 Philip Reeve
    主  演 海拉·西尔玛 Hera Hilmar
          雨果·维文 Hugo Weaving
          金吉 Jihae
          罗伯特·席安 Robert Sheehan
          莱拉·乔治 Leila George
          史蒂芬·朗 Stephen Lang
          弗兰基·亚当斯 Frankie Adams
          凯伦·皮斯托里斯 Caren Pistorius
          科林·萨蒙 Colin Salmon
          安德鲁斯·李斯 Andrew Lees
          Sarah Munn
          罗南·拉夫特瑞 Ronan Raftery
          乔尔·托贝克 Joel Tobeck
          帕特里克·麦拉海德 Patrick Malahide
          史蒂芬·乌瑞 Stephen Ure
          马尼克·古纳拉塔尼 Menik Gooneratne
          菲利普·里夫 Philip Reeve
          纳撒尼尔·利斯 Nathaniel Lees
          雷吉-让·佩吉 Regé-Jean Page
          卡卢姆·吉廷斯 Calum Gittins
          安佑森 Yoson An
          马克·哈德洛 Mark Hadlow
          马克米钦森 Mark Mitchinson
          Sophie Cox
          莎拉·皮尔斯 Sarah Peirse
          Kee Chan
          Joseph Mika-Hunt
          特里·诺瑞斯 Terry Norris
          安龙·杰克森 Aaron Jackson
          Megan Edwards
          尼克·布雷克 Nick Blake
          玛丽亚·沃克 Maria Walker
          Amand Weaver
          Madeleine Adams
          Martin Kwok
          Rodney Cook



    简  介

      一次灾难性事务扑灭了文化,数千年后,人类已经顺应,并进化出了新的保存方式。现在,庞大的移动城市在地球上安步,无情地吞噬着小牵引城镇。汤姆·纳茨沃西(罗伯特·席安饰),来自豪牵引城市伦敦的低层,在遭受了危险逃犯海特·肖(海拉·希尔莫饰)后,不能不起头为保存而奋战。两个截然相反,本不应相遇的人,却意外缔盟,他们必定将改变未来。

    获奖情况

      第17届美国视觉结果协会奖(2019)
      最好电影模子

    • Video
    • ID : 1
    • Format : HEVC
    • Format/Info : High Efficiency Video Coding
    • Format profile : Main [email protected]@High
    • Codec ID : V_MPEGH/ISO/HEVC
    • Duration : 2 h 8 min
    • Bit rate : 19.6 Mb/s
    • Width : 3 840 pixels
    • Height : 1 608 pixels
    • Display aspect ratio : 2.40:1
    • Frame rate mode : Constant
    • Frame rate : 23.976 (24000/1001) FPS
    • Color space : YUV
    • Chroma subsampling : 4:2:0
    • Bit depth : 10 bits
    • Bits/(Pixel*Frame) : 0.133
    • Stream size : 17.6 GiB (67%)
    • Title : Mortal.Engines.2018.2160p.BluRay.x265.10bit.SDR.DTS-HD.MA.TrueHD.7.1.Atmos-SWTYBLZ
    • Writing library : x265 3.0ed72af837053:[Windows][GCC 8.2.0][64 bit] 10bit
    • Encoding settings : cpuid=1111039 / frame-threads=16 / numa-pools=24,24,24,24 / wpp / no-pmode / no-pme / no-psnr / no-ssim / log-level=2 / input-csp=1 / input-res=3840x1608 / interlace=0 / total-frames=184645 / level-idc=51 / high-tier=1 / uhd-bd=0 / ref=3 / no-allow-non-conformance / repeat-headers / annexb / aud / hrd / info / hash=0 / no-temporal-layers / no-open-gop / min-keyint=1 / keyint=24 / gop-lookahead=0 / bframes=4 / b-adapt=2 / b-pyramid / bframe-bias=0 / rc-lookahead=25 / lookahead-slices=4 / scenecut=40 / radl=0 / no-splice / no-intra-refresh / ctu=64 / min-cu-size=8 / no-rect / no-amp / max-tu-size=32 / tu-inter-depth=1 / tu-intra-depth=1 / limit-tu=0 / rdoq-level=0 / dynamic-rd=0.00 / no-ssim-rd / signhide / no-tskip / nr-intra=0 / nr-inter=0 / no-constrained-intra / strong-intra-smoothing / max-merge=2 / limit-refs=3 / no-limit-modes / me=1 / subme=2 / merange=57 / temporal-mvp / weightp / no-weightb / no-analyze-src-pics / deblock=0:0 / no-sao / no-sao-non-deblock / rd=3 / no-early-skip / rskip / no-fast-intra / no-tskip-fast / no-cu-lossless / no-b-intra / no-splitrd-skip / rdpenalty=0 / psy-rd=2.00 / psy-rdoq=0.00 / no-rd-refine / no-lossless / cbqpoffs=0 / crqpoffs=0 / rc=crf / crf=16.0 / qcomp=0.60 / qpstep=4 / stats-write=0 / stats-read=0 / vbv-maxrate=160000 / vbv-bufsize=160000 / vbv-init=0.9 / crf-max=0.0 / crf-min=0.0 / ipratio=1.40 / pbratio=1.30 / aq-mode=1 / aq-strength=1.00 / cutree / zone-count=0 / no-strict-cbr / qg-size=32 / no-rc-grain / qpmax=69 / qpmin=0 / no-const-vbv / sar=1 / overscan=0 / videoformat=5 / range=0 / colorprim=2 / transfer=2 / colormatrix=2 / chromaloc=0 / display-window=0 / max-cll=0,0 / min-luma=0 / max-luma=1023 / log2-max-poc-lsb=8 / vui-timing-info / vui-hrd-info / slices=1 / opt-qp-pps / opt-ref-list-length-pps / no-multi-pass-opt-rps / scenecut-bias=0.05 / no-opt-cu-delta-qp / no-aq-motion / no-hdr / no-hdr-opt / no-dhdr10-opt / no-idr-recovery-sei / analysis-reuse-level=5 / scale-factor=0 / refine-intra=0 / refine-inter=0 / refine-mv=0 / refine-ctu-distortion=0 / no-limit-sao / ctu-info=0 / no-lowpass-dct / refine-analysis-type=0 / copy-pic=1 / max-ausize-factor=1.0 / no-dynamic-refine / no-single-sei / no-hevc-aq / qp-adaptation-range=1.00
    • Default : Yes
    • Forced : No
    • Audio #1
    • ID : 2
    • Format : MLP FBA 16-ch
    • Format/Info : Meridian Lossless Packing FBA with 16-channel presentation
    • Commercial name : Dolby TrueHD with Dolby Atmos
    • Codec ID : A_TRUEHD
    • Duration : 2 h 8 min
    • Bit rate mode : Variable
    • Bit rate : 4 519 kb/s
    • Maximum bit rate : 7 425 kb/s
    • Channel(s) : 8 channels
    • Channel layout : L R C LFE Ls Rs Lb Rb
    • Sampling rate : 48.0 kHz
    • Frame rate : 1 200.000 FPS (40 SPF)
    • Compression mode : Lossless
    • Delay relative to video : 17 ms
    • Stream size : 4.05 GiB (16%)
    • Title : Mortal.Engines.2018.2160p.BluRay.x265.10bit.SDR.DTS-HD.MA.TrueHD.7.1.Atmos-SWTYBLZ
    • Language : English
    • Default : Yes
    • Forced : No
    • Number of dynamic objects : 11
    • Bed channel count : 1 channel
    • Bed channel configuration : LFE
    • Audio #2
    • ID : 3
    • Format : DTS XLL
    • Format/Info : Digital Theater Systems
    • Commercial name : DTS-HD Master Audio
    • Codec ID : A_DTS
    • Duration : 2 h 8 min
    • Bit rate mode : Variable
    • Bit rate : 4 393 kb/s
    • Channel(s) : 8 channels
    • Channel layout : C L R LFE Lb Rb Lss Rss
    • Sampling rate : 48.0 kHz
    • Frame rate : 93.750 FPS (512 SPF)
    • Bit depth : 24 bits
    • Compression mode : Lossless
    • Stream size : 3.94 GiB (15%)
    • Title : Mortal.Engines.2018.2160p.BluRay.x265.10bit.SDR.DTS-HD.MA.TrueHD.7.1.Atmos-SWTYBLZ
    • Language : English
    • Default : No
    • Forced : No
    • Audio #3
    • ID : 4
    • Format : AC-3
    • Format/Info : Audio Coding 3
    • Commercial name : Dolby Digital
    • Codec ID : A_AC3
    • Duration : 2 h 8 min
    • Bit rate mode : Constant
    • Bit rate : 448 kb/s
    • Channel(s) : 6 channels
    • Channel layout : L R C LFE Ls Rs
    • Sampling rate : 48.0 kHz
    • Frame rate : 31.250 FPS (1536 SPF)
    • Bit depth : 16 bits
    • Compression mode : Lossy
    • Delay relative to video : 17 ms
    • Stream size : 411 MiB (2%)
    • Title : Mortal.Engines.2018.2160p.BluRay.x265.10bit.SDR.DTS-HD.MA.TrueHD.7.1.Atmos-SWTYBLZ
    • Language : English
    • Service kind : Complete Main
    • Default : No
    • Forced : No
    • Text #1
    • ID : 5
    • Format : UTF-8
    • Codec ID : S_TEXT/UTF8
    • Codec ID/Info : UTF-8 Plain Text
    • Duration : 1 h 57 min
    • Bit rate : 38 b/s
    • Count of elements : 1074
    • Stream size : 33.2 KiB (0%)
    • Title : English-SRT
    • Language : English
    • Default : Yes
    • Forced : No
    • Text #2
    • ID : 6
    • Format : UTF-8
    • Codec ID : S_TEXT/UTF8
    • Codec ID/Info : UTF-8 Plain Text
    • Duration : 1 h 57 min
    • Bit rate : 46 b/s
    • Count of elements : 1493
    • Stream size : 40.3 KiB (0%)
    • Title : English-SDH-SRT
    • Language : English
    • Default : No
    • Forced : No
    • Text #3
    • ID : 7
    • Format : PGS
    • Muxing mode : zlib
    • Codec ID : S_HDMV/PGS
    • Codec ID/Info : Picture based subtitle format used on BDs/HD-DVDs
    • Duration : 1 h 57 min
    • Bit rate : 32.9 kb/s
    • Count of elements : 2986
    • Stream size : 27.7 MiB (0%)
    • Title : English-PGS
    • Language : English
    • Default : No
    • Forced : No
    • Text #4
    • ID : 8
    • Format : PGS
    • Muxing mode : zlib
    • Codec ID : S_HDMV/PGS
    • Codec ID/Info : Picture based subtitle format used on BDs/HD-DVDs
    • Duration : 2 h 7 min
    • Bit rate : 23.3 kb/s
    • Count of elements : 2486
    • Stream size : 21.3 MiB (0%)
    • Title : Spanish-PGS
    • Language : Spanish
    • Default : No
    • Forced : No
    • Text #5
    • ID : 9
    • Format : PGS
    • Muxing mode : zlib
    • Codec ID : S_HDMV/PGS
    • Codec ID/Info : Picture based subtitle format used on BDs/HD-DVDs
    • Duration : 2 h 7 min
    • Bit rate : 21.9 kb/s
    • Count of elements : 2162
    • Stream size : 20.1 MiB (0%)
    • Title : French-PGS
    • Language : French
    • Default : No
    • Forced : No
    • Menu
    • 00:00:00.000 : :Chapter 1
    • 00:09:24.397 : :Chapter 2
    • 00:16:13.305 : :Chapter 3
    • 00:24:20.625 : :Chapter 4
    • 00:31:24.591 : :Chapter 5
    • 00:35:53.067 : :Chapter 6
    • 00:41:27.818 : :Chapter 7
    • 00:44:53.816 : :Chapter 8
    • 00:50:16.805 : :Chapter 9
    • 00:54:21.174 : :Chapter 10
    • 01:00:51.397 : :Chapter 11
    • 01:07:12.069 : :Chapter 12
    • 01:11:12.851 : :Chapter 13
    • 01:17:37.736 : :Chapter 14
    • 01:25:25.620 : :Chapter 15
    • 01:33:30.396 : :Chapter 16
    • 01:39:28.545 : :Chapter 17
    • 01:47:58.263 : :Chapter 18
    • 01:52:11.558 : :Chapter 19
    • 01:58:33.523 : :Chapter 20

    复制代码




    掠食城市 2018.2160p.BluRay.x265.10bit.SDR.DTS-SWTYBLZ 26GB-2.jpg 掠食城市 2018.2160p.BluRay.x265.10bit.SDR.DTS-SWTYBLZ 26GB-3.jpg
    掠食城市 2018.2160p.BluRay.x265.10bit.SDR.DTS-SWTYBLZ 26GB-4.jpg 掠食城市 2018.2160p.BluRay.x265.10bit.SDR.DTS-SWTYBLZ 26GB-5.jpg





    Mortal.Engines.2018.2160p.BluRay.x265.10bit.SDR.DTS-HD.MA.TrueHD.7.1.Atmos-SWTYBLZ.torrent (66.09 KB, 下载次数: 97)
    开通VIP免费下载本站所有资源---点这里
    新手必看:资源下载、资源播放、字幕使用、等常见问题---点这里
    回复

    使用道具 举报

  • TA的每日心情
    郁闷
    7 天前
  • 签到天数: 5 天

    [LV.2]偶尔看看I

    发表于 7 天前 | 显示全部楼层
    收下了,不错的资源
    开通VIP免费下载本站所有资源---点这里
    新手必看:资源下载、资源播放、字幕使用、等常见问题---点这里
    回复 支持 反对

    使用道具 举报

  • TA的每日心情
    奋斗
    3 天前
  • 签到天数: 7 天

    [LV.3]偶尔看看II

    发表于 7 天前 | 显示全部楼层

    这东西我收了!谢谢楼主!蓝光电影网真好!
    开通VIP免费下载本站所有资源---点这里
    新手必看:资源下载、资源播放、字幕使用、等常见问题---点这里
    回复 支持 反对

    使用道具 举报

  • TA的每日心情
    慵懒
    7 天前
  • 签到天数: 13 天

    [LV.3]偶尔看看II

    发表于 7 天前 | 显示全部楼层
    这片子真的非常 非常的烂,看了后悔。
    开通VIP免费下载本站所有资源---点这里
    新手必看:资源下载、资源播放、字幕使用、等常见问题---点这里
    回复 支持 反对

    使用道具 举报

  • TA的每日心情
    慵懒
    昨天 07:26
  • 签到天数: 15 天

    [LV.4]偶尔看看III

    发表于 6 天前 | 显示全部楼层

    我看不错噢 谢谢楼主!蓝光电影网越来越好!
    开通VIP免费下载本站所有资源---点这里
    新手必看:资源下载、资源播放、字幕使用、等常见问题---点这里
    回复 支持 反对

    使用道具 举报

  • TA的每日心情
    开心
    2019-1-19 09:51
  • 签到天数: 1 天

    [LV.1]初来乍到

    发表于 6 天前 | 显示全部楼层
    楼主发贴辛苦了,谢谢楼主分享!我觉得蓝光电影网是注册对了!
    开通VIP免费下载本站所有资源---点这里
    新手必看:资源下载、资源播放、字幕使用、等常见问题---点这里
    回复 支持 反对

    使用道具 举报

  • TA的每日心情
    无聊
    5 小时前
  • 签到天数: 13 天

    [LV.3]偶尔看看II

    发表于 5 天前 | 显示全部楼层

    这东西我收了!谢谢楼主!蓝光电影网真好!
    开通VIP免费下载本站所有资源---点这里
    新手必看:资源下载、资源播放、字幕使用、等常见问题---点这里
    回复 支持 反对

    使用道具 举报

  • TA的每日心情
    无聊
    昨天 23:49
  • 签到天数: 73 天

    [LV.6]常住居民II

    已抛锚 成长值: 890

    发表于 5 天前 | 显示全部楼层
    收下了辛苦
    开通VIP免费下载本站所有资源---点这里
    新手必看:资源下载、资源播放、字幕使用、等常见问题---点这里
    回复 支持 反对

    使用道具 举报

  • TA的每日心情
    开心
    4 天前
  • 签到天数: 6 天

    [LV.2]偶尔看看I

    发表于 4 天前 | 显示全部楼层
    dfhfdhfdahgdfsgdsfgdgdgd
    开通VIP免费下载本站所有资源---点这里
    新手必看:资源下载、资源播放、字幕使用、等常见问题---点这里
    回复 支持 反对

    使用道具 举报

  • TA的每日心情
    开心
    4 天前
  • 签到天数: 19 天

    [LV.4]偶尔看看III

    发表于 4 天前 | 显示全部楼层
    看起来不错,感谢分享!!!!!!!!!!!!!!!!!!!!!!!
    [发帖际遇]: dem19 发帖时在路边捡到 2 蓝光币,偷偷放进了口袋. 幸运榜 / 衰神榜
    开通VIP免费下载本站所有资源---点这里
    新手必看:资源下载、资源播放、字幕使用、等常见问题---点这里
    回复 支持 反对

    使用道具 举报

    *滑动验证:
    懒得打字嘛,点击右侧快捷回复 【右侧内容,后台自定义】
    您需要登录后才可以回帖 登录 | 立即加入

    本版积分规则

    现在加入蓝光电影网,注册一个账号

    QQ| 手机版|小黑屋| 蓝光电影网 |网站地图

    Copyright © 20013-2018 Comsenz Inc.  Template by 蓝光电影论坛 All Rights Reserved.

    Powered by 高清电影网 X3.4
    特别声明:本站所有资源均由网上收集而来,版权归原影音公司所有,如果侵犯了你的权益,请通知我们,我们会及时删除侵权内容.

    快速回复 返回顶部 返回列表