找回密码

蓝光电影网

查看: 3633|回复: 189

[动作] 影/荆州保卫战 Shadow.2018.1080p.BluRay.x264.DTS-HD.MA.5.1-MT 11.32GB

  [复制链接]
  • TA的每日心情
    开心
    17 小时前
  • 签到天数: 117 天

    [LV.6]常住居民II

     成长值: 19555

    发表于 2019-3-6 22:48:11 | 显示全部楼层 |阅读模式

    马上注册,获取最新影视资讯,享用更多功能,让你轻松玩转蓝光电影网。

    您需要 登录 才可以下载或查看,没有帐号?立即加入

    x
    影/荆州保卫战 Shadow.2018.1080p.BluRay.x264.DTS-HD.MA.5.1-MT 11.32GB-1.jpg
    译  名 Shadow / 三国·荆州 / 荆州保卫战
    片  名 影
    年  代 2018
    产  地 中国大陆 / 香港
    类  别 剧情 / 行动 / 武侠 / 古装
    语  言 汉语普通话
    上映日期 2018-09-06(威尼斯电影节) / 2018-09-30(中国大陆)
    IMDb评分 7.1/10 from 1661 users
    IMDb链接 http://www.imdb.com/title/tt6864046
    豆瓣评分 7.2/10 from 364076 users
    豆瓣链接 https://movie.douban.com/subject/4864908/
    片  长 116分钟
    导  演 张艺谋 Yimou Zhang
    编  剧 李威 Wei Li / 张艺谋 Yimou Zhang
    主  演 邓超 Chao Deng
          孙俪 Li Sun
          郑恺 Kai Zheng
          王千源 Qianyuan Wang
          王景春 Jingchun Wang
          胡军 Jun Hu
          关晓彤 Xiaotong Guan
          吴磊 Lei Wu
          封柏 Bai Feng



    简  介

      缭乱时势,群敌环伺。一个从小被奥秘软禁的替人,不甘只做他人手中的兵器;但若想打破桎梏,找回自我,又势必历经千难万险的考验;替人能否寻回自在,他又该若何挑选?


    获奖情况

      第55届台北金马影展(2018)
      金马奖 最好剧情片(提名)
      金马奖 最好导演 张艺谋
      金马奖 最好男配角(提名) 邓超
      金马奖 最好女配角(提名) 孙俪
      金马奖 最好改编剧本(提名) 李威 / 张艺谋
      金马奖 最好摄影(提名) 赵小丁
      金马奖 最好美术设想 马名誉
      金马奖 最好外型设想 陈敏正
      金马奖 最好行动设想(提名) 谷轩昭
      金马奖 最好原创配乐(提名) 捞仔
      金马奖 最好音效(提名) 赵楠 / 杨江
      金马奖 最好视觉结果 王星会

      第13届亚洲电影大奖(2019)
      最好摄影(提名)
      最好剪接(提名)
      最好原创音乐(提名)
      最好美术指导(提名)
      最好外型设想(提名)
      最好声响(提名)

    • Video
    • ID : 1
    • Format : AVC
    • Format/Info : Advanced Video Codec
    • Format profile : [email protected]
    • Format settings : CABAC / 5 Ref Frames
    • Format settings, CABAC : Yes
    • Format settings, ReFrames : 5 frames
    • Codec ID : V_MPEG4/ISO/AVC
    • Duration : 1 h 55 min
    • Bit rate : 10.2 Mb/s
    • Width : 1 920 pixels
    • Height : 808 pixels
    • Display aspect ratio : 2.40:1
    • Frame rate mode : Constant
    • Frame rate : 24.000 FPS
    • Color space : YUV
    • Chroma subsampling : 4:2:0
    • Bit depth : 8 bits
    • Scan type : Progressive
    • Bits/(Pixel*Frame) : 0.274
    • Stream size : 8.24 GiB (73%)
    • Writing library : x264 core 157 r2938 2b00a84 [email protected] Mod
    • Encoding settings : cabac=1 / ref=5 / deblock=1:-3:-3 / analyse=0x3:0x133 / me=umh / subme=10 / psy=1 / psy_rd=1.05:0.00 / mixed_ref=1 / me_range=32 / chroma_me=1 / trellis=2 / 8x8dct=1 / cqm=0 / deadzone=21,11 / fast_pskip=0 / chroma_qp_offset=-2 / threads=12 / lookahead_threads=2 / sliced_threads=0 / nr=0 / decimate=0 / interlaced=0 / bluray_compat=0 / constrained_intra=0 / bframes=8 / b_pyramid=2 / b_adapt=2 / b_bias=0 / direct=3 / weightb=1 / open_gop=0 / weightp=2 / keyint=250 / keyint_min=24 / scenecut=40 / intra_refresh=0 / rc_lookahead=250 / rc=crf / mbtree=0 / crf=16.0 / qcomp=0.60 / qpmin=0 / qpmax=69 / qpstep=4 / vbv_maxrate=62500 / vbv_bufsize=78125 / crf_max=0.0 / nal_hrd=none / filler=0 / ip_ratio=1.30 / pb_ratio=1.20 / aq=3:0.80
    • Language : Chinese
    • Default : Yes
    • Forced : No
    • Color range : Limited
    • Color primaries : BT.709
    • Matrix coefficients : BT.709
    • Audio
    • ID : 2
    • Format : DTS XLL
    • Format/Info : Digital Theater Systems
    • Commercial name : DTS-HD Master Audio
    • Codec ID : A_DTS
    • Duration : 1 h 55 min
    • Bit rate mode : Variable
    • Bit rate : 3 795 kb/s
    • Channel(s) : 6 channels
    • Channel layout : C L R Ls Rs LFE
    • Sampling rate : 48.0 kHz
    • Frame rate : 93.750 FPS (512 SPF)
    • Bit depth : 24 bits
    • Compression mode : Lossless
    • Stream size : 3.07 GiB (27%)
    • Language : Chinese
    • Default : Yes
    • Forced : No
    • Text #1
    • ID : 3
    • Format : UTF-8
    • Codec ID : S_TEXT/UTF8
    • Codec ID/Info : UTF-8 Plain Text
    • Duration : 1 h 44 min
    • Bit rate : 28 b/s
    • Count of elements : 1072
    • Stream size : 21.7 KiB (0%)
    • Title : English-SRT
    • Language : English
    • Default : Yes
    • Forced : Yes
    • Text #2
    • ID : 4
    • Format : PGS
    • Muxing mode : zlib
    • Codec ID : S_HDMV/PGS
    • Codec ID/Info : Picture based subtitle format used on BDs/HD-DVDs
    • Duration : 1 h 44 min
    • Bit rate : 19.9 kb/s
    • Count of elements : 1910
    • Stream size : 14.9 MiB (0%)
    • Title : English-PGS
    • Language : English
    • Default : No
    • Forced : No
    • Menu
    • 00:00:00.000 : en:Chapter 01
    • 00:12:27.250 : en:Chapter 02
    • 00:19:40.958 : en:Chapter 03
    • 00:30:19.875 : en:Chapter 04
    • 00:41:09.958 : en:Chapter 05
    • 00:48:45.125 : en:Chapter 06
    • 00:54:49.875 : en:Chapter 07
    • 01:02:35.125 : en:Chapter 08
    • 01:10:27.083 : en:Chapter 09
    • 01:20:40.208 : en:Chapter 10
    • 01:28:10.250 : en:Chapter 11
    • 01:38:00.333 : en:Chapter 12

    复制代码



    影/荆州保卫战 Shadow.2018.1080p.BluRay.x264.DTS-HD.MA.5.1-MT 11.32GB-2.jpg 影/荆州保卫战 Shadow.2018.1080p.BluRay.x264.DTS-HD.MA.5.1-MT 11.32GB-3.jpg






    Shadow.2018.CHINESE.1080p.BluRay.x264.DTS-HD.MA.5.1-MT.torrent (57.19 KB, 下载次数: 812)
    开通VIP免费下载本站所有资源---点这里
    新手必看:资源下载、资源播放、字幕使用、等常见问题---点这里
    回复

    使用道具 举报

  • TA的每日心情
    开心
    7 天前
  • 签到天数: 14 天

    [LV.3]偶尔看看II

    发表于 2019-3-7 00:04:23 | 显示全部楼层
    谢谢分享啊啊
    开通VIP免费下载本站所有资源---点这里
    新手必看:资源下载、资源播放、字幕使用、等常见问题---点这里
    回复 支持 0 反对 1

    使用道具 举报

  • TA的每日心情
    无聊
    2019-3-6 22:50
  • 签到天数: 2 天

    [LV.1]初来乍到

    发表于 2019-3-6 22:51:23 | 显示全部楼层
    老谋子的电影!多谢分享
    [发帖际遇]: wwxa 乐于助人,奖励 2 蓝光币. 幸运榜 / 衰神榜
    开通VIP免费下载本站所有资源---点这里
    新手必看:资源下载、资源播放、字幕使用、等常见问题---点这里
    回复 支持 反对

    使用道具 举报

  • TA的每日心情
    无聊
    2019-3-6 23:05
  • 签到天数: 1 天

    [LV.1]初来乍到

    发表于 2019-3-6 23:07:00 | 显示全部楼层
    终于出了,期盼已久!
    开通VIP免费下载本站所有资源---点这里
    新手必看:资源下载、资源播放、字幕使用、等常见问题---点这里
    回复 支持 反对

    使用道具 举报

  • TA的每日心情
    开心
    昨天 00:03
  • 签到天数: 24 天

    [LV.4]偶尔看看III

    发表于 2019-3-7 00:41:32 | 显示全部楼层
    摄影算是顶尖的电影,求720P版
    开通VIP免费下载本站所有资源---点这里
    新手必看:资源下载、资源播放、字幕使用、等常见问题---点这里
    回复 支持 反对

    使用道具 举报

  • TA的每日心情

    2019-3-7 03:03
  • 签到天数: 1 天

    [LV.1]初来乍到

     成长值: 120

    发表于 2019-3-7 03:02:44 | 显示全部楼层
    感谢楼主发布精彩电影!
    开通VIP免费下载本站所有资源---点这里
    新手必看:资源下载、资源播放、字幕使用、等常见问题---点这里
    回复 支持 反对

    使用道具 举报

    该用户从未签到

    发表于 2019-3-7 08:07:26 | 显示全部楼层
    老谋子的电影!
    [发帖际遇]: netdolphin 乐于助人,奖励 2 蓝光币. 幸运榜 / 衰神榜
    开通VIP免费下载本站所有资源---点这里
    新手必看:资源下载、资源播放、字幕使用、等常见问题---点这里
    回复 支持 反对

    使用道具 举报

  • TA的每日心情
    郁闷
    昨天 09:34
  • 签到天数: 14 天

    [LV.3]偶尔看看II

    发表于 2019-3-7 09:15:04 | 显示全部楼层

    老谋子的电影!多谢分享
    开通VIP免费下载本站所有资源---点这里
    新手必看:资源下载、资源播放、字幕使用、等常见问题---点这里
    回复 支持 反对

    使用道具 举报

    该用户从未签到

    发表于 2019-3-7 10:51:58 | 显示全部楼层
    感谢楼主发布精彩电影!
    [发帖际遇]: xsen1979 发帖时在路边捡到 2 蓝光币,偷偷放进了口袋. 幸运榜 / 衰神榜
    开通VIP免费下载本站所有资源---点这里
    新手必看:资源下载、资源播放、字幕使用、等常见问题---点这里
    回复 支持 反对

    使用道具 举报

  • TA的每日心情
    郁闷
    前天 00:34
  • 签到天数: 7 天

    [LV.3]偶尔看看II

     成长值: 805

    发表于 2019-3-7 11:26:23 | 显示全部楼层

    谢谢分享
    开通VIP免费下载本站所有资源---点这里
    新手必看:资源下载、资源播放、字幕使用、等常见问题---点这里
    回复

    使用道具 举报

    *滑动验证:
    懒得打字嘛,点击右侧快捷回复 【右侧内容,后台自定义】
    您需要登录后才可以回帖 登录 | 立即加入

    本版积分规则

    现在加入蓝光电影网,注册一个账号

    QQ| 手机版|小黑屋| 蓝光电影网 |网站地图

    Copyright © 20013-2018 Comsenz Inc.  Template by 蓝光电影论坛 All Rights Reserved.

    Powered by 高清电影网 X3.4
    特别声明:本站所有资源均由网上收集而来,版权归原影音公司所有,如果侵犯了你的权益,请通知我们,我们会及时删除侵权内容.

    快速回复 返回顶部 返回列表