找回密码

蓝光电影网

查看: 8021|回复: 280

[动作] 影/荆州保卫战 Shadow.2018.1080p.BluRay.x264.DTS-HD.MA.5.1-MT 11.32GB

  [复制链接]

 成长值: 21340

发表于 2019-3-6 22:48:11 | 显示全部楼层 |阅读模式
影/荆州保卫战 Shadow.2018.1080p.BluRay.x264.DTS-HD.MA.5.1-MT 11.32GB-1.jpg
译  名 Shadow / 三国·荆州 / 荆州保卫战
片  名 影
年  代 2018
产  地 中国大陆 / 香港
类  别 剧情 / 行动 / 武侠 / 古装
语  言 汉语普通话
上映日期 2018-09-06(威尼斯电影节) / 2018-09-30(中国大陆)
IMDb评分 7.1/10 from 1661 users
IMDb链接 http://www.imdb.com/title/tt6864046
豆瓣评分 7.2/10 from 364076 users
豆瓣链接 https://movie.douban.com/subject/4864908/
片  长 116分钟
导  演 张艺谋 Yimou Zhang
编  剧 李威 Wei Li / 张艺谋 Yimou Zhang
主  演 邓超 Chao Deng
      孙俪 Li Sun
      郑恺 Kai Zheng
      王千源 Qianyuan Wang
      王景春 Jingchun Wang
      胡军 Jun Hu
      关晓彤 Xiaotong Guan
      吴磊 Lei Wu
      封柏 Bai Feng



简  介

  缭乱时势,群敌环伺。一个从小被奥秘软禁的替人,不甘只做他人手中的兵器;但若想打破桎梏,找回自我,又势必历经千难万险的考验;替人能否寻回自在,他又该若何挑选?


获奖情况

  第55届台北金马影展(2018)
  金马奖 最好剧情片(提名)
  金马奖 最好导演 张艺谋
  金马奖 最好男配角(提名) 邓超
  金马奖 最好女配角(提名) 孙俪
  金马奖 最好改编剧本(提名) 李威 / 张艺谋
  金马奖 最好摄影(提名) 赵小丁
  金马奖 最好美术设想 马名誉
  金马奖 最好外型设想 陈敏正
  金马奖 最好行动设想(提名) 谷轩昭
  金马奖 最好原创配乐(提名) 捞仔
  金马奖 最好音效(提名) 赵楠 / 杨江
  金马奖 最好视觉结果 王星会

  第13届亚洲电影大奖(2019)
  最好摄影(提名)
  最好剪接(提名)
  最好原创音乐(提名)
  最好美术指导(提名)
  最好外型设想(提名)
  最好声响(提名)


  1. Video
  2. ID : 1
  3. Format : AVC
  4. Format/Info : Advanced Video Codec
  5. Format profile : [email protected]
  6. Format settings : CABAC / 5 Ref Frames
  7. Format settings, CABAC : Yes
  8. Format settings, ReFrames : 5 frames
  9. Codec ID : V_MPEG4/ISO/AVC
  10. Duration : 1 h 55 min
  11. Bit rate : 10.2 Mb/s
  12. Width : 1 920 pixels
  13. Height : 808 pixels
  14. Display aspect ratio : 2.40:1
  15. Frame rate mode : Constant
  16. Frame rate : 24.000 FPS
  17. Color space : YUV
  18. Chroma subsampling : 4:2:0
  19. Bit depth : 8 bits
  20. Scan type : Progressive
  21. Bits/(Pixel*Frame) : 0.274
  22. Stream size : 8.24 GiB (73%)
  23. Writing library : x264 core 157 r2938 2b00a84 [email protected] Mod
  24. Encoding settings : cabac=1 / ref=5 / deblock=1:-3:-3 / analyse=0x3:0x133 / me=umh / subme=10 / psy=1 / psy_rd=1.05:0.00 / mixed_ref=1 / me_range=32 / chroma_me=1 / trellis=2 / 8x8dct=1 / cqm=0 / deadzone=21,11 / fast_pskip=0 / chroma_qp_offset=-2 / threads=12 / lookahead_threads=2 / sliced_threads=0 / nr=0 / decimate=0 / interlaced=0 / bluray_compat=0 / constrained_intra=0 / bframes=8 / b_pyramid=2 / b_adapt=2 / b_bias=0 / direct=3 / weightb=1 / open_gop=0 / weightp=2 / keyint=250 / keyint_min=24 / scenecut=40 / intra_refresh=0 / rc_lookahead=250 / rc=crf / mbtree=0 / crf=16.0 / qcomp=0.60 / qpmin=0 / qpmax=69 / qpstep=4 / vbv_maxrate=62500 / vbv_bufsize=78125 / crf_max=0.0 / nal_hrd=none / filler=0 / ip_ratio=1.30 / pb_ratio=1.20 / aq=3:0.80
  25. Language : Chinese
  26. Default : Yes
  27. Forced : No
  28. Color range : Limited
  29. Color primaries : BT.709
  30. Matrix coefficients : BT.709

  31. Audio
  32. ID : 2
  33. Format : DTS XLL
  34. Format/Info : Digital Theater Systems
  35. Commercial name : DTS-HD Master Audio
  36. Codec ID : A_DTS
  37. Duration : 1 h 55 min
  38. Bit rate mode : Variable
  39. Bit rate : 3 795 kb/s
  40. Channel(s) : 6 channels
  41. Channel layout : C L R Ls Rs LFE
  42. Sampling rate : 48.0 kHz
  43. Frame rate : 93.750 FPS (512 SPF)
  44. Bit depth : 24 bits
  45. Compression mode : Lossless
  46. Stream size : 3.07 GiB (27%)
  47. Language : Chinese
  48. Default : Yes
  49. Forced : No

  50. Text #1
  51. ID : 3
  52. Format : UTF-8
  53. Codec ID : S_TEXT/UTF8
  54. Codec ID/Info : UTF-8 Plain Text
  55. Duration : 1 h 44 min
  56. Bit rate : 28 b/s
  57. Count of elements : 1072
  58. Stream size : 21.7 KiB (0%)
  59. Title : English-SRT
  60. Language : English
  61. Default : Yes
  62. Forced : Yes

  63. Text #2
  64. ID : 4
  65. Format : PGS
  66. Muxing mode : zlib
  67. Codec ID : S_HDMV/PGS
  68. Codec ID/Info : Picture based subtitle format used on BDs/HD-DVDs
  69. Duration : 1 h 44 min
  70. Bit rate : 19.9 kb/s
  71. Count of elements : 1910
  72. Stream size : 14.9 MiB (0%)
  73. Title : English-PGS
  74. Language : English
  75. Default : No
  76. Forced : No

  77. Menu
  78. 00:00:00.000 : en:Chapter 01
  79. 00:12:27.250 : en:Chapter 02
  80. 00:19:40.958 : en:Chapter 03
  81. 00:30:19.875 : en:Chapter 04
  82. 00:41:09.958 : en:Chapter 05
  83. 00:48:45.125 : en:Chapter 06
  84. 00:54:49.875 : en:Chapter 07
  85. 01:02:35.125 : en:Chapter 08
  86. 01:10:27.083 : en:Chapter 09
  87. 01:20:40.208 : en:Chapter 10
  88. 01:28:10.250 : en:Chapter 11
  89. 01:38:00.333 : en:Chapter 12
复制代码

复制代码



影/荆州保卫战 Shadow.2018.1080p.BluRay.x264.DTS-HD.MA.5.1-MT 11.32GB-2.jpg 影/荆州保卫战 Shadow.2018.1080p.BluRay.x264.DTS-HD.MA.5.1-MT 11.32GB-3.jpg






开通VIP免费下载本站所有资源---点这里
新手必看:资源下载、资源播放、字幕使用、等常见问题---点这里
回复

使用道具 举报

发表于 2019-3-7 00:04:23 | 显示全部楼层
谢谢分享啊啊
开通VIP免费下载本站所有资源---点这里
新手必看:资源下载、资源播放、字幕使用、等常见问题---点这里
回复 支持 0 反对 1

使用道具 举报

发表于 2019-3-6 22:51:23 | 显示全部楼层
老谋子的电影!多谢分享
开通VIP免费下载本站所有资源---点这里
新手必看:资源下载、资源播放、字幕使用、等常见问题---点这里
回复 支持 反对

使用道具 举报

 成长值: 805

发表于 2019-3-6 23:07:00 | 显示全部楼层
终于出了,期盼已久!
开通VIP免费下载本站所有资源---点这里
新手必看:资源下载、资源播放、字幕使用、等常见问题---点这里
回复 支持 反对

使用道具 举报

发表于 2019-3-7 00:41:32 | 显示全部楼层
摄影算是顶尖的电影,求720P版
开通VIP免费下载本站所有资源---点这里
新手必看:资源下载、资源播放、字幕使用、等常见问题---点这里
回复 支持 反对

使用道具 举报

 成长值: 1490

发表于 2019-3-7 03:02:44 | 显示全部楼层
感谢楼主发布精彩电影!
开通VIP免费下载本站所有资源---点这里
新手必看:资源下载、资源播放、字幕使用、等常见问题---点这里
回复 支持 反对

使用道具 举报

发表于 2019-3-7 08:07:26 | 显示全部楼层
老谋子的电影!
开通VIP免费下载本站所有资源---点这里
新手必看:资源下载、资源播放、字幕使用、等常见问题---点这里
回复 支持 反对

使用道具 举报

发表于 2019-3-7 09:15:04 | 显示全部楼层

老谋子的电影!多谢分享
开通VIP免费下载本站所有资源---点这里
新手必看:资源下载、资源播放、字幕使用、等常见问题---点这里
回复 支持 反对

使用道具 举报

发表于 2019-3-7 10:51:58 | 显示全部楼层
感谢楼主发布精彩电影!
开通VIP免费下载本站所有资源---点这里
新手必看:资源下载、资源播放、字幕使用、等常见问题---点这里
回复 支持 反对

使用道具 举报

 成长值: 2185

发表于 2019-3-7 11:26:23 | 显示全部楼层

谢谢分享
开通VIP免费下载本站所有资源---点这里
新手必看:资源下载、资源播放、字幕使用、等常见问题---点这里
回复

使用道具 举报

懒得打字嘛,点击右侧快捷回复 【右侧内容,后台自定义】
您需要登录后才可以回帖 登录 | 立即加入

本版积分规则

现在加入蓝光电影网,注册一个账号

QQ| 手机版|小黑屋| 蓝光电影网 |网站地图

Copyright © 2015-2019 Comsenz Inc.  Template by 蓝光电影网 All Rights Reserved.

Powered by 蓝光电影网 X3.4

特别声明:本站所有资源均由网上收集而来,版权归原影音公司所有,如果侵犯了你的权益,请通知我们,我们会及时删除侵权内容.

快速回复 返回顶部 返回列表