找回密码

蓝光电影网

查看: 10749|回复: 159

猴子王国/猕猴王国 Monkey.Kingdom.2015.1080p.BluRay.x264-DRONES 6.56GB

  [复制链接]

 成长值: 21925

发表于 2018-5-10 22:11:58 | 显示全部楼层 |阅读模式
猴子王国/猕猴王国 Monkey.Kingdom.2015.1080p.BluRay.x264-DRONES 6.56GB-1.jpg
◎译  名 猴子王国/猕猴王国
◎片  名 Monkey Kingdom
◎年  代 2015
◎产  地 美国
◎类  别 纪录片
◎语  言 英语
◎上映日期 2015-04-17(美国)
◎IMDb评分  7.3/10 from 3,166 users
◎IMDb链接  http://www.imdb.com/title/tt3660770/
◎豆瓣评分 8.5/10 from 2,162 users
◎豆瓣链接 https://movie.douban.com/subject/25865526/
◎片  长 81分钟
◎导  演 马克·林菲尔德 Mark Linfield / 艾雷斯泰·法瑟吉尔 Alastair Fothergill
◎主  演 蒂娜·菲 Tina Fey

◎简  介

  本片为自然纪录片,纪录了新生的小猴子基普和它的母亲玛雅,如何在竞争激烈的社会阶级中生存下来。
  玛雅是一只兰卡猕猴,她的生活因儿子基普的出生而改变。玛雅希望她的儿子在族群中处于较高的社会阶层。当他们的家被临近部落的猴子所占据时,他们的族群需要找到一个新家。玛雅用她与生俱来的智慧带领族群来到一个新据点,再使整个族群联合起来收回自己原来的家园。


  1. Video
  2. ID                                       : 1
  3. Format                                   : AVC
  4. Format/Info                              : Advanced Video Codec
  5. Format profile                           : [email protected]
  6. Format settings, CABAC                   : Yes
  7. Format settings, ReFrames                : 4 frames
  8. Codec ID                                 : V_MPEG4/ISO/AVC
  9. Duration                                 : 1h 20mn
  10. Bit rate                                 : 10.1 Mbps
  11. Width                                    : 1 920 pixels
  12. Height                                   : 1 040 pixels
  13. Display aspect ratio                     : 1.85:1
  14. Frame rate mode                          : Constant
  15. Frame rate                               : 23.976 fps
  16. Color space                              : YUV
  17. Chroma subsampling                       : 4:2:0
  18. Bit depth                                : 8 bits
  19. Scan type                                : Progressive
  20. Bits/(Pixel*Frame)                       : 0.211
  21. Stream size                              : 5.57 GiB (85%)
  22. Writing library                          : x264 core 148 r2579 73ae2d1
  23. Encoding settings                        : cabac=1 / ref=4 / deblock=1:0:0 / analyse=0x3:0x133 / me=umh / subme=7 / psy=1 / psy_rd=1.00:0.00 / mixed_ref=1 / me_range=16 / chroma_me=1 / trellis=1 / 8x8dct=1 / cqm=0 / deadzone=21,11 / fast_pskip=0 / chroma_qp_offset=-2 / threads=18 / lookahead_threads=3 / sliced_threads=0 / nr=0 / decimate=1 / interlaced=0 / bluray_compat=0 / constrained_intra=0 / bframes=3 / b_pyramid=2 / b_adapt=1 / b_bias=0 / direct=1 / weightb=1 / open_gop=0 / weightp=2 / keyint=250 / keyint_min=23 / scenecut=40 / intra_refresh=0 / rc_lookahead=40 / rc=2pass / mbtree=1 / bitrate=10113 / ratetol=1.0 / qcomp=0.60 / qpmin=0 / qpmax=69 / qpstep=4 / cplxblur=20.0 / qblur=0.5 / ip_ratio=1.40 / aq=1:1.00
  24. Language                                 : English
  25. Default                                  : Yes
  26. Forced                                   : No

  27. Audio
  28. ID                                       : 2
  29. Format                                   : DTS
  30. Format/Info                              : Digital Theater Systems
  31. Mode                                     : 16
  32. Format settings, Endianness              : Big
  33. Codec ID                                 : A_DTS
  34. Duration                                 : 1h 20mn
  35. Bit rate mode                            : Constant
  36. Bit rate                                 : 1 509 Kbps
  37. Channel(s)                               : 6 channels
  38. Channel positions                        : Front: L C R, Side: L R, LFE
  39. Sampling rate                            : 48.0 KHz
  40. Bit depth                                : 24 bits
  41. Compression mode                         : Lossy
  42. Stream size                              : 873 MiB (13%)
  43. Language                                 : English
  44. Default                                  : Yes
  45. Forced                                   : No

  46. Menu
  47. 00:00:00.000                             : en:00:00:00.000
  48. 00:06:52.037                             : en:00:06:52.037
  49. 00:09:31.946                             : en:00:09:31.946
  50. 00:16:18.060                             : en:00:16:18.060
  51. 00:24:23.003                             : en:00:24:23.003
  52. 00:29:45.701                             : en:00:29:45.701
  53. 00:31:50.826                             : en:00:31:50.826
  54. 00:37:37.589                             : en:00:37:37.589
  55. 00:41:30.154                             : en:00:41:30.154
  56. 00:46:28.953                             : en:00:46:28.953
  57. 00:50:51.548                             : en:00:50:51.548
  58. 00:55:42.422                             : en:00:55:42.422
  59. 01:06:12.552                             : en:01:06:12.552
  60. 01:16:21.827                             : en:01:16:21.827


复制代码
复制代码
猴子王国/猕猴王国 Monkey.Kingdom.2015.1080p.BluRay.x264-DRONES 6.56GB-2.jpg





开通VIP免费下载本站所有资源---点这里
新手必看:资源下载、资源播放、字幕使用、等常见问题---点这里
回复

使用道具 举报

发表于 2018-5-11 05:54:38 | 显示全部楼层
顶!!!!!!!!!!!!!!!
开通VIP免费下载本站所有资源---点这里
新手必看:资源下载、资源播放、字幕使用、等常见问题---点这里
回复

使用道具 举报

发表于 2018-5-11 11:29:00 | 显示全部楼层
谢谢楼主分享
开通VIP免费下载本站所有资源---点这里
新手必看:资源下载、资源播放、字幕使用、等常见问题---点这里
回复 支持 反对

使用道具 举报

发表于 2018-5-11 15:54:42 | 显示全部楼层
看到这帖子真是高兴!
开通VIP免费下载本站所有资源---点这里
新手必看:资源下载、资源播放、字幕使用、等常见问题---点这里
回复 支持 反对

使用道具 举报

发表于 2018-5-13 08:45:59 | 显示全部楼层
真是难得给力的帖子啊。
开通VIP免费下载本站所有资源---点这里
新手必看:资源下载、资源播放、字幕使用、等常见问题---点这里
回复 支持 反对

使用道具 举报

发表于 2018-5-13 13:50:23 | 显示全部楼层
豆瓣评分比国外高那么多,真是……
开通VIP免费下载本站所有资源---点这里
新手必看:资源下载、资源播放、字幕使用、等常见问题---点这里
回复 支持 反对

使用道具 举报

发表于 2018-5-13 22:25:56 | 显示全部楼层
沙发沙发斯蒂芬斯蒂芬
开通VIP免费下载本站所有资源---点这里
新手必看:资源下载、资源播放、字幕使用、等常见问题---点这里
回复 支持 反对

使用道具 举报

发表于 2018-5-15 15:03:21 | 显示全部楼层
好电影要支持,谢谢、
开通VIP免费下载本站所有资源---点这里
新手必看:资源下载、资源播放、字幕使用、等常见问题---点这里
回复 支持 反对

使用道具 举报

已抛锚 成长值: 250

发表于 2018-5-15 20:04:14 | 显示全部楼层
强烈支持楼主ing……
开通VIP免费下载本站所有资源---点这里
新手必看:资源下载、资源播放、字幕使用、等常见问题---点这里
回复 支持 反对

使用道具 举报

发表于 2018-5-16 12:22:22 | 显示全部楼层
强烈支持楼主ing……
开通VIP免费下载本站所有资源---点这里
新手必看:资源下载、资源播放、字幕使用、等常见问题---点这里
回复 支持 反对

使用道具 举报

懒得打字嘛,点击右侧快捷回复 【右侧内容,后台自定义】
您需要登录后才可以回帖 登录 | 立即加入

本版积分规则

现在加入蓝光电影网,注册一个账号

QQ| 手机版|小黑屋| 蓝光电影网 |网站地图

Copyright © 2015-2019 Comsenz Inc.  Template by 蓝光电影网 All Rights Reserved.

Powered by 蓝光电影网 X3.4

特别声明:本站所有资源均由网上收集而来,版权归原影音公司所有,如果侵犯了你的权益,请通知我们,我们会及时删除侵权内容.

快速回复 返回顶部 返回列表