找回密码

蓝光电影网

查看: 1421|回复: 34

比得兔/彼得兔 Peter.Rabbit.2018.2160p.BluRay.REMUX.HEVC.DTS-HD.MA.TrueHD.7.1.Atmos-FGT 44.10GB

[复制链接]
  • TA的每日心情
    开心
    7 小时前
  • 签到天数: 61 天

    [LV.6]常住居民II

     成长值: 18685

    发表于 2018-5-4 19:37:01 | 显示全部楼层 |阅读模式

    马上注册,获取最新影视资讯,享用更多功能,让你轻松玩转蓝光电影网。

    您需要 登录 才可以下载或查看,没有帐号?立即加入

    x
    040514jdgppa3c6ghcip4j.jpg
    ◎译  名 比得兔/彼得兔
    ◎片  名 Peter Rabbit
    ◎年  代 2018
    ◎产  地 美国/英国/澳大利亚
    ◎类  别 喜剧/动画/冒险
    ◎语  言 英语
    ◎上映日期 2018-02-09(美国)/2018-03-02(中国大陆)
    ◎IMDb评分  6.6/10 from 11,040 users
    ◎IMDb链接  http://www.imdb.com/title/tt5117670/
    ◎豆瓣评分 7.3/10 from 29,837 users
    ◎豆瓣链接 https://movie.douban.com/subject/26649604/
    ◎片  长 95分钟
    ◎导  演 威尔·古勒 Will Gluck
    ◎主  演 詹姆斯·柯登 James Corden
          多姆纳尔·格里森 Domhnall Gleeson
          萝丝·拜恩 Rose Byrne
          伊丽莎白·德比茨基 Elizabeth Debicki
          玛格特·罗比 Margot Robbie
          黛西·雷德利 Daisy Ridley
          科林·穆迪 Colin Moody
          山姆·尼尔 Sam Neill
          希雅 Sia
          伊文·莱斯利 Ewen Leslie
          费萨尔·巴齐 Fayssal Bazzi
          克里斯蒂安·加扎尔 Christian Gazal
          玛丽安娜·琼-巴普蒂斯特 Marianne Jean-Baptiste
          加雷斯·戴维斯 Gareth Davies
          山姆·哈夫特 Sam Haft
          萨莎·霍勒 Sacha Horler
          娜塔丽·朱 Natalie Dew
          特伦尼娅·爱德华兹 Terenia Edwards
          费利克斯·威廉森 Felix Williamson
          许明珠 Ming-Zhu Hii
          布莱恩·布朗 Bryan Brown
          雷切尔·沃德 Rachel Ward
          大卫·文翰 David Wenham
          威尔·赖歇尔特 Will Reichelt

    ◎简  介

      电影《比得兔》是一部由英国百年经典IP改编的真人动画电影,影片讲述了田园冒险大王“比得兔”(詹姆斯·柯登 James Corden 配音)带领一众伙伴,与麦格雷戈(多姆纳尔·格里森 Domhnall Gleeson 饰)叔侄二人,为争夺菜园主权和隔壁美丽女主人贝伊(萝丝·拜恩 Rose Byrne 饰)的喜爱而斗智斗勇、各显神通的爆笑故事。随着人兔大战不断升级,一系列欢乐闹趣、令人捧腹、啼笑皆非的趣事也由此引发。
    • Video
    • ID                                       : 1
    • Format                                   : HEVC
    • Format/Info                              : High Efficiency Video Coding
    • Format profile                           : Main 10@L5.1@High
    • Codec ID                                 : V_MPEGH/ISO/HEVC
    • Duration                                 : 1 h 34 min
    • Bit rate                                 : 50.2 Mb/s
    • Width                                    : 3 840 pixels
    • Height                                   : 2 160 pixels
    • Display aspect ratio                     : 16:9
    • Frame rate mode                          : Constant
    • Frame rate                               : 23.976 (24000/1001) FPS
    • Color space                              : YUV
    • Chroma subsampling                       : 4:2:0 (Type 2)
    • Bit depth                                : 10 bits
    • Bits/(Pixel*Frame)                       : 0.252
    • Stream size                              : 33.2 GiB (75%)
    • Title                                    : Peter.Rabbit.2018.2160p.BluRay.REMUX.HEVC.DTS-HD.MA.TrueHD.7.1.Atmos-FGT
    • Default                                  : Yes
    • Forced                                   : No
    • Color range                              : Limited
    • Color primaries                          : BT.2020
    • Transfer characteristics                 : PQ
    • Matrix coefficients                      : BT.2020 non-constant
    • Mastering display color primaries        : Display P3
    • Mastering display luminance              : min: 0.0050 cd/m2, max: 4000 cd/m2
    • Maximum Content Light Level              : 3991 cd/m2
    • Maximum Frame-Average Light Level        : 240 cd/m2
    • Audio #1
    • ID                                       : 2
    • Format                                   : TrueHD
    • Format profile                           : TrueHD+Atmos / TrueHD
    • Codec ID                                 : A_TRUEHD
    • Duration                                 : 1 h 34 min
    • Bit rate mode                            : Variable
    • Bit rate                                 : 4 603 kb/s
    • Maximum bit rate                         : 8 133 kb/s
    • Channel(s)                               : Object Based / 8 channels
    • Channel positions                        : Object Based / Front: L C R, Side: L R, Back: L R, LFE
    • Sampling rate                            :  / 48.0 kHz
    • Frame rate                               : 1 200.000 FPS (40 SPF)
    • Compression mode                         : Lossless
    • Stream size                              : 3.05 GiB (7%)
    • Title                                    : Peter.Rabbit.2018.2160p.BluRay.REMUX.HEVC.DTS-HD.MA.TrueHD.7.1.Atmos-FGT
    • Language                                 : English
    • Default                                  : Yes
    • Forced                                   : No
    • Audio #2
    • ID                                       : 3
    • Format                                   : DTS
    • Format/Info                              : Digital Theater Systems
    • Format profile                           : MA / Core
    • Codec ID                                 : A_DTS
    • Duration                                 : 1 h 34 min
    • Bit rate mode                            : Variable / Constant
    • Bit rate                                 : 3 840 kb/s / 1 509 kb/s
    • Channel(s)                               : 8 channels / 6 channels
    • Channel positions                        : Front: L C R, Side: L R, Back: L R, LFE / Front: L C R, Side: L R, LFE
    • Sampling rate                            : 48.0 kHz
    • Frame rate                               : 93.750 FPS (512 SPF)
    • Bit depth                                : 24 bits
    • Compression mode                         : Lossless / Lossy
    • Stream size                              : 2.56 GiB (6%)
    • Title                                    : Peter.Rabbit.2018.2160p.BluRay.REMUX.HEVC.DTS-HD.MA.TrueHD.7.1.Atmos-FGT
    • Language                                 : English
    • Default                                  : No
    • Forced                                   : No
    • Audio #3
    • ID                                       : 4
    • Format                                   : AC-3
    • Format/Info                              : Audio Coding 3
    • Codec ID                                 : A_AC3
    • Duration                                 : 1 h 34 min
    • Bit rate mode                            : Constant
    • Bit rate                                 : 640 kb/s
    • Channel(s)                               : 6 channels
    • Channel positions                        : Front: L C R, Side: L R, LFE
    • Sampling rate                            : 48.0 kHz
    • Frame rate                               : 31.250 FPS (1536 SPF)
    • Bit depth                                : 16 bits
    • Compression mode                         : Lossy
    • Stream size                              : 434 MiB (1%)
    • Title                                    : Peter.Rabbit.2018.2160p.BluRay.REMUX.HEVC.DTS-HD.MA.TrueHD.7.1.Atmos-FGT
    • Language                                 : English
    • Service kind                             : Complete Main
    • Default                                  : No
    • Forced                                   : No
    • Audio #4
    • ID                                       : 5
    • Format                                   : AC-3
    • Format/Info                              : Audio Coding 3
    • Codec ID                                 : A_AC3
    • Duration                                 : 1 h 34 min
    • Bit rate mode                            : Constant
    • Bit rate                                 : 640 kb/s
    • Channel(s)                               : 6 channels
    • Channel positions                        : Front: L C R, Side: L R, LFE
    • Sampling rate                            : 48.0 kHz
    • Frame rate                               : 31.250 FPS (1536 SPF)
    • Bit depth                                : 16 bits
    • Compression mode                         : Lossy
    • Delay relative to video                  : 24 ms
    • Stream size                              : 434 MiB (1%)
    • Title                                    : Peter.Rabbit.2018.2160p.BluRay.REMUX.HEVC.DTS-HD.MA.TrueHD.7.1.Atmos-FGT
    • Language                                 : English
    • Service kind                             : Complete Main
    • Default                                  : No
    • Forced                                   : No
    • Audio #5
    • ID                                       : 6
    • Format                                   : AC-3
    • Format/Info                              : Audio Coding 3
    • Codec ID                                 : A_AC3
    • Duration                                 : 1 h 34 min
    • Bit rate mode                            : Constant
    • Bit rate                                 : 640 kb/s
    • Channel(s)                               : 6 channels
    • Channel positions                        : Front: L C R, Side: L R, LFE
    • Sampling rate                            : 48.0 kHz
    • Frame rate                               : 31.250 FPS (1536 SPF)
    • Bit depth                                : 16 bits
    • Compression mode                         : Lossy
    • Delay relative to video                  : 24 ms
    • Stream size                              : 434 MiB (1%)
    • Title                                    : Peter.Rabbit.2018.2160p.BluRay.REMUX.HEVC.DTS-HD.MA.TrueHD.7.1.Atmos-FGT
    • Language                                 : English
    • Service kind                             : Complete Main
    • Default                                  : No
    • Forced                                   : No
    • Audio #6
    • ID                                       : 7
    • Format                                   : AC-3
    • Format/Info                              : Audio Coding 3
    • Codec ID                                 : A_AC3
    • Duration                                 : 1 h 34 min
    • Bit rate mode                            : Constant
    • Bit rate                                 : 640 kb/s
    • Channel(s)                               : 6 channels
    • Channel positions                        : Front: L C R, Side: L R, LFE
    • Sampling rate                            : 48.0 kHz
    • Frame rate                               : 31.250 FPS (1536 SPF)
    • Bit depth                                : 16 bits
    • Compression mode                         : Lossy
    • Delay relative to video                  : 24 ms
    • Stream size                              : 434 MiB (1%)
    • Title                                    : Peter.Rabbit.2018.2160p.BluRay.REMUX.HEVC.DTS-HD.MA.TrueHD.7.1.Atmos-FGT
    • Language                                 : Estonian
    • Service kind                             : Complete Main
    • Default                                  : No
    • Forced                                   : No
    • Audio #7
    • ID                                       : 8
    • Format                                   : AC-3
    • Format/Info                              : Audio Coding 3
    • Codec ID                                 : A_AC3
    • Duration                                 : 1 h 34 min
    • Bit rate mode                            : Constant
    • Bit rate                                 : 640 kb/s
    • Channel(s)                               : 6 channels
    • Channel positions                        : Front: L C R, Side: L R, LFE
    • Sampling rate                            : 48.0 kHz
    • Frame rate                               : 31.250 FPS (1536 SPF)
    • Bit depth                                : 16 bits
    • Compression mode                         : Lossy
    • Delay relative to video                  : 24 ms
    • Stream size                              : 434 MiB (1%)
    • Title                                    : Peter.Rabbit.2018.2160p.BluRay.REMUX.HEVC.DTS-HD.MA.TrueHD.7.1.Atmos-FGT
    • Language                                 : French
    • Service kind                             : Complete Main
    • Default                                  : No
    • Forced                                   : No
    • Audio #8
    • ID                                       : 9
    • Format                                   : AC-3
    • Format/Info                              : Audio Coding 3
    • Codec ID                                 : A_AC3
    • Duration                                 : 1 h 34 min
    • Bit rate mode                            : Constant
    • Bit rate                                 : 640 kb/s
    • Channel(s)                               : 6 channels
    • Channel positions                        : Front: L C R, Side: L R, LFE
    • Sampling rate                            : 48.0 kHz
    • Frame rate                               : 31.250 FPS (1536 SPF)
    • Bit depth                                : 16 bits
    • Compression mode                         : Lossy
    • Delay relative to video                  : 24 ms
    • Stream size                              : 434 MiB (1%)
    • Title                                    : Peter.Rabbit.2018.2160p.BluRay.REMUX.HEVC.DTS-HD.MA.TrueHD.7.1.Atmos-FGT
    • Language                                 : French
    • Service kind                             : Complete Main
    • Default                                  : No
    • Forced                                   : No
    • Audio #9
    • ID                                       : 10
    • Format                                   : AC-3
    • Format/Info                              : Audio Coding 3
    • Codec ID                                 : A_AC3
    • Duration                                 : 1 h 34 min
    • Bit rate mode                            : Constant
    • Bit rate                                 : 640 kb/s
    • Channel(s)                               : 6 channels
    • Channel positions                        : Front: L C R, Side: L R, LFE
    • Sampling rate                            : 48.0 kHz
    • Frame rate                               : 31.250 FPS (1536 SPF)
    • Bit depth                                : 16 bits
    • Compression mode                         : Lossy
    • Delay relative to video                  : 24 ms
    • Stream size                              : 434 MiB (1%)
    • Title                                    : Peter.Rabbit.2018.2160p.BluRay.REMUX.HEVC.DTS-HD.MA.TrueHD.7.1.Atmos-FGT
    • Language                                 : Latvian
    • Service kind                             : Complete Main
    • Default                                  : No
    • Forced                                   : No
    • Audio #10
    • ID                                       : 11
    • Format                                   : AC-3
    • Format/Info                              : Audio Coding 3
    • Codec ID                                 : A_AC3
    • Duration                                 : 1 h 34 min
    • Bit rate mode                            : Constant
    • Bit rate                                 : 640 kb/s
    • Channel(s)                               : 6 channels
    • Channel positions                        : Front: L C R, Side: L R, LFE
    • Sampling rate                            : 48.0 kHz
    • Frame rate                               : 31.250 FPS (1536 SPF)
    • Bit depth                                : 16 bits
    • Compression mode                         : Lossy
    • Delay relative to video                  : 24 ms
    • Stream size                              : 434 MiB (1%)
    • Title                                    : Peter.Rabbit.2018.2160p.BluRay.REMUX.HEVC.DTS-HD.MA.TrueHD.7.1.Atmos-FGT
    • Language                                 : Lithuanian
    • Service kind                             : Complete Main
    • Default                                  : No
    • Forced                                   : No
    • Audio #11
    • ID                                       : 12
    • Format                                   : AC-3
    • Format/Info                              : Audio Coding 3
    • Codec ID                                 : A_AC3
    • Duration                                 : 1 h 34 min
    • Bit rate mode                            : Constant
    • Bit rate                                 : 640 kb/s
    • Channel(s)                               : 6 channels
    • Channel positions                        : Front: L C R, Side: L R, LFE
    • Sampling rate                            : 48.0 kHz
    • Frame rate                               : 31.250 FPS (1536 SPF)
    • Bit depth                                : 16 bits
    • Compression mode                         : Lossy
    • Delay relative to video                  : 24 ms
    • Stream size                              : 434 MiB (1%)
    • Title                                    : Peter.Rabbit.2018.2160p.BluRay.REMUX.HEVC.DTS-HD.MA.TrueHD.7.1.Atmos-FGT
    • Language                                 : Portuguese
    • Service kind                             : Complete Main
    • Default                                  : No
    • Forced                                   : No
    • Audio #12
    • ID                                       : 13
    • Format                                   : AC-3
    • Format/Info                              : Audio Coding 3
    • Codec ID                                 : A_AC3
    • Duration                                 : 1 h 34 min
    • Bit rate mode                            : Constant
    • Bit rate                                 : 640 kb/s
    • Channel(s)                               : 6 channels
    • Channel positions                        : Front: L C R, Side: L R, LFE
    • Sampling rate                            : 48.0 kHz
    • Frame rate                               : 31.250 FPS (1536 SPF)
    • Bit depth                                : 16 bits
    • Compression mode                         : Lossy
    • Delay relative to video                  : 24 ms
    • Stream size                              : 434 MiB (1%)
    • Title                                    : Peter.Rabbit.2018.2160p.BluRay.REMUX.HEVC.DTS-HD.MA.TrueHD.7.1.Atmos-FGT
    • Language                                 : Russian
    • Service kind                             : Complete Main
    • Default                                  : No
    • Forced                                   : No
    • Audio #13
    • ID                                       : 14
    • Format                                   : AC-3
    • Format/Info                              : Audio Coding 3
    • Codec ID                                 : A_AC3
    • Duration                                 : 1 h 34 min
    • Bit rate mode                            : Constant
    • Bit rate                                 : 640 kb/s
    • Channel(s)                               : 6 channels
    • Channel positions                        : Front: L C R, Side: L R, LFE
    • Sampling rate                            : 48.0 kHz
    • Frame rate                               : 31.250 FPS (1536 SPF)
    • Bit depth                                : 16 bits
    • Compression mode                         : Lossy
    • Delay relative to video                  : 24 ms
    • Stream size                              : 434 MiB (1%)
    • Title                                    : Peter.Rabbit.2018.2160p.BluRay.REMUX.HEVC.DTS-HD.MA.TrueHD.7.1.Atmos-FGT
    • Language                                 : Spanish
    • Service kind                             : Complete Main
    • Default                                  : No
    • Forced                                   : No
    • Audio #14
    • ID                                       : 15
    • Format                                   : AC-3
    • Format/Info                              : Audio Coding 3
    • Codec ID                                 : A_AC3
    • Duration                                 : 1 h 34 min
    • Bit rate mode                            : Constant
    • Bit rate                                 : 640 kb/s
    • Channel(s)                               : 6 channels
    • Channel positions                        : Front: L C R, Side: L R, LFE
    • Sampling rate                            : 48.0 kHz
    • Frame rate                               : 31.250 FPS (1536 SPF)
    • Bit depth                                : 16 bits
    • Compression mode                         : Lossy
    • Delay relative to video                  : 24 ms
    • Stream size                              : 434 MiB (1%)
    • Title                                    : Peter.Rabbit.2018.2160p.BluRay.REMUX.HEVC.DTS-HD.MA.TrueHD.7.1.Atmos-FGT
    • Language                                 : Ukrainian
    • Service kind                             : Complete Main
    • Default                                  : No
    • Forced                                   : No
    • Text #1
    • ID                                       : 16
    • Format                                   : PGS
    • Muxing mode                              : zlib
    • Codec ID                                 : S_HDMV/PGS
    • Codec ID/Info                            : Picture based subtitle format used on BDs/HD-DVDs
    • Duration                                 : 1 h 26 min
    • Bit rate                                 : 53.8 kb/s
    • Count of elements                        : 3082
    • Stream size                              : 33.1 MiB (0%)
    • Title                                    : English-PGS
    • Language                                 : English
    • Default                                  : Yes
    • Forced                                   : No
    • Text #2
    • ID                                       : 17
    • Format                                   : PGS
    • Muxing mode                              : zlib
    • Codec ID                                 : S_HDMV/PGS
    • Codec ID/Info                            : Picture based subtitle format used on BDs/HD-DVDs
    • Duration                                 : 1 h 33 min
    • Bit rate                                 : 62.7 kb/s
    • Count of elements                        : 3901
    • Stream size                              : 42.1 MiB (0%)
    • Title                                    : English-SDH-PGS
    • Language                                 : English
    • Default                                  : No
    • Forced                                   : No
    • Text #3
    • ID                                       : 18
    • Format                                   : PGS
    • Muxing mode                              : zlib
    • Codec ID                                 : S_HDMV/PGS
    • Codec ID/Info                            : Picture based subtitle format used on BDs/HD-DVDs
    • Duration                                 : 1 h 33 min
    • Bit rate                                 : 46.9 kb/s
    • Count of elements                        : 3102
    • Stream size                              : 31.5 MiB (0%)
    • Title                                    : Estonian-PGS
    • Language                                 : Estonian
    • Default                                  : No
    • Forced                                   : No
    • Text #4
    • ID                                       : 19
    • Format                                   : PGS
    • Muxing mode                              : zlib
    • Codec ID                                 : S_HDMV/PGS
    • Codec ID/Info                            : Picture based subtitle format used on BDs/HD-DVDs
    • Duration                                 : 1 h 33 min
    • Bit rate                                 : 44.1 kb/s
    • Count of elements                        : 2592
    • Stream size                              : 29.6 MiB (0%)
    • Title                                    : French-PGS
    • Language                                 : French
    • Default                                  : No
    • Forced                                   : No
    • Text #5
    • ID                                       : 20
    • Format                                   : PGS
    • Muxing mode                              : zlib
    • Codec ID                                 : S_HDMV/PGS
    • Codec ID/Info                            : Picture based subtitle format used on BDs/HD-DVDs
    • Duration                                 : 1 h 33 min
    • Bit rate                                 : 51.0 kb/s
    • Count of elements                        : 3114
    • Stream size                              : 34.2 MiB (0%)
    • Title                                    : Latvian-PGS
    • Language                                 : Latvian
    • Default                                  : No
    • Forced                                   : No
    • Text #6
    • ID                                       : 21
    • Format                                   : PGS
    • Muxing mode                              : zlib
    • Codec ID                                 : S_HDMV/PGS
    • Codec ID/Info                            : Picture based subtitle format used on BDs/HD-DVDs
    • Duration                                 : 1 h 33 min
    • Bit rate                                 : 47.5 kb/s
    • Count of elements                        : 3096
    • Stream size                              : 31.9 MiB (0%)
    • Title                                    : Lithuanian-PGS
    • Language                                 : Lithuanian
    • Default                                  : No
    • Forced                                   : No
    • Text #7
    • ID                                       : 22
    • Format                                   : PGS
    • Muxing mode                              : zlib
    • Codec ID                                 : S_HDMV/PGS
    • Codec ID/Info                            : Picture based subtitle format used on BDs/HD-DVDs
    • Duration                                 : 1 h 33 min
    • Bit rate                                 : 45.8 kb/s
    • Count of elements                        : 2476
    • Stream size                              : 30.8 MiB (0%)
    • Title                                    : Portuguese-PGS
    • Language                                 : Portuguese
    • Default                                  : No
    • Forced                                   : No
    • Text #8
    • ID                                       : 23
    • Format                                   : PGS
    • Muxing mode                              : zlib
    • Codec ID                                 : S_HDMV/PGS
    • Codec ID/Info                            : Picture based subtitle format used on BDs/HD-DVDs
    • Duration                                 : 1 h 33 min
    • Bit rate                                 : 50.7 kb/s
    • Count of elements                        : 3112
    • Stream size                              : 34.1 MiB (0%)
    • Title                                    : Russian-PGS
    • Language                                 : Russian
    • Default                                  : No
    • Forced                                   : No
    • Text #9
    • ID                                       : 24
    • Format                                   : PGS
    • Muxing mode                              : zlib
    • Codec ID                                 : S_HDMV/PGS
    • Codec ID/Info                            : Picture based subtitle format used on BDs/HD-DVDs
    • Duration                                 : 1 h 33 min
    • Bit rate                                 : 45.5 kb/s
    • Count of elements                        : 2512
    • Stream size                              : 30.5 MiB (0%)
    • Title                                    : Spanish-PGS
    • Language                                 : Spanish
    • Default                                  : No
    • Forced                                   : No
    • Text #10
    • ID                                       : 25
    • Format                                   : PGS
    • Muxing mode                              : zlib
    • Codec ID                                 : S_HDMV/PGS
    • Codec ID/Info                            : Picture based subtitle format used on BDs/HD-DVDs
    • Duration                                 : 1 h 33 min
    • Bit rate                                 : 47.5 kb/s
    • Count of elements                        : 3112
    • Stream size                              : 31.9 MiB (0%)
    • Title                                    : Ukranian-PGS
    • Language                                 : Ukrainian
    • Default                                  : No
    • Forced                                   : No
    • Menu
    • 00:00:00.000                             : en:Chapter 1
    • 00:04:04.786                             : en:Chapter 2
    • 00:08:26.297                             : en:Chapter 3
    • 00:15:11.702                             : en:Chapter 4
    • 00:21:00.634                             : en:Chapter 5
    • 00:25:43.583                             : en:Chapter 6
    • 00:30:50.265                             : en:Chapter 7
    • 00:38:00.861                             : en:Chapter 8
    • 00:44:37.341                             : en:Chapter 9
    • 00:50:07.671                             : en:Chapter 10
    • 00:56:21.294                             : en:Chapter 11
    • 01:01:07.580                             : en:Chapter 12
    • 01:07:02.560                             : en:Chapter 13
    • 01:10:30.809                             : en:Chapter 14
    • 01:14:35.137                             : en:Chapter 15
    • 01:21:51.990                             : en:Chapter 16

    复制代码
    040514i4zzfn2a259nj9js.jpg 040515arv8a888yz8ct1r2.jpg 040515tst0adk0ipne5na8.jpg





    Peter.Rabbit.2018.2160p.BluRay.REMUX.HEVC.DTS-HD.MA.TrueHD.7.1.Atmos-FGT.torrent (110.82 KB, 下载次数: 71)
    [发帖际遇]: 蓝光 发帖时在路边捡到 3 蓝光币,偷偷放进了口袋. 幸运榜 / 衰神榜
    开通VIP免费下载本站所有资源---点这里
    新手必看:资源下载、资源播放、字幕使用、等常见问题---点这里
    回复

    使用道具 举报

  • TA的每日心情
    开心
    昨天 23:02
  • 签到天数: 60 天

    [LV.6]常住居民II

    发表于 2018-5-5 00:09:45 | 显示全部楼层
    真是难得给力的帖子啊。
    [发帖际遇]: liq 发帖时在路边捡到 1 蓝光币,偷偷放进了口袋. 幸运榜 / 衰神榜
    开通VIP免费下载本站所有资源---点这里
    新手必看:资源下载、资源播放、字幕使用、等常见问题---点这里
    回复 支持 反对

    使用道具 举报

    该用户从未签到

    发表于 2018-5-5 07:16:04 | 显示全部楼层
    下载了看看,没以下载过
    开通VIP免费下载本站所有资源---点这里
    新手必看:资源下载、资源播放、字幕使用、等常见问题---点这里
    回复 支持 反对

    使用道具 举报

    该用户从未签到

    发表于 2018-5-5 07:17:06 | 显示全部楼层
    再发个帽子赚点币钱
    [发帖际遇]: 小青 发帖时在路边捡到 1 蓝光币,偷偷放进了口袋. 幸运榜 / 衰神榜
    开通VIP免费下载本站所有资源---点这里
    新手必看:资源下载、资源播放、字幕使用、等常见问题---点这里
    回复 支持 反对

    使用道具 举报

    该用户从未签到

    发表于 2018-5-5 10:56:48 | 显示全部楼层
    拜恩 Rose Byrne
          伊丽莎白·德比茨基 Elizabeth Debicki
          玛格特·罗比 Margot Robbie
          黛西·雷德利 Daisy Ridley
          科林·穆迪 Colin Moody
          山姆·尼尔 Sam Neill
    开通VIP免费下载本站所有资源---点这里
    新手必看:资源下载、资源播放、字幕使用、等常见问题---点这里
    回复 支持 反对

    使用道具 举报

    该用户从未签到

    发表于 2018-5-5 12:56:42 | 显示全部楼层
    谢谢LZ分享
    开通VIP免费下载本站所有资源---点这里
    新手必看:资源下载、资源播放、字幕使用、等常见问题---点这里
    回复 支持 反对

    使用道具 举报

    该用户从未签到

    发表于 2018-5-5 13:02:12 | 显示全部楼层
    我只是路过打酱油的。
    [发帖际遇]: chenhaoquan 乐于助人,奖励 1 蓝光币. 幸运榜 / 衰神榜
    开通VIP免费下载本站所有资源---点这里
    新手必看:资源下载、资源播放、字幕使用、等常见问题---点这里
    回复 支持 反对

    使用道具 举报

  • TA的每日心情
    擦汗
    昨天 12:38
  • 签到天数: 61 天

    [LV.6]常住居民II

    发表于 2018-5-5 13:17:22 | 显示全部楼层
    谢谢发片。
    开通VIP免费下载本站所有资源---点这里
    新手必看:资源下载、资源播放、字幕使用、等常见问题---点这里
    回复

    使用道具 举报

    该用户从未签到

    发表于 2018-5-5 13:39:54 | 显示全部楼层
    强烈支持楼主ing……1111111111111
    开通VIP免费下载本站所有资源---点这里
    新手必看:资源下载、资源播放、字幕使用、等常见问题---点这里
    回复 支持 反对

    使用道具 举报

    该用户从未签到

    发表于 2018-5-5 15:42:54 | 显示全部楼层
    真是难得给力的帖子啊。
    开通VIP免费下载本站所有资源---点这里
    新手必看:资源下载、资源播放、字幕使用、等常见问题---点这里
    回复 支持 反对

    使用道具 举报

    懒得打字嘛,点击右侧快捷回复 【右侧内容,后台自定义】
    您需要登录后才可以回帖 登录 | 立即加入

    本版积分规则

    现在加入蓝光电影网,注册一个账号

    QQ| 手机版|小黑屋| 蓝光电影网 |网站地图

    Copyright © 20013-2018 Comsenz Inc.  Template by 蓝光电影论坛 All Rights Reserved.

    Powered by 高清电影网 X3.4
    特别声明:本站所有资源均由网上收集而来,版权归原影音公司所有,如果侵犯了你的权益,请通知我们,我们会及时删除侵权内容.

    快速回复 返回顶部 返回列表