找回密码

蓝光电影网

查看: 7313|回复: 232

星河战队:火星叛国者/星河战队:火星的叛徒 Starship.Troopers.Traitor.of.Mars.2017.2160p.BluRay.x265.10bit.SDR.DTS-HD.MA.TrueHD.7.1.Atmos-SWTYBLZ 28.39GB

  [复制链接]
  • TA的每日心情
    开心
    7 小时前
  • 签到天数: 61 天

    [LV.6]常住居民II

     成长值: 18685

    发表于 2018-4-1 22:35:17 | 显示全部楼层 |阅读模式

    马上注册,获取最新影视资讯,享用更多功能,让你轻松玩转蓝光电影网。

    您需要 登录 才可以下载或查看,没有帐号?立即加入

    x
    205903mnu1auayuabp5725.jpg
    ◎译  名 星河战队:火星叛国者/星河战队:火星的叛徒
    ◎片  名 Starship Troopers: Traitor of Mars
    ◎年  代 2017
    ◎产  地 美国
    ◎类  别 动作/科幻/动画
    ◎语  言 英语
    ◎上映日期 2017-08-21(美国)
    ◎IMDb评分  5.5/10 from 3,364 users
    ◎IMDb链接  http://www.imdb.com/title/tt6977240/
    ◎豆瓣评分 5.8/10 from 3,442 users
    ◎豆瓣链接 https://movie.douban.com/subject/27064923/
    ◎片  长 100分钟
    ◎导  演 荒牧伸志 Shinji Aramaki / 松本松子 Masaru Matsumoto
    ◎主  演 卡斯帕·凡·迪恩 Casper Van Dien
          迪娜·迈耶 Dina Meyer
          德雷·戴维斯 DeRay Davis
          露西·克里斯蒂安 Luci Christian

    ◎简  介

      故事讲述约翰尼·里科(卡斯帕·凡·迪恩配音)降级发配到火星偏僻空间站,他本和士兵安稳培训,不料众人被一大批外星昆虫包围,战争一触即发。
    • Video
    • ID                                       : 1
    • Format                                   : HEVC
    • Format/Info                              : High Efficiency Video Coding
    • Format profile                           : Main 10@L5.1@High
    • Codec ID                                 : V_MPEGH/ISO/HEVC
    • Duration                                 : 1 h 27 min
    • Bit rate                                 : 35.8 Mb/s
    • Width                                    : 3 840 pixels
    • Height                                   : 2 160 pixels
    • Display aspect ratio                     : 16:9
    • Frame rate mode                          : Constant
    • Frame rate                               : 23.976 (24000/1001) FPS
    • Color space                              : YUV
    • Chroma subsampling                       : 4:2:0
    • Bit depth                                : 10 bits
    • Bits/(Pixel*Frame)                       : 0.180
    • Stream size                              : 21.9GB (78%)
    • Title                                    : Starship.Troopers.Traitor.of.Mars.2017.2160p.BluRay.x265.10bit.SDR.DTS-HD.MA.TrueHD.7.1.Atmos-SWTYBLZ
    • Writing library                          : x265 2.5+4-b4a5bcfe29c7:[Windows][GCC 4.9.3][64 bit] 10bit
    • Encoding settings                        : cpuid=1173503 / frame-threads=16 / numa-pools=20 / wpp / no-pmode / no-pme / no-psnr / no-ssim / log-level=2 / input-csp=1 / input-res=3840x2160 / interlace=0 / total-frames=0 / level-idc=51 / high-tier=1 / uhd-bd=0 / ref=3 / no-allow-non-conformance / repeat-headers / annexb / aud / hrd / info / hash=0 / no-temporal-layers / no-open-gop / min-keyint=1 / keyint=24 / bframes=4 / b-adapt=2 / b-pyramid / bframe-bias=0 / rc-lookahead=25 / lookahead-slices=4 / scenecut=40 / no-intra-refresh / ctu=64 / min-cu-size=8 / no-rect / no-amp / max-tu-size=32 / tu-inter-depth=1 / tu-intra-depth=1 / limit-tu=0 / rdoq-level=0 / dynamic-rd=0.00 / no-ssim-rd / signhide / no-tskip / nr-intra=0 / nr-inter=0 / no-constrained-intra / strong-intra-smoothing / max-merge=2 / limit-refs=3 / no-limit-modes / me=1 / subme=2 / merange=57 / temporal-mvp / weightp / no-weightb / no-analyze-src-pics / deblock=0:0 / no-sao / no-sao-non-deblock / rd=3 / no-early-skip / rskip / no-fast-intra / no-tskip-fast / no-cu-lossless / no-b-intra / rdpenalty=0 / psy-rd=2.00 / psy-rdoq=0.00 / no-rd-refine / analysis-reuse-mode=0 / no-lossless / cbqpoffs=0 / crqpoffs=0 / rc=crf / crf=16.0 / qcomp=0.60 / qpstep=4 / stats-write=0 / stats-read=0 / vbv-maxrate=160000 / vbv-bufsize=160000 / vbv-init=0.9 / crf-max=0.0 / crf-min=0.0 / ipratio=1.40 / pbratio=1.30 / aq-mode=1 / aq-strength=1.00 / cutree / zone-count=0 / no-strict-cbr / qg-size=32 / no-rc-grain / qpmax=69 / qpmin=0 / no-const-vbv / sar=1 / overscan=0 / videoformat=5 / range=0 / colorprim=2 / transfer=2 / colormatrix=2 / chromaloc=0 / display-window=0 / max-cll=0,0 / min-luma=0 / max-luma=1023 / log2-max-poc-lsb=8 / vui-timing-info / vui-hrd-info / slices=1 / opt-qp-pps / opt-ref-list-length-pps / no-multi-pass-opt-rps / scenecut-bias=0.05 / no-opt-cu-delta-qp / no-aq-motion / no-hdr / no-hdr-opt / no-dhdr10-opt / analysis-reuse-level=5 / scale-factor=0 / refine-intra=0 / refine-inter=0 / refine-mv=0 / no-limit-sao / ctu-info=0
    • Default                                  : Yes
    • Forced                                   : No
    • Audio #1
    • ID                                       : 2
    • Format                                   : TrueHD
    • Format profile                           : TrueHD+Atmos / TrueHD
    • Codec ID                                 : A_TRUEHD
    • Duration                                 : 1 h 27 min
    • Bit rate mode                            : Variable
    • Bit rate                                 : 5 128 kb/s
    • Maximum bit rate                         : 8 667 kb/s
    • Channel(s)                               : Object Based / 8 channels
    • Channel positions                        : Object Based / Front: L C R, Side: L R, Back: L R, LFE
    • Sampling rate                            :  / 48.0 kHz
    • Frame rate                               : 1 200.000 FPS (40 SPF)
    • Compression mode                         : Lossless
    • Stream size                              : 3.14GB (11%)
    • Title                                    : Starship.Troopers.Traitor.of.Mars.2017.2160p.BluRay.x265.10bit.SDR.DTS-HD.MA.TrueHD.7.1.Atmos-SWTYBLZ
    • Language                                 : English
    • Default                                  : Yes
    • Forced                                   : No
    • Audio #2
    • ID                                       : 3
    • Format                                   : DTS
    • Format/Info                              : Digital Theater Systems
    • Format profile                           : MA / Core
    • Codec ID                                 : A_DTS
    • Duration                                 : 1 h 27 min
    • Bit rate mode                            : Variable / Constant
    • Bit rate                                 : 4 014 kb/s / 1 509 kb/s
    • Channel(s)                               : 8 channels / 6 channels
    • Channel positions                        : Front: L C R, Side: L R, Back: L R, LFE / Front: L C R, Side: L R, LFE
    • Sampling rate                            : 48.0 kHz
    • Frame rate                               : 93.750 FPS (512 SPF)
    • Bit depth                                : 24 bits
    • Compression mode                         : Lossless / Lossy
    • Stream size                              : 2.46GB (9%)
    • Title                                    : Starship.Troopers.Traitor.of.Mars.2017.2160p.BluRay.x265.10bit.SDR.DTS-HD.MA.TrueHD.7.1.Atmos-SWTYBLZ
    • Language                                 : English
    • Default                                  : No
    • Forced                                   : No
    • Audio #3
    • ID                                       : 4
    • Format                                   : AC-3
    • Format/Info                              : Audio Coding 3
    • Codec ID                                 : A_AC3
    • Duration                                 : 1 h 27 min
    • Bit rate mode                            : Constant
    • Bit rate                                 : 640 kb/s
    • Channel(s)                               : 6 channels
    • Channel positions                        : Front: L C R, Side: L R, LFE
    • Sampling rate                            : 48.0 kHz
    • Frame rate                               : 31.250 FPS (1536 SPF)
    • Bit depth                                : 16 bits
    • Compression mode                         : Lossy
    • Stream size                              : 402 MiB (1%)
    • Title                                    : Starship.Troopers.Traitor.of.Mars.2017.2160p.BluRay.x265.10bit.SDR.DTS-HD.MA.TrueHD.7.1.Atmos-SWTYBLZ
    • Language                                 : English
    • Service kind                             : Complete Main
    • Default                                  : No
    • Forced                                   : No
    • Text #1
    • ID                                       : 5
    • Format                                   : UTF-8
    • Codec ID                                 : S_TEXT/UTF8
    • Codec ID/Info                            : UTF-8 Plain Text
    • Duration                                 : 1 h 22 min
    • Bit rate                                 : 57 b/s
    • Count of elements                        : 1129
    • Stream size                              : 34.6 KiB (0%)
    • Title                                    : English-SRT
    • Language                                 : English
    • Default                                  : Yes
    • Forced                                   : No
    • Text #2
    • ID                                       : 6
    • Format                                   : PGS
    • Muxing mode                              : zlib
    • Codec ID                                 : S_HDMV/PGS
    • Codec ID/Info                            : Picture based subtitle format used on BDs/HD-DVDs
    • Duration                                 : 1 h 27 min
    • Bit rate                                 : 31.0 kb/s
    • Count of elements                        : 2265
    • Stream size                              : 19.3 MiB (0%)
    • Title                                    : English-PGS
    • Language                                 : English
    • Default                                  : No
    • Forced                                   : No
    • Text #3
    • ID                                       : 7
    • Format                                   : PGS
    • Muxing mode                              : zlib
    • Codec ID                                 : S_HDMV/PGS
    • Codec ID/Info                            : Picture based subtitle format used on BDs/HD-DVDs
    • Duration                                 : 1 h 27 min
    • Bit rate                                 : 36.6 kb/s
    • Count of elements                        : 2670
    • Stream size                              : 22.8 MiB (0%)
    • Title                                    : English-SDH-PGS
    • Language                                 : English
    • Default                                  : No
    • Forced                                   : No
    • Text #4
    • ID                                       : 8
    • Format                                   : PGS
    • Muxing mode                              : zlib
    • Codec ID                                 : S_HDMV/PGS
    • Codec ID/Info                            : Picture based subtitle format used on BDs/HD-DVDs
    • Duration                                 : 1 h 27 min
    • Bit rate                                 : 31.0 kb/s
    • Count of elements                        : 2267
    • Stream size                              : 19.3 MiB (0%)
    • Title                                    : English-PGS
    • Language                                 : English
    • Default                                  : No
    • Forced                                   : No
    • Text #5
    • ID                                       : 9
    • Format                                   : PGS
    • Muxing mode                              : zlib
    • Codec ID                                 : S_HDMV/PGS
    • Codec ID/Info                            : Picture based subtitle format used on BDs/HD-DVDs
    • Duration                                 : 1 h 27 min
    • Bit rate                                 : 36.6 kb/s
    • Count of elements                        : 2670
    • Stream size                              : 22.8 MiB (0%)
    • Title                                    : English-SDH-PGS
    • Language                                 : English
    • Default                                  : No
    • Forced                                   : No
    • Text #6
    • ID                                       : 10
    • Format                                   : PGS
    • Muxing mode                              : zlib
    • Codec ID                                 : S_HDMV/PGS
    • Codec ID/Info                            : Picture based subtitle format used on BDs/HD-DVDs
    • Duration                                 : 1 h 27 min
    • Bit rate                                 : 31.5 kb/s
    • Count of elements                        : 2347
    • Stream size                              : 19.6 MiB (0%)
    • Title                                    : Chinese-PGS
    • Language                                 : Chinese
    • Default                                  : No
    • Forced                                   : No
    • Text #7
    • ID                                       : 11
    • Format                                   : PGS
    • Muxing mode                              : zlib
    • Codec ID                                 : S_HDMV/PGS
    • Codec ID/Info                            : Picture based subtitle format used on BDs/HD-DVDs
    • Duration                                 : 1 h 27 min
    • Bit rate                                 : 28.1 kb/s
    • Count of elements                        : 2347
    • Stream size                              : 17.5 MiB (0%)
    • Title                                    : Chinese-PGS
    • Language                                 : Chinese
    • Default                                  : No
    • Forced                                   : No
    • Text #8
    • ID                                       : 12
    • Format                                   : PGS
    • Muxing mode                              : zlib
    • Codec ID                                 : S_HDMV/PGS
    • Codec ID/Info                            : Picture based subtitle format used on BDs/HD-DVDs
    • Duration                                 : 1 h 27 min
    • Bit rate                                 : 28.4 kb/s
    • Count of elements                        : 2301
    • Stream size                              : 17.7 MiB (0%)
    • Title                                    : Czech-PGS
    • Language                                 : Czech
    • Default                                  : No
    • Forced                                   : No
    • Text #9
    • ID                                       : 13
    • Format                                   : PGS
    • Muxing mode                              : zlib
    • Codec ID                                 : S_HDMV/PGS
    • Codec ID/Info                            : Picture based subtitle format used on BDs/HD-DVDs
    • Duration                                 : 1 h 27 min
    • Bit rate                                 : 25.9 kb/s
    • Count of elements                        : 2331
    • Stream size                              : 16.1 MiB (0%)
    • Title                                    : Danish-PGS
    • Language                                 : Danish
    • Default                                  : No
    • Forced                                   : No
    • Text #10
    • ID                                       : 14
    • Format                                   : PGS
    • Muxing mode                              : zlib
    • Codec ID                                 : S_HDMV/PGS
    • Codec ID/Info                            : Picture based subtitle format used on BDs/HD-DVDs
    • Duration                                 : 1 h 27 min
    • Bit rate                                 : 30.8 kb/s
    • Count of elements                        : 2261
    • Stream size                              : 19.2 MiB (0%)
    • Title                                    : Dutch-PGS
    • Language                                 : Dutch
    • Default                                  : No
    • Forced                                   : No
    • Text #11
    • ID                                       : 15
    • Format                                   : PGS
    • Muxing mode                              : zlib
    • Codec ID                                 : S_HDMV/PGS
    • Codec ID/Info                            : Picture based subtitle format used on BDs/HD-DVDs
    • Duration                                 : 1 h 27 min
    • Bit rate                                 : 32.1 kb/s
    • Count of elements                        : 2337
    • Stream size                              : 20.0 MiB (0%)
    • Title                                    : Estonian-PGS
    • Language                                 : Estonian
    • Default                                  : No
    • Forced                                   : No
    • Text #12
    • ID                                       : 16
    • Format                                   : PGS
    • Muxing mode                              : zlib
    • Codec ID                                 : S_HDMV/PGS
    • Codec ID/Info                            : Picture based subtitle format used on BDs/HD-DVDs
    • Duration                                 : 1 h 27 min
    • Bit rate                                 : 31.6 kb/s
    • Count of elements                        : 2075
    • Stream size                              : 19.7 MiB (0%)
    • Title                                    : Finnish-PGS
    • Language                                 : Finnish
    • Default                                  : No
    • Forced                                   : No
    • Text #13
    • ID                                       : 17
    • Format                                   : PGS
    • Muxing mode                              : zlib
    • Codec ID                                 : S_HDMV/PGS
    • Codec ID/Info                            : Picture based subtitle format used on BDs/HD-DVDs
    • Duration                                 : 1 h 27 min
    • Bit rate                                 : 30.9 kb/s
    • Count of elements                        : 2329
    • Stream size                              : 19.2 MiB (0%)
    • Title                                    : French-PGS
    • Language                                 : French
    • Default                                  : No
    • Forced                                   : No
    • Text #14
    • ID                                       : 18
    • Format                                   : PGS
    • Muxing mode                              : zlib
    • Codec ID                                 : S_HDMV/PGS
    • Codec ID/Info                            : Picture based subtitle format used on BDs/HD-DVDs
    • Duration                                 : 1 h 27 min
    • Bit rate                                 : 36.4 kb/s
    • Count of elements                        : 2331
    • Stream size                              : 22.7 MiB (0%)
    • Title                                    : German-PGS
    • Language                                 : German
    • Default                                  : No
    • Forced                                   : No
    • Text #15
    • ID                                       : 19
    • Format                                   : PGS
    • Muxing mode                              : zlib
    • Codec ID                                 : S_HDMV/PGS
    • Codec ID/Info                            : Picture based subtitle format used on BDs/HD-DVDs
    • Duration                                 : 1 h 22 min
    • Bit rate                                 : 34.2 kb/s
    • Count of elements                        : 2345
    • Stream size                              : 20.3 MiB (0%)
    • Title                                    : Greek-PGS
    • Language                                 : Greek
    • Default                                  : No
    • Forced                                   : No
    • Text #16
    • ID                                       : 20
    • Format                                   : PGS
    • Muxing mode                              : zlib
    • Codec ID                                 : S_HDMV/PGS
    • Codec ID/Info                            : Picture based subtitle format used on BDs/HD-DVDs
    • Duration                                 : 1 h 27 min
    • Bit rate                                 : 34.0 kb/s
    • Count of elements                        : 2331
    • Stream size                              : 21.2 MiB (0%)
    • Title                                    : Italian-PGS
    • Language                                 : Italian
    • Default                                  : No
    • Forced                                   : No
    • Text #17
    • ID                                       : 21
    • Format                                   : PGS
    • Muxing mode                              : zlib
    • Codec ID                                 : S_HDMV/PGS
    • Codec ID/Info                            : Picture based subtitle format used on BDs/HD-DVDs
    • Duration                                 : 1 h 27 min
    • Bit rate                                 : 25.1 kb/s
    • Count of elements                        : 2349
    • Stream size                              : 15.7 MiB (0%)
    • Title                                    : Korean-PGS
    • Language                                 : Korean
    • Default                                  : No
    • Forced                                   : No
    • Text #18
    • ID                                       : 22
    • Format                                   : PGS
    • Muxing mode                              : zlib
    • Codec ID                                 : S_HDMV/PGS
    • Codec ID/Info                            : Picture based subtitle format used on BDs/HD-DVDs
    • Duration                                 : 1 h 27 min
    • Bit rate                                 : 29.0 kb/s
    • Count of elements                        : 2345
    • Stream size                              : 18.1 MiB (0%)
    • Title                                    : Latvian-PGS
    • Language                                 : Latvian
    • Default                                  : No
    • Forced                                   : No
    • Text #19
    • ID                                       : 23
    • Format                                   : PGS
    • Muxing mode                              : zlib
    • Codec ID                                 : S_HDMV/PGS
    • Codec ID/Info                            : Picture based subtitle format used on BDs/HD-DVDs
    • Duration                                 : 1 h 27 min
    • Bit rate                                 : 31.4 kb/s
    • Count of elements                        : 2345
    • Stream size                              : 19.6 MiB (0%)
    • Title                                    : Lithuanian-PGS
    • Language                                 : Lithuanian
    • Default                                  : No
    • Forced                                   : No
    • Text #20
    • ID                                       : 24
    • Format                                   : PGS
    • Muxing mode                              : zlib
    • Codec ID                                 : S_HDMV/PGS
    • Codec ID/Info                            : Picture based subtitle format used on BDs/HD-DVDs
    • Duration                                 : 1 h 27 min
    • Bit rate                                 : 29.5 kb/s
    • Count of elements                        : 2315
    • Stream size                              : 18.4 MiB (0%)
    • Title                                    : Norwegian-PGS
    • Language                                 : Norwegian
    • Default                                  : No
    • Forced                                   : No
    • Text #21
    • ID                                       : 25
    • Format                                   : PGS
    • Muxing mode                              : zlib
    • Codec ID                                 : S_HDMV/PGS
    • Codec ID/Info                            : Picture based subtitle format used on BDs/HD-DVDs
    • Duration                                 : 1 h 27 min
    • Bit rate                                 : 30.5 kb/s
    • Count of elements                        : 2321
    • Stream size                              : 19.0 MiB (0%)
    • Title                                    : Polish-PGS
    • Language                                 : Polish
    • Default                                  : No
    • Forced                                   : No
    • Text #22
    • ID                                       : 26
    • Format                                   : PGS
    • Muxing mode                              : zlib
    • Codec ID                                 : S_HDMV/PGS
    • Codec ID/Info                            : Picture based subtitle format used on BDs/HD-DVDs
    • Duration                                 : 1 h 27 min
    • Bit rate                                 : 33.4 kb/s
    • Count of elements                        : 2299
    • Stream size                              : 20.8 MiB (0%)
    • Title                                    : Portuguese-PGS
    • Language                                 : Portuguese
    • Default                                  : No
    • Forced                                   : No
    • Text #23
    • ID                                       : 27
    • Format                                   : PGS
    • Muxing mode                              : zlib
    • Codec ID                                 : S_HDMV/PGS
    • Codec ID/Info                            : Picture based subtitle format used on BDs/HD-DVDs
    • Duration                                 : 1 h 27 min
    • Bit rate                                 : 34.6 kb/s
    • Count of elements                        : 2331
    • Stream size                              : 21.6 MiB (0%)
    • Title                                    : Portuguese-PGS
    • Language                                 : Portuguese
    • Default                                  : No
    • Forced                                   : No
    • Text #24
    • ID                                       : 28
    • Format                                   : PGS
    • Muxing mode                              : zlib
    • Codec ID                                 : S_HDMV/PGS
    • Codec ID/Info                            : Picture based subtitle format used on BDs/HD-DVDs
    • Duration                                 : 1 h 27 min
    • Bit rate                                 : 30.8 kb/s
    • Count of elements                        : 2337
    • Stream size                              : 19.2 MiB (0%)
    • Title                                    : Romanian-PGS
    • Language                                 : Romanian
    • Default                                  : No
    • Forced                                   : No
    • Text #25
    • ID                                       : 29
    • Format                                   : PGS
    • Muxing mode                              : zlib
    • Codec ID                                 : S_HDMV/PGS
    • Codec ID/Info                            : Picture based subtitle format used on BDs/HD-DVDs
    • Duration                                 : 1 h 27 min
    • Bit rate                                 : 32.4 kb/s
    • Count of elements                        : 2361
    • Stream size                              : 20.2 MiB (0%)
    • Title                                    : Russian-PGS
    • Language                                 : Russian
    • Default                                  : No
    • Forced                                   : No
    • Text #26
    • ID                                       : 30
    • Format                                   : PGS
    • Muxing mode                              : zlib
    • Codec ID                                 : S_HDMV/PGS
    • Codec ID/Info                            : Picture based subtitle format used on BDs/HD-DVDs
    • Duration                                 : 1 h 27 min
    • Bit rate                                 : 33.4 kb/s
    • Count of elements                        : 2347
    • Stream size                              : 20.8 MiB (0%)
    • Title                                    : Spanish-PGS
    • Language                                 : Spanish
    • Default                                  : No
    • Forced                                   : No
    • Text #27
    • ID                                       : 31
    • Format                                   : PGS
    • Muxing mode                              : zlib
    • Codec ID                                 : S_HDMV/PGS
    • Codec ID/Info                            : Picture based subtitle format used on BDs/HD-DVDs
    • Duration                                 : 1 h 27 min
    • Bit rate                                 : 33.4 kb/s
    • Count of elements                        : 2339
    • Stream size                              : 20.8 MiB (0%)
    • Title                                    : Spanish-PGS
    • Language                                 : Spanish
    • Default                                  : No
    • Forced                                   : No
    • Text #28
    • ID                                       : 32
    • Format                                   : PGS
    • Muxing mode                              : zlib
    • Codec ID                                 : S_HDMV/PGS
    • Codec ID/Info                            : Picture based subtitle format used on BDs/HD-DVDs
    • Duration                                 : 1 h 27 min
    • Bit rate                                 : 27.6 kb/s
    • Count of elements                        : 1865
    • Stream size                              : 17.2 MiB (0%)
    • Title                                    : Swedish-PGS
    • Language                                 : Swedish
    • Default                                  : No
    • Forced                                   : No
    • Text #29
    • ID                                       : 33
    • Format                                   : PGS
    • Muxing mode                              : zlib
    • Codec ID                                 : S_HDMV/PGS
    • Codec ID/Info                            : Picture based subtitle format used on BDs/HD-DVDs
    • Duration                                 : 1 h 27 min
    • Bit rate                                 : 32.4 kb/s
    • Count of elements                        : 2347
    • Stream size                              : 20.2 MiB (0%)
    • Title                                    : Thai-PGS
    • Language                                 : Thai
    • Default                                  : No
    • Forced                                   : No
    • Text #30
    • ID                                       : 34
    • Format                                   : PGS
    • Muxing mode                              : zlib
    • Codec ID                                 : S_HDMV/PGS
    • Codec ID/Info                            : Picture based subtitle format used on BDs/HD-DVDs
    • Duration                                 : 1 h 27 min
    • Bit rate                                 : 32.9 kb/s
    • Count of elements                        : 2337
    • Stream size                              : 20.5 MiB (0%)
    • Title                                    : Turkish-PGS
    • Language                                 : Turkish
    • Default                                  : No
    • Forced                                   : No
    • Text #31
    • ID                                       : 35
    • Format                                   : PGS
    • Muxing mode                              : zlib
    • Codec ID                                 : S_HDMV/PGS
    • Codec ID/Info                            : Picture based subtitle format used on BDs/HD-DVDs
    • Duration                                 : 1 h 27 min
    • Bit rate                                 : 32.0 kb/s
    • Count of elements                        : 2313
    • Stream size                              : 20.0 MiB (0%)
    • Title                                    : Hungarian-PGS
    • Language                                 : Hungarian
    • Default                                  : No
    • Forced                                   : No
    • Menu
    • 00:00:00.000                             : en:Chapter 1
    • 00:06:52.787                             : en:Chapter 2
    • 00:11:49.166                             : en:Chapter 3
    • 00:15:55.829                             : en:Chapter 4
    • 00:22:10.662                             : en:Chapter 5
    • 00:28:16.277                             : en:Chapter 6
    • 00:34:40.119                             : en:Chapter 7
    • 00:38:02.029                             : en:Chapter 8
    • 00:41:06.464                             : en:Chapter 9
    • 00:51:04.478                             : en:Chapter 10
    • 00:57:03.253                             : en:Chapter 11
    • 01:02:22.280                             : en:Chapter 12
    • 01:06:19.934                             : en:Chapter 13
    • 01:13:16.100                             : en:Chapter 14
    • 01:18:19.986                             : en:Chapter 15
    • 01:22:40.872                             : en:Chapter 16

    复制代码
    205904mxlqzqgftx89fmy1.jpg 205904rn7c7riy3ii23ri7.jpg 205905tfl6xtb27jaljfx1.jpg 205905iii8riotmg0r8ggg.jpg 205906zy77ye6ry8iygtgm.jpg 205906e8w8paba3amz8i5g.jpg 205906ky2zlic62tick7ba.jpg







    Starship.Troopers.Traitor.of.Mars.2017.2160p.BluRay.x265.10bit.SDR.DTS-HD.MA.Tru.torrent (71.66 KB, 下载次数: 299)
    开通VIP免费下载本站所有资源---点这里
    新手必看:资源下载、资源播放、字幕使用、等常见问题---点这里
    回复

    使用道具 举报

    该用户从未签到

    发表于 2018-4-1 22:43:26 | 显示全部楼层
    强烈支持楼主ing……
    开通VIP免费下载本站所有资源---点这里
    新手必看:资源下载、资源播放、字幕使用、等常见问题---点这里
    回复 支持 反对

    使用道具 举报

    该用户从未签到

    发表于 2018-4-1 23:06:43 | 显示全部楼层
    淡定,淡定,淡定……
    开通VIP免费下载本站所有资源---点这里
    新手必看:资源下载、资源播放、字幕使用、等常见问题---点这里
    回复 支持 反对

    使用道具 举报

    该用户从未签到

    发表于 2018-4-1 23:26:07 | 显示全部楼层
    多谢分享,很好看的
    开通VIP免费下载本站所有资源---点这里
    新手必看:资源下载、资源播放、字幕使用、等常见问题---点这里
    回复 支持 反对

    使用道具 举报

  • TA的每日心情
    开心
    昨天 06:55
  • 签到天数: 54 天

    [LV.5]常住居民I

    发表于 2018-4-1 23:43:12 | 显示全部楼层
    强烈支持楼主ing……
    [发帖际遇]: 一个袋子砸在了 taiy 头上,taiy 赚了 1 蓝光币. 幸运榜 / 衰神榜
    开通VIP免费下载本站所有资源---点这里
    新手必看:资源下载、资源播放、字幕使用、等常见问题---点这里
    回复 支持 反对

    使用道具 举报

    该用户从未签到

    发表于 2018-4-2 01:31:43 | 显示全部楼层
    看看俺看看看看
    开通VIP免费下载本站所有资源---点这里
    新手必看:资源下载、资源播放、字幕使用、等常见问题---点这里
    回复 支持 反对

    使用道具 举报

    该用户从未签到

    发表于 2018-4-2 03:31:59 | 显示全部楼层
    太生气了,无法HOLD啦 >_<......
    开通VIP免费下载本站所有资源---点这里
    新手必看:资源下载、资源播放、字幕使用、等常见问题---点这里
    回复 支持 反对

    使用道具 举报

    该用户从未签到

    发表于 2018-4-2 07:32:53 | 显示全部楼层
    真是难得给力的帖子啊。
    开通VIP免费下载本站所有资源---点这里
    新手必看:资源下载、资源播放、字幕使用、等常见问题---点这里
    回复 支持 反对

    使用道具 举报

  • TA的每日心情
    擦汗
    昨天 12:38
  • 签到天数: 61 天

    [LV.6]常住居民II

    发表于 2018-4-2 09:23:20 | 显示全部楼层
    谢谢发片。
    开通VIP免费下载本站所有资源---点这里
    新手必看:资源下载、资源播放、字幕使用、等常见问题---点这里
    回复

    使用道具 举报

    该用户从未签到

    发表于 2018-4-2 09:56:03 | 显示全部楼层
    激动人心,无法言表!
    开通VIP免费下载本站所有资源---点这里
    新手必看:资源下载、资源播放、字幕使用、等常见问题---点这里
    回复 支持 反对

    使用道具 举报

    懒得打字嘛,点击右侧快捷回复 【右侧内容,后台自定义】
    您需要登录后才可以回帖 登录 | 立即加入

    本版积分规则

    现在加入蓝光电影网,注册一个账号

    QQ| 手机版|小黑屋| 蓝光电影网 |网站地图

    Copyright © 20013-2018 Comsenz Inc.  Template by 蓝光电影论坛 All Rights Reserved.

    Powered by 高清电影网 X3.4
    特别声明:本站所有资源均由网上收集而来,版权归原影音公司所有,如果侵犯了你的权益,请通知我们,我们会及时删除侵权内容.

    快速回复 返回顶部 返回列表