找回密码

蓝光电影网

查看: 9239|回复: 156

南极3D:在边缘 Antarctica.On.the.Edge.2014.1080p.BluRay.x264.DTS-HD.MA.5.1-SWTYBLZ 4.08GB

  [复制链接]
  • TA的每日心情
    开心
    19 小时前
  • 签到天数: 180 天

    [LV.7]常住居民III

     成长值: 20545

    发表于 2018-2-3 17:36:43 | 显示全部楼层 |阅读模式

    马上注册,获取最新影视资讯,享用更多功能,让你轻松玩转蓝光电影网。

    您需要 登录 才可以下载或查看,没有帐号?立即加入

    x
    014140u8882nbxm83z82ta.jpg
    ◎译  名 南极3D:在边缘
    ◎片  名 Antarctica 3D: On the Edge
    ◎年  代 2014
    ◎产  地 美国
    ◎类  别 纪录片/短片
    ◎语  言 英语
    ◎上映日期 2014-10-19(美国)
    ◎IMDb评分  8.3/10 from 11 users
    ◎IMDb链接  http://www.imdb.com/title/tt4527224/
    ◎豆瓣评分 0/10 from 0 users
    ◎豆瓣链接 https://movie.douban.com/subject/26438479/
    ◎片  长 40分钟
    ◎导  演 Jon Bowermaster
    ◎主  演 Tilda Swinton

    ◎简  介

      None
    • Video
    • ID                                       : 1
    • Format                                   : AVC
    • Format/Info                              : Advanced Video Codec
    • Format profile                           : High@L4.1
    • Format settings                          : CABAC / 5 Ref Frames
    • Format settings, CABAC                   : Yes
    • Format settings, ReFrames                : 5 frames
    • Codec ID                                 : V_MPEG4/ISO/AVC
    • Duration                                 : 36 min 45 s
    • Bit rate                                 : 11.7 Mb/s
    • Width                                    : 1 920 pixels
    • Height                                   : 1 080 pixels
    • Display aspect ratio                     : 16:9
    • Frame rate mode                          : Constant
    • Frame rate                               : 23.976 (24000/1001) FPS
    • Color space                              : YUV
    • Chroma subsampling                       : 4:2:0
    • Bit depth                                : 8 bits
    • Scan type                                : Progressive
    • Bits/(Pixel*Frame)                       : 0.235
    • Stream size                              : 3.00GB (73%)
    • Title                                    : Antarctica.On.the.Edge.2014.1080p.BluRay.x264.DTS-HD.MA.5.1-SWTYBLZ
    • Writing library                          : x264 core 148 r2795M aaa9aa8
    • Encoding settings                        : cabac=1 / ref=5 / deblock=1:0:0 / analyse=0x3:0x133 / me=umh / subme=10 / psy=1 / psy_rd=1.00:0.00 / mixed_ref=1 / me_range=24 / chroma_me=1 / trellis=2 / 8x8dct=1 / cqm=0 / deadzone=21,11 / fast_pskip=1 / chroma_qp_offset=-2 / threads=24 / lookahead_threads=4 / sliced_threads=0 / nr=0 / decimate=1 / interlaced=0 / bluray_compat=0 / constrained_intra=0 / bframes=8 / b_pyramid=2 / b_adapt=2 / b_bias=0 / direct=3 / weightb=1 / open_gop=0 / weightp=2 / keyint=240 / keyint_min=24 / scenecut=40 / intra_refresh=0 / rc_lookahead=60 / rc=crf / mbtree=1 / crf=15.0 / qcomp=0.60 / qpmin=0 / qpmax=69 / qpstep=4 / ip_ratio=1.40 / aq=1:1.00
    • Default                                  : Yes
    • Forced                                   : No
    • Audio
    • ID                                       : 2
    • Format                                   : DTS
    • Format/Info                              : Digital Theater Systems
    • Format profile                           : MA / Core
    • Codec ID                                 : A_DTS
    • Duration                                 : 37 min 14 s
    • Bit rate mode                            : Variable / Constant
    • Bit rate                                 : 4 084 kb/s / 1 509 kb/s
    • Channel(s)                               : 6 channels
    • Channel positions                        : Front: L C R, Side: L R, LFE
    • Sampling rate                            : 48.0 kHz
    • Frame rate                               : 93.750 FPS (512 SPF)
    • Bit depth                                : 24 bits
    • Compression mode                         : Lossless / Lossy
    • Stream size                              : 1.06GB (26%)
    • Title                                    : Antarctica.On.the.Edge.2014.1080p.BluRay.x264.DTS-HD.MA.5.1-SWTYBLZ
    • Language                                 : English
    • Default                                  : Yes
    • Forced                                   : No
    • Text #1
    • ID                                       : 3
    • Format                                   : UTF-8
    • Codec ID                                 : S_TEXT/UTF8
    • Codec ID/Info                            : UTF-8 Plain Text
    • Duration                                 : 32 min 11 s
    • Bit rate                                 : 68 b/s
    • Count of elements                        : 348
    • Stream size                              : 16.2 KiB (0%)
    • Title                                    : English-SRT
    • Language                                 : English
    • Default                                  : Yes
    • Forced                                   : No
    • Text #2
    • ID                                       : 4
    • Format                                   : PGS
    • Muxing mode                              : zlib
    • Codec ID                                 : S_HDMV/PGS
    • Codec ID/Info                            : Picture based subtitle format used on BDs/HD-DVDs
    • Duration                                 : 32 min 54 s
    • Bit rate                                 : 42.0 kb/s
    • Count of elements                        : 738
    • Stream size                              : 9.89 MiB (0%)
    • Title                                    : English-PGS
    • Language                                 : English
    • Default                                  : No
    • Forced                                   : No
    • Text #3
    • ID                                       : 5
    • Format                                   : PGS
    • Muxing mode                              : zlib
    • Codec ID                                 : S_HDMV/PGS
    • Codec ID/Info                            : Picture based subtitle format used on BDs/HD-DVDs
    • Duration                                 : 35 min 35 s
    • Bit rate                                 : 40.1 kb/s
    • Count of elements                        : 726
    • Stream size                              : 10.2 MiB (0%)
    • Title                                    : French-PGS
    • Language                                 : French
    • Default                                  : No
    • Forced                                   : No
    • Text #4
    • ID                                       : 6
    • Format                                   : PGS
    • Muxing mode                              : zlib
    • Codec ID                                 : S_HDMV/PGS
    • Codec ID/Info                            : Picture based subtitle format used on BDs/HD-DVDs
    • Duration                                 : 35 min 35 s
    • Bit rate                                 : 35.5 kb/s
    • Count of elements                        : 720
    • Stream size                              : 9.03 MiB (0%)
    • Title                                    : Danish-PGS
    • Language                                 : Danish
    • Default                                  : No
    • Forced                                   : No
    • Text #5
    • ID                                       : 7
    • Format                                   : PGS
    • Muxing mode                              : zlib
    • Codec ID                                 : S_HDMV/PGS
    • Codec ID/Info                            : Picture based subtitle format used on BDs/HD-DVDs
    • Duration                                 : 35 min 35 s
    • Bit rate                                 : 38.8 kb/s
    • Count of elements                        : 724
    • Stream size                              : 9.87 MiB (0%)
    • Title                                    : Dutch-PGS
    • Language                                 : Dutch
    • Default                                  : No
    • Forced                                   : No
    • Text #6
    • ID                                       : 8
    • Format                                   : PGS
    • Muxing mode                              : zlib
    • Codec ID                                 : S_HDMV/PGS
    • Codec ID/Info                            : Picture based subtitle format used on BDs/HD-DVDs
    • Duration                                 : 35 min 35 s
    • Bit rate                                 : 36.7 kb/s
    • Count of elements                        : 722
    • Stream size                              : 9.33 MiB (0%)
    • Title                                    : Finnish-PGS
    • Language                                 : Finnish
    • Default                                  : No
    • Forced                                   : No
    • Text #7
    • ID                                       : 9
    • Format                                   : PGS
    • Muxing mode                              : zlib
    • Codec ID                                 : S_HDMV/PGS
    • Codec ID/Info                            : Picture based subtitle format used on BDs/HD-DVDs
    • Duration                                 : 35 min 35 s
    • Bit rate                                 : 43.7 kb/s
    • Count of elements                        : 746
    • Stream size                              : 11.1 MiB (0%)
    • Title                                    : German-PGS
    • Language                                 : German
    • Default                                  : No
    • Forced                                   : No
    • Text #8
    • ID                                       : 10
    • Format                                   : PGS
    • Muxing mode                              : zlib
    • Codec ID                                 : S_HDMV/PGS
    • Codec ID/Info                            : Picture based subtitle format used on BDs/HD-DVDs
    • Duration                                 : 35 min 35 s
    • Bit rate                                 : 36.6 kb/s
    • Count of elements                        : 722
    • Stream size                              : 9.30 MiB (0%)
    • Title                                    : Norwegian-PGS
    • Language                                 : Norwegian
    • Default                                  : No
    • Forced                                   : No
    • Text #9
    • ID                                       : 11
    • Format                                   : PGS
    • Muxing mode                              : zlib
    • Codec ID                                 : S_HDMV/PGS
    • Codec ID/Info                            : Picture based subtitle format used on BDs/HD-DVDs
    • Duration                                 : 35 min 35 s
    • Bit rate                                 : 36.9 kb/s
    • Count of elements                        : 720
    • Stream size                              : 9.38 MiB (0%)
    • Title                                    : Swedish-PGS
    • Language                                 : Swedish
    • Default                                  : No
    • Forced                                   : No
    • Menu
    • 00:00:00.000                             : en:00:00:00.000
    • 00:02:31.735                             : en:00:02:31.735
    • 00:03:27.833                             : en:00:03:27.833
    • 00:05:08.308                             : en:00:05:08.308
    • 00:07:06.718                             : en:00:07:06.718
    • 00:08:50.780                             : en:00:08:50.780
    • 00:11:35.111                             : en:00:11:35.111
    • 00:13:09.205                             : en:00:13:09.205
    • 00:14:23.488                             : en:00:14:23.488
    • 00:15:53.661                             : en:00:15:53.661
    • 00:18:25.021                             : en:00:18:25.021
    • 00:19:22.787                             : en:00:19:22.787
    • 00:20:52.877                             : en:00:20:52.877
    • 00:22:28.347                             : en:00:22:28.347
    • 00:25:37.619                             : en:00:25:37.619
    • 00:27:12.047                             : en:00:27:12.047
    • 00:29:59.840                             : en:00:29:59.840
    • 00:33:41.895                             : en:00:33:41.895

    复制代码
    014141ahfxqcenr9wl93hh.jpg 014141cf9ngmu9gchco9co.jpg 014142d62ifzbp6mlvbfpf.jpg 014142wi65zx27uuik7b72.jpg 014142jedkvitsstd11edz.jpg 014143lp9nddyax8yyypzd.jpg




    Antarctica.On.the.Edge.2014.1080p.BluRay.x264.DTS-HD.MA.5.1-SWTYBLZ.torrent (82.29 KB, 下载次数: 321)
    开通VIP免费下载本站所有资源---点这里
    新手必看:资源下载、资源播放、字幕使用、等常见问题---点这里
    回复

    使用道具 举报

    该用户从未签到

    发表于 2018-2-3 19:10:38 | 显示全部楼层
    perfrct!!!!!!!!!!!!
    [发帖际遇]: CindyYan 乐于助人,奖励 2 蓝光币. 幸运榜 / 衰神榜
    开通VIP免费下载本站所有资源---点这里
    新手必看:资源下载、资源播放、字幕使用、等常见问题---点这里
    回复

    使用道具 举报

    该用户从未签到

    发表于 2018-2-3 19:12:35 | 显示全部楼层
    更精彩截图从吞吞吐吐吞吞吐吐吞吞吐吐他吞吞吐吐他吞吞吐吐
    开通VIP免费下载本站所有资源---点这里
    新手必看:资源下载、资源播放、字幕使用、等常见问题---点这里
    回复 支持 反对

    使用道具 举报

  • TA的每日心情
    开心
    2019-3-27 20:50
  • 签到天数: 2 天

    [LV.1]初来乍到

    发表于 2018-2-3 20:44:09 | 显示全部楼层
    点错,应该下1080 5.1这个,谢谢板主分享!
    开通VIP免费下载本站所有资源---点这里
    新手必看:资源下载、资源播放、字幕使用、等常见问题---点这里
    回复 支持 反对

    使用道具 举报

  • TA的每日心情
    开心
    2019-3-27 20:50
  • 签到天数: 2 天

    [LV.1]初来乍到

    发表于 2018-2-3 20:46:05 | 显示全部楼层
    没钱了,继续打工赚钱
    [发帖际遇]: 一个袋子砸在了 oldsan 头上,oldsan 赚了 2 蓝光币. 幸运榜 / 衰神榜
    开通VIP免费下载本站所有资源---点这里
    新手必看:资源下载、资源播放、字幕使用、等常见问题---点这里
    回复 支持 反对

    使用道具 举报

    该用户从未签到

    发表于 2018-2-3 23:53:24 | 显示全部楼层
    多谢了, 下载收藏!
    开通VIP免费下载本站所有资源---点这里
    新手必看:资源下载、资源播放、字幕使用、等常见问题---点这里
    回复 支持 反对

    使用道具 举报

    该用户从未签到

    发表于 2018-2-3 23:56:09 | 显示全部楼层
    运气好差啊,今天
    [发帖际遇]: 北京-喜欢-周周 乐于助人,奖励 2 蓝光币. 幸运榜 / 衰神榜
    开通VIP免费下载本站所有资源---点这里
    新手必看:资源下载、资源播放、字幕使用、等常见问题---点这里
    回复 支持 反对

    使用道具 举报

    该用户从未签到

    发表于 2018-2-3 23:59:54 | 显示全部楼层
    运气好差啊,今天
    开通VIP免费下载本站所有资源---点这里
    新手必看:资源下载、资源播放、字幕使用、等常见问题---点这里
    回复 支持 反对

    使用道具 举报

    该用户从未签到

    发表于 2018-2-4 10:28:56 | 显示全部楼层

    多谢了, 下载收藏!
    开通VIP免费下载本站所有资源---点这里
    新手必看:资源下载、资源播放、字幕使用、等常见问题---点这里
    回复 支持 反对

    使用道具 举报

  • TA的每日心情
    开心
    2019-3-11 19:43
  • 签到天数: 1 天

    [LV.1]初来乍到

    发表于 2018-2-4 11:13:58 | 显示全部楼层
    多谢了, 下载收藏!
    [发帖际遇]: 一个袋子砸在了 虎哥 头上,虎哥 赚了 3 蓝光币. 幸运榜 / 衰神榜
    开通VIP免费下载本站所有资源---点这里
    新手必看:资源下载、资源播放、字幕使用、等常见问题---点这里
    回复 支持 反对

    使用道具 举报

    *滑动验证:
    懒得打字嘛,点击右侧快捷回复 【右侧内容,后台自定义】
    您需要登录后才可以回帖 登录 | 立即加入

    本版积分规则

    现在加入蓝光电影网,注册一个账号

    QQ| 手机版|小黑屋| 蓝光电影网 |网站地图

    Copyright © 20013-2018 Comsenz Inc.  Template by 蓝光电影论坛 All Rights Reserved.

    Powered by 高清电影网 X3.4
    特别声明:本站所有资源均由网上收集而来,版权归原影音公司所有,如果侵犯了你的权益,请通知我们,我们会及时删除侵权内容.

    快速回复 返回顶部 返回列表