找回密码

蓝光电影网

查看: 10281|回复: 160

南极3D:在边缘 Antarctica.On.the.Edge.2014.1080p.BluRay.x264.DTS-HD.MA.5.1-SWTYBLZ 4.08GB

  [复制链接]

 成长值: 21925

发表于 2018-2-3 17:36:43 | 显示全部楼层 |阅读模式
014140u8882nbxm83z82ta.jpg
◎译  名 南极3D:在边缘
◎片  名 Antarctica 3D: On the Edge
◎年  代 2014
◎产  地 美国
◎类  别 纪录片/短片
◎语  言 英语
◎上映日期 2014-10-19(美国)
◎IMDb评分  8.3/10 from 11 users
◎IMDb链接  http://www.imdb.com/title/tt4527224/
◎豆瓣评分 0/10 from 0 users
◎豆瓣链接 https://movie.douban.com/subject/26438479/
◎片  长 40分钟
◎导  演 Jon Bowermaster
◎主  演 Tilda Swinton

◎简  介

  None


  1. Video
  2. ID                                       : 1
  3. Format                                   : AVC
  4. Format/Info                              : Advanced Video Codec
  5. Format profile                           : [email]High@L4.1[/email]
  6. Format settings                          : CABAC / 5 Ref Frames
  7. Format settings, CABAC                   : Yes
  8. Format settings, ReFrames                : 5 frames
  9. Codec ID                                 : V_MPEG4/ISO/AVC
  10. Duration                                 : 36 min 45 s
  11. Bit rate                                 : 11.7 Mb/s
  12. Width                                    : 1 920 pixels
  13. Height                                   : 1 080 pixels
  14. Display aspect ratio                     : 16:9
  15. Frame rate mode                          : Constant
  16. Frame rate                               : 23.976 (24000/1001) FPS
  17. Color space                              : YUV
  18. Chroma subsampling                       : 4:2:0
  19. Bit depth                                : 8 bits
  20. Scan type                                : Progressive
  21. Bits/(Pixel*Frame)                       : 0.235
  22. Stream size                              : 3.00GB (73%)
  23. Title                                    : Antarctica.On.the.Edge.2014.1080p.BluRay.x264.DTS-HD.MA.5.1-SWTYBLZ
  24. Writing library                          : x264 core 148 r2795M aaa9aa8
  25. Encoding settings                        : cabac=1 / ref=5 / deblock=1:0:0 / analyse=0x3:0x133 / me=umh / subme=10 / psy=1 / psy_rd=1.00:0.00 / mixed_ref=1 / me_range=24 / chroma_me=1 / trellis=2 / 8x8dct=1 / cqm=0 / deadzone=21,11 / fast_pskip=1 / chroma_qp_offset=-2 / threads=24 / lookahead_threads=4 / sliced_threads=0 / nr=0 / decimate=1 / interlaced=0 / bluray_compat=0 / constrained_intra=0 / bframes=8 / b_pyramid=2 / b_adapt=2 / b_bias=0 / direct=3 / weightb=1 / open_gop=0 / weightp=2 / keyint=240 / keyint_min=24 / scenecut=40 / intra_refresh=0 / rc_lookahead=60 / rc=crf / mbtree=1 / crf=15.0 / qcomp=0.60 / qpmin=0 / qpmax=69 / qpstep=4 / ip_ratio=1.40 / aq=1:1.00
  26. Default                                  : Yes
  27. Forced                                   : No

  28. Audio
  29. ID                                       : 2
  30. Format                                   : DTS
  31. Format/Info                              : Digital Theater Systems
  32. Format profile                           : MA / Core
  33. Codec ID                                 : A_DTS
  34. Duration                                 : 37 min 14 s
  35. Bit rate mode                            : Variable / Constant
  36. Bit rate                                 : 4 084 kb/s / 1 509 kb/s
  37. Channel(s)                               : 6 channels
  38. Channel positions                        : Front: L C R, Side: L R, LFE
  39. Sampling rate                            : 48.0 kHz
  40. Frame rate                               : 93.750 FPS (512 SPF)
  41. Bit depth                                : 24 bits
  42. Compression mode                         : Lossless / Lossy
  43. Stream size                              : 1.06GB (26%)
  44. Title                                    : Antarctica.On.the.Edge.2014.1080p.BluRay.x264.DTS-HD.MA.5.1-SWTYBLZ
  45. Language                                 : English
  46. Default                                  : Yes
  47. Forced                                   : No

  48. Text #1
  49. ID                                       : 3
  50. Format                                   : UTF-8
  51. Codec ID                                 : S_TEXT/UTF8
  52. Codec ID/Info                            : UTF-8 Plain Text
  53. Duration                                 : 32 min 11 s
  54. Bit rate                                 : 68 b/s
  55. Count of elements                        : 348
  56. Stream size                              : 16.2 KiB (0%)
  57. Title                                    : English-SRT
  58. Language                                 : English
  59. Default                                  : Yes
  60. Forced                                   : No

  61. Text #2
  62. ID                                       : 4
  63. Format                                   : PGS
  64. Muxing mode                              : zlib
  65. Codec ID                                 : S_HDMV/PGS
  66. Codec ID/Info                            : Picture based subtitle format used on BDs/HD-DVDs
  67. Duration                                 : 32 min 54 s
  68. Bit rate                                 : 42.0 kb/s
  69. Count of elements                        : 738
  70. Stream size                              : 9.89 MiB (0%)
  71. Title                                    : English-PGS
  72. Language                                 : English
  73. Default                                  : No
  74. Forced                                   : No

  75. Text #3
  76. ID                                       : 5
  77. Format                                   : PGS
  78. Muxing mode                              : zlib
  79. Codec ID                                 : S_HDMV/PGS
  80. Codec ID/Info                            : Picture based subtitle format used on BDs/HD-DVDs
  81. Duration                                 : 35 min 35 s
  82. Bit rate                                 : 40.1 kb/s
  83. Count of elements                        : 726
  84. Stream size                              : 10.2 MiB (0%)
  85. Title                                    : French-PGS
  86. Language                                 : French
  87. Default                                  : No
  88. Forced                                   : No

  89. Text #4
  90. ID                                       : 6
  91. Format                                   : PGS
  92. Muxing mode                              : zlib
  93. Codec ID                                 : S_HDMV/PGS
  94. Codec ID/Info                            : Picture based subtitle format used on BDs/HD-DVDs
  95. Duration                                 : 35 min 35 s
  96. Bit rate                                 : 35.5 kb/s
  97. Count of elements                        : 720
  98. Stream size                              : 9.03 MiB (0%)
  99. Title                                    : Danish-PGS
  100. Language                                 : Danish
  101. Default                                  : No
  102. Forced                                   : No

  103. Text #5
  104. ID                                       : 7
  105. Format                                   : PGS
  106. Muxing mode                              : zlib
  107. Codec ID                                 : S_HDMV/PGS
  108. Codec ID/Info                            : Picture based subtitle format used on BDs/HD-DVDs
  109. Duration                                 : 35 min 35 s
  110. Bit rate                                 : 38.8 kb/s
  111. Count of elements                        : 724
  112. Stream size                              : 9.87 MiB (0%)
  113. Title                                    : Dutch-PGS
  114. Language                                 : Dutch
  115. Default                                  : No
  116. Forced                                   : No

  117. Text #6
  118. ID                                       : 8
  119. Format                                   : PGS
  120. Muxing mode                              : zlib
  121. Codec ID                                 : S_HDMV/PGS
  122. Codec ID/Info                            : Picture based subtitle format used on BDs/HD-DVDs
  123. Duration                                 : 35 min 35 s
  124. Bit rate                                 : 36.7 kb/s
  125. Count of elements                        : 722
  126. Stream size                              : 9.33 MiB (0%)
  127. Title                                    : Finnish-PGS
  128. Language                                 : Finnish
  129. Default                                  : No
  130. Forced                                   : No

  131. Text #7
  132. ID                                       : 9
  133. Format                                   : PGS
  134. Muxing mode                              : zlib
  135. Codec ID                                 : S_HDMV/PGS
  136. Codec ID/Info                            : Picture based subtitle format used on BDs/HD-DVDs
  137. Duration                                 : 35 min 35 s
  138. Bit rate                                 : 43.7 kb/s
  139. Count of elements                        : 746
  140. Stream size                              : 11.1 MiB (0%)
  141. Title                                    : German-PGS
  142. Language                                 : German
  143. Default                                  : No
  144. Forced                                   : No

  145. Text #8
  146. ID                                       : 10
  147. Format                                   : PGS
  148. Muxing mode                              : zlib
  149. Codec ID                                 : S_HDMV/PGS
  150. Codec ID/Info                            : Picture based subtitle format used on BDs/HD-DVDs
  151. Duration                                 : 35 min 35 s
  152. Bit rate                                 : 36.6 kb/s
  153. Count of elements                        : 722
  154. Stream size                              : 9.30 MiB (0%)
  155. Title                                    : Norwegian-PGS
  156. Language                                 : Norwegian
  157. Default                                  : No
  158. Forced                                   : No

  159. Text #9
  160. ID                                       : 11
  161. Format                                   : PGS
  162. Muxing mode                              : zlib
  163. Codec ID                                 : S_HDMV/PGS
  164. Codec ID/Info                            : Picture based subtitle format used on BDs/HD-DVDs
  165. Duration                                 : 35 min 35 s
  166. Bit rate                                 : 36.9 kb/s
  167. Count of elements                        : 720
  168. Stream size                              : 9.38 MiB (0%)
  169. Title                                    : Swedish-PGS
  170. Language                                 : Swedish
  171. Default                                  : No
  172. Forced                                   : No

  173. Menu
  174. 00:00:00.000                             : en:00:00:00.000
  175. 00:02:31.735                             : en:00:02:31.735
  176. 00:03:27.833                             : en:00:03:27.833
  177. 00:05:08.308                             : en:00:05:08.308
  178. 00:07:06.718                             : en:00:07:06.718
  179. 00:08:50.780                             : en:00:08:50.780
  180. 00:11:35.111                             : en:00:11:35.111
  181. 00:13:09.205                             : en:00:13:09.205
  182. 00:14:23.488                             : en:00:14:23.488
  183. 00:15:53.661                             : en:00:15:53.661
  184. 00:18:25.021                             : en:00:18:25.021
  185. 00:19:22.787                             : en:00:19:22.787
  186. 00:20:52.877                             : en:00:20:52.877
  187. 00:22:28.347                             : en:00:22:28.347
  188. 00:25:37.619                             : en:00:25:37.619
  189. 00:27:12.047                             : en:00:27:12.047
  190. 00:29:59.840                             : en:00:29:59.840
  191. 00:33:41.895                             : en:00:33:41.895



复制代码
复制代码
014141ahfxqcenr9wl93hh.jpg 014141cf9ngmu9gchco9co.jpg 014142d62ifzbp6mlvbfpf.jpg 014142wi65zx27uuik7b72.jpg 014142jedkvitsstd11edz.jpg 014143lp9nddyax8yyypzd.jpg




开通VIP免费下载本站所有资源---点这里
新手必看:资源下载、资源播放、字幕使用、等常见问题---点这里
回复

使用道具 举报

发表于 2018-2-3 19:10:38 | 显示全部楼层
perfrct!!!!!!!!!!!!
开通VIP免费下载本站所有资源---点这里
新手必看:资源下载、资源播放、字幕使用、等常见问题---点这里
回复

使用道具 举报

发表于 2018-2-3 19:12:35 | 显示全部楼层
更精彩截图从吞吞吐吐吞吞吐吐吞吞吐吐他吞吞吐吐他吞吞吐吐
开通VIP免费下载本站所有资源---点这里
新手必看:资源下载、资源播放、字幕使用、等常见问题---点这里
回复 支持 反对

使用道具 举报

发表于 2018-2-3 20:44:09 | 显示全部楼层
点错,应该下1080 5.1这个,谢谢板主分享!
开通VIP免费下载本站所有资源---点这里
新手必看:资源下载、资源播放、字幕使用、等常见问题---点这里
回复 支持 反对

使用道具 举报

发表于 2018-2-3 20:46:05 | 显示全部楼层
没钱了,继续打工赚钱
开通VIP免费下载本站所有资源---点这里
新手必看:资源下载、资源播放、字幕使用、等常见问题---点这里
回复 支持 反对

使用道具 举报

发表于 2018-2-3 23:53:24 | 显示全部楼层
多谢了, 下载收藏!
开通VIP免费下载本站所有资源---点这里
新手必看:资源下载、资源播放、字幕使用、等常见问题---点这里
回复 支持 反对

使用道具 举报

发表于 2018-2-3 23:56:09 | 显示全部楼层
运气好差啊,今天
开通VIP免费下载本站所有资源---点这里
新手必看:资源下载、资源播放、字幕使用、等常见问题---点这里
回复 支持 反对

使用道具 举报

发表于 2018-2-3 23:59:54 | 显示全部楼层
运气好差啊,今天
开通VIP免费下载本站所有资源---点这里
新手必看:资源下载、资源播放、字幕使用、等常见问题---点这里
回复 支持 反对

使用道具 举报

发表于 2018-2-4 10:28:56 | 显示全部楼层

多谢了, 下载收藏!
开通VIP免费下载本站所有资源---点这里
新手必看:资源下载、资源播放、字幕使用、等常见问题---点这里
回复 支持 反对

使用道具 举报

发表于 2018-2-4 11:13:58 | 显示全部楼层
多谢了, 下载收藏!
开通VIP免费下载本站所有资源---点这里
新手必看:资源下载、资源播放、字幕使用、等常见问题---点这里
回复 支持 反对

使用道具 举报

懒得打字嘛,点击右侧快捷回复 【右侧内容,后台自定义】
您需要登录后才可以回帖 登录 | 立即加入

本版积分规则

现在加入蓝光电影网,注册一个账号

QQ| 手机版|小黑屋| 蓝光电影网 |网站地图

Copyright © 2015-2019 Comsenz Inc.  Template by 蓝光电影网 All Rights Reserved.

Powered by 蓝光电影网 X3.4

特别声明:本站所有资源均由网上收集而来,版权归原影音公司所有,如果侵犯了你的权益,请通知我们,我们会及时删除侵权内容.

快速回复 返回顶部 返回列表