找回密码

蓝光电影网

查看: 5023|回复: 49

南极3D:在边缘 Antarctica.On.the.Edge.2014.1080p.BluRay.x264.DTS-SWTYBLZ 3.39GB

[复制链接]
  • TA的每日心情
    开心
    19 小时前
  • 签到天数: 180 天

    [LV.7]常住居民III

     成长值: 20545

    发表于 2018-2-3 17:35:50 | 显示全部楼层 |阅读模式

    马上注册,获取最新影视资讯,享用更多功能,让你轻松玩转蓝光电影网。

    您需要 登录 才可以下载或查看,没有帐号?立即加入

    x
    014105ylk7vm9400ssol4l.jpg
    ◎译  名 南极3D:在边缘
    ◎片  名 Antarctica 3D: On the Edge
    ◎年  代 2014
    ◎产  地 美国
    ◎类  别 纪录片/短片
    ◎语  言 英语
    ◎上映日期 2014-10-19(美国)
    ◎IMDb评分  8.3/10 from 11 users
    ◎IMDb链接  http://www.imdb.com/title/tt4527224/
    ◎豆瓣评分 0/10 from 0 users
    ◎豆瓣链接 https://movie.douban.com/subject/26438479/
    ◎片  长 40分钟
    ◎导  演 Jon Bowermaster
    ◎主  演 Tilda Swinton

    ◎简  介

      None
    • Video
    • ID                                       : 1
    • Format                                   : AVC
    • Format/Info                              : Advanced Video Codec
    • Format profile                           : High@L4.1
    • Format settings                          : CABAC / 5 Ref Frames
    • Format settings, CABAC                   : Yes
    • Format settings, ReFrames                : 5 frames
    • Codec ID                                 : V_MPEG4/ISO/AVC
    • Duration                                 : 36 min 45 s
    • Bit rate                                 : 11.7 Mb/s
    • Width                                    : 1 920 pixels
    • Height                                   : 1 080 pixels
    • Display aspect ratio                     : 16:9
    • Frame rate mode                          : Constant
    • Frame rate                               : 23.976 (24000/1001) FPS
    • Color space                              : YUV
    • Chroma subsampling                       : 4:2:0
    • Bit depth                                : 8 bits
    • Scan type                                : Progressive
    • Bits/(Pixel*Frame)                       : 0.235
    • Stream size                              : 3.00GB (88%)
    • Title                                    : Antarctica.On.the.Edge.2014.1080p.BluRay.x264.DTS-HD.MA.5.1-SWTYBLZ
    • Writing library                          : x264 core 148 r2795M aaa9aa8
    • Encoding settings                        : cabac=1 / ref=5 / deblock=1:0:0 / analyse=0x3:0x133 / me=umh / subme=10 / psy=1 / psy_rd=1.00:0.00 / mixed_ref=1 / me_range=24 / chroma_me=1 / trellis=2 / 8x8dct=1 / cqm=0 / deadzone=21,11 / fast_pskip=1 / chroma_qp_offset=-2 / threads=24 / lookahead_threads=4 / sliced_threads=0 / nr=0 / decimate=1 / interlaced=0 / bluray_compat=0 / constrained_intra=0 / bframes=8 / b_pyramid=2 / b_adapt=2 / b_bias=0 / direct=3 / weightb=1 / open_gop=0 / weightp=2 / keyint=240 / keyint_min=24 / scenecut=40 / intra_refresh=0 / rc_lookahead=60 / rc=crf / mbtree=1 / crf=15.0 / qcomp=0.60 / qpmin=0 / qpmax=69 / qpstep=4 / ip_ratio=1.40 / aq=1:1.00
    • Default                                  : Yes
    • Forced                                   : No
    • Audio
    • ID                                       : 2
    • Format                                   : DTS
    • Format/Info                              : Digital Theater Systems
    • Codec ID                                 : A_DTS
    • Duration                                 : 37 min 14 s
    • Bit rate mode                            : Constant
    • Bit rate                                 : 1 509 kb/s
    • Channel(s)                               : 6 channels
    • Channel positions                        : Front: L C R, Side: L R, LFE
    • Sampling rate                            : 48.0 kHz
    • Frame rate                               : 93.750 FPS (512 SPF)
    • Bit depth                                : 24 bits
    • Compression mode                         : Lossy
    • Stream size                              : 402 MiB (12%)
    • Title                                    : Antarctica.On.the.Edge.2014.1080p.BluRay.x264.DTS-SWTYBLZ
    • Language                                 : English
    • Default                                  : Yes
    • Forced                                   : No
    • Text
    • ID                                       : 3
    • Format                                   : UTF-8
    • Codec ID                                 : S_TEXT/UTF8
    • Codec ID/Info                            : UTF-8 Plain Text
    • Duration                                 : 32 min 11 s
    • Bit rate                                 : 68 b/s
    • Count of elements                        : 348
    • Stream size                              : 16.2 KiB (0%)
    • Language                                 : English
    • Default                                  : Yes
    • Forced                                   : No
    • Menu
    • 00:00:00.000                             : en:00:00:00.000
    • 00:02:31.735                             : en:00:02:31.735
    • 00:03:27.833                             : en:00:03:27.833
    • 00:05:08.308                             : en:00:05:08.308
    • 00:07:06.718                             : en:00:07:06.718
    • 00:08:50.780                             : en:00:08:50.780
    • 00:11:35.111                             : en:00:11:35.111
    • 00:13:09.205                             : en:00:13:09.205
    • 00:14:23.488                             : en:00:14:23.488
    • 00:15:53.661                             : en:00:15:53.661
    • 00:18:25.021                             : en:00:18:25.021
    • 00:19:22.787                             : en:00:19:22.787
    • 00:20:52.877                             : en:00:20:52.877
    • 00:22:28.347                             : en:00:22:28.347
    • 00:25:37.619                             : en:00:25:37.619
    • 00:27:12.047                             : en:00:27:12.047
    • 00:29:59.840                             : en:00:29:59.840
    • 00:33:41.895                             : en:00:33:41.895

    复制代码
    014106sxp3ad02z435bkap.jpg 014106fzqznbz9qzkqdrre.jpg 014106or2rczuruo90r9ou.jpg 014107swtqrf3ttpi023ou.jpg 014107skck128mggr8qkgc.jpg 014108r4rnokpi8pr9dn8f.jpg



    Antarctica.On.the.Edge.2014.1080p.BluRay.x264.DTS-SWTYBLZ.torrent (68.38 KB, 下载次数: 68)
    开通VIP免费下载本站所有资源---点这里
    新手必看:资源下载、资源播放、字幕使用、等常见问题---点这里
    回复

    使用道具 举报

  • TA的每日心情
    开心
    2019-3-27 20:50
  • 签到天数: 2 天

    [LV.1]初来乍到

    发表于 2018-2-3 20:41:55 | 显示全部楼层
    坐上了沙发...谢谢分享啊!
    [发帖际遇]: oldsan 发帖时在路边捡到 2 蓝光币,偷偷放进了口袋. 幸运榜 / 衰神榜
    开通VIP免费下载本站所有资源---点这里
    新手必看:资源下载、资源播放、字幕使用、等常见问题---点这里
    回复 支持 反对

    使用道具 举报

    该用户从未签到

    发表于 2018-2-3 23:50:40 | 显示全部楼层
    感谢,感谢!
    开通VIP免费下载本站所有资源---点这里
    新手必看:资源下载、资源播放、字幕使用、等常见问题---点这里
    回复

    使用道具 举报

  • TA的每日心情
    开心
    2019-5-15 07:07
  • 签到天数: 120 天

    [LV.7]常住居民III

    发表于 2018-2-4 01:15:21 | 显示全部楼层
    谢谢分享啊
    开通VIP免费下载本站所有资源---点这里
    新手必看:资源下载、资源播放、字幕使用、等常见问题---点这里
    回复 支持 反对

    使用道具 举报

    该用户从未签到

    发表于 2018-2-4 14:08:06 | 显示全部楼层
    多谢了, 下载收藏!
    开通VIP免费下载本站所有资源---点这里
    新手必看:资源下载、资源播放、字幕使用、等常见问题---点这里
    回复 支持 反对

    使用道具 举报

  • TA的每日心情
    开心
    2019-5-15 14:55
  • 签到天数: 2 天

    [LV.1]初来乍到

    发表于 2018-2-16 20:38:12 | 显示全部楼层
    感谢,感谢!
    开通VIP免费下载本站所有资源---点这里
    新手必看:资源下载、资源播放、字幕使用、等常见问题---点这里
    回复

    使用道具 举报

    该用户从未签到

    发表于 2018-2-20 23:31:31 | 显示全部楼层
    谢谢楼主无私分享
    开通VIP免费下载本站所有资源---点这里
    新手必看:资源下载、资源播放、字幕使用、等常见问题---点这里
    回复 支持 反对

    使用道具 举报

  • TA的每日心情
    开心
    昨天 08:07
  • 签到天数: 79 天

    [LV.6]常住居民II

    发表于 2018-3-1 14:58:13 | 显示全部楼层
    不错的资源,收藏.
    开通VIP免费下载本站所有资源---点这里
    新手必看:资源下载、资源播放、字幕使用、等常见问题---点这里
    回复 支持 反对

    使用道具 举报

  • TA的每日心情
    擦汗
    前天 08:20
  • 签到天数: 178 天

    [LV.7]常住居民III

    已抛锚 成长值: 310

    发表于 2018-3-14 19:19:29 | 显示全部楼层
    强烈支持楼主ing……
    [发帖际遇]: 一个袋子砸在了 kenzhou77 头上,kenzhou77 赚了 1 蓝光币. 幸运榜 / 衰神榜
    开通VIP免费下载本站所有资源---点这里
    新手必看:资源下载、资源播放、字幕使用、等常见问题---点这里
    回复 支持 反对

    使用道具 举报

    该用户从未签到

    已抛锚 成长值: 5590

    发表于 2018-3-19 17:51:09 | 显示全部楼层
    感谢楼主,非常感谢!
    [发帖际遇]: stguirong 乐于助人,奖励 2 蓝光币. 幸运榜 / 衰神榜
    开通VIP免费下载本站所有资源---点这里
    新手必看:资源下载、资源播放、字幕使用、等常见问题---点这里
    回复 支持 反对

    使用道具 举报

    *滑动验证:
    懒得打字嘛,点击右侧快捷回复 【右侧内容,后台自定义】
    您需要登录后才可以回帖 登录 | 立即加入

    本版积分规则

    现在加入蓝光电影网,注册一个账号

    QQ| 手机版|小黑屋| 蓝光电影网 |网站地图

    Copyright © 20013-2018 Comsenz Inc.  Template by 蓝光电影论坛 All Rights Reserved.

    Powered by 高清电影网 X3.4
    特别声明:本站所有资源均由网上收集而来,版权归原影音公司所有,如果侵犯了你的权益,请通知我们,我们会及时删除侵权内容.

    快速回复 返回顶部 返回列表