找回密码

蓝光电影网

查看: 5543|回复: 52

南极3D:在边缘 Antarctica.On.the.Edge.2014.1080p.BluRay.x264.DTS-SWTYBLZ 3.39GB

[复制链接]

 成长值: 21925

发表于 2018-2-3 17:35:50 | 显示全部楼层 |阅读模式
014105ylk7vm9400ssol4l.jpg
◎译  名 南极3D:在边缘
◎片  名 Antarctica 3D: On the Edge
◎年  代 2014
◎产  地 美国
◎类  别 纪录片/短片
◎语  言 英语
◎上映日期 2014-10-19(美国)
◎IMDb评分  8.3/10 from 11 users
◎IMDb链接  http://www.imdb.com/title/tt4527224/
◎豆瓣评分 0/10 from 0 users
◎豆瓣链接 https://movie.douban.com/subject/26438479/
◎片  长 40分钟
◎导  演 Jon Bowermaster
◎主  演 Tilda Swinton

◎简  介

  None


  1. Video
  2. ID                                       : 1
  3. Format                                   : AVC
  4. Format/Info                              : Advanced Video Codec
  5. Format profile                           : [email]High@L4.1[/email]
  6. Format settings                          : CABAC / 5 Ref Frames
  7. Format settings, CABAC                   : Yes
  8. Format settings, ReFrames                : 5 frames
  9. Codec ID                                 : V_MPEG4/ISO/AVC
  10. Duration                                 : 36 min 45 s
  11. Bit rate                                 : 11.7 Mb/s
  12. Width                                    : 1 920 pixels
  13. Height                                   : 1 080 pixels
  14. Display aspect ratio                     : 16:9
  15. Frame rate mode                          : Constant
  16. Frame rate                               : 23.976 (24000/1001) FPS
  17. Color space                              : YUV
  18. Chroma subsampling                       : 4:2:0
  19. Bit depth                                : 8 bits
  20. Scan type                                : Progressive
  21. Bits/(Pixel*Frame)                       : 0.235
  22. Stream size                              : 3.00GB (88%)
  23. Title                                    : Antarctica.On.the.Edge.2014.1080p.BluRay.x264.DTS-HD.MA.5.1-SWTYBLZ
  24. Writing library                          : x264 core 148 r2795M aaa9aa8
  25. Encoding settings                        : cabac=1 / ref=5 / deblock=1:0:0 / analyse=0x3:0x133 / me=umh / subme=10 / psy=1 / psy_rd=1.00:0.00 / mixed_ref=1 / me_range=24 / chroma_me=1 / trellis=2 / 8x8dct=1 / cqm=0 / deadzone=21,11 / fast_pskip=1 / chroma_qp_offset=-2 / threads=24 / lookahead_threads=4 / sliced_threads=0 / nr=0 / decimate=1 / interlaced=0 / bluray_compat=0 / constrained_intra=0 / bframes=8 / b_pyramid=2 / b_adapt=2 / b_bias=0 / direct=3 / weightb=1 / open_gop=0 / weightp=2 / keyint=240 / keyint_min=24 / scenecut=40 / intra_refresh=0 / rc_lookahead=60 / rc=crf / mbtree=1 / crf=15.0 / qcomp=0.60 / qpmin=0 / qpmax=69 / qpstep=4 / ip_ratio=1.40 / aq=1:1.00
  26. Default                                  : Yes
  27. Forced                                   : No

  28. Audio
  29. ID                                       : 2
  30. Format                                   : DTS
  31. Format/Info                              : Digital Theater Systems
  32. Codec ID                                 : A_DTS
  33. Duration                                 : 37 min 14 s
  34. Bit rate mode                            : Constant
  35. Bit rate                                 : 1 509 kb/s
  36. Channel(s)                               : 6 channels
  37. Channel positions                        : Front: L C R, Side: L R, LFE
  38. Sampling rate                            : 48.0 kHz
  39. Frame rate                               : 93.750 FPS (512 SPF)
  40. Bit depth                                : 24 bits
  41. Compression mode                         : Lossy
  42. Stream size                              : 402 MiB (12%)
  43. Title                                    : Antarctica.On.the.Edge.2014.1080p.BluRay.x264.DTS-SWTYBLZ
  44. Language                                 : English
  45. Default                                  : Yes
  46. Forced                                   : No

  47. Text
  48. ID                                       : 3
  49. Format                                   : UTF-8
  50. Codec ID                                 : S_TEXT/UTF8
  51. Codec ID/Info                            : UTF-8 Plain Text
  52. Duration                                 : 32 min 11 s
  53. Bit rate                                 : 68 b/s
  54. Count of elements                        : 348
  55. Stream size                              : 16.2 KiB (0%)
  56. Language                                 : English
  57. Default                                  : Yes
  58. Forced                                   : No

  59. Menu
  60. 00:00:00.000                             : en:00:00:00.000
  61. 00:02:31.735                             : en:00:02:31.735
  62. 00:03:27.833                             : en:00:03:27.833
  63. 00:05:08.308                             : en:00:05:08.308
  64. 00:07:06.718                             : en:00:07:06.718
  65. 00:08:50.780                             : en:00:08:50.780
  66. 00:11:35.111                             : en:00:11:35.111
  67. 00:13:09.205                             : en:00:13:09.205
  68. 00:14:23.488                             : en:00:14:23.488
  69. 00:15:53.661                             : en:00:15:53.661
  70. 00:18:25.021                             : en:00:18:25.021
  71. 00:19:22.787                             : en:00:19:22.787
  72. 00:20:52.877                             : en:00:20:52.877
  73. 00:22:28.347                             : en:00:22:28.347
  74. 00:25:37.619                             : en:00:25:37.619
  75. 00:27:12.047                             : en:00:27:12.047
  76. 00:29:59.840                             : en:00:29:59.840
  77. 00:33:41.895                             : en:00:33:41.895



复制代码
复制代码
014106sxp3ad02z435bkap.jpg 014106fzqznbz9qzkqdrre.jpg 014106or2rczuruo90r9ou.jpg 014107swtqrf3ttpi023ou.jpg 014107skck128mggr8qkgc.jpg 014108r4rnokpi8pr9dn8f.jpg



开通VIP免费下载本站所有资源---点这里
新手必看:资源下载、资源播放、字幕使用、等常见问题---点这里
回复

使用道具 举报

发表于 2018-2-3 20:41:55 | 显示全部楼层
坐上了沙发...谢谢分享啊!
开通VIP免费下载本站所有资源---点这里
新手必看:资源下载、资源播放、字幕使用、等常见问题---点这里
回复 支持 反对

使用道具 举报

发表于 2018-2-3 23:50:40 | 显示全部楼层
感谢,感谢!
开通VIP免费下载本站所有资源---点这里
新手必看:资源下载、资源播放、字幕使用、等常见问题---点这里
回复

使用道具 举报

发表于 2018-2-4 01:15:21 | 显示全部楼层
谢谢分享啊
开通VIP免费下载本站所有资源---点这里
新手必看:资源下载、资源播放、字幕使用、等常见问题---点这里
回复 支持 反对

使用道具 举报

发表于 2018-2-4 14:08:06 | 显示全部楼层
多谢了, 下载收藏!
开通VIP免费下载本站所有资源---点这里
新手必看:资源下载、资源播放、字幕使用、等常见问题---点这里
回复 支持 反对

使用道具 举报

发表于 2018-2-16 20:38:12 | 显示全部楼层
感谢,感谢!
开通VIP免费下载本站所有资源---点这里
新手必看:资源下载、资源播放、字幕使用、等常见问题---点这里
回复

使用道具 举报

发表于 2018-2-20 23:31:31 | 显示全部楼层
谢谢楼主无私分享
开通VIP免费下载本站所有资源---点这里
新手必看:资源下载、资源播放、字幕使用、等常见问题---点这里
回复 支持 反对

使用道具 举报

发表于 2018-3-1 14:58:13 | 显示全部楼层
不错的资源,收藏.
开通VIP免费下载本站所有资源---点这里
新手必看:资源下载、资源播放、字幕使用、等常见问题---点这里
回复 支持 反对

使用道具 举报

已抛锚 成长值: 250

发表于 2018-3-14 19:19:29 | 显示全部楼层
强烈支持楼主ing……
开通VIP免费下载本站所有资源---点这里
新手必看:资源下载、资源播放、字幕使用、等常见问题---点这里
回复 支持 反对

使用道具 举报

已抛锚 成长值: 5550

发表于 2018-3-19 17:51:09 | 显示全部楼层
感谢楼主,非常感谢!
开通VIP免费下载本站所有资源---点这里
新手必看:资源下载、资源播放、字幕使用、等常见问题---点这里
回复 支持 反对

使用道具 举报

懒得打字嘛,点击右侧快捷回复 【右侧内容,后台自定义】
您需要登录后才可以回帖 登录 | 立即加入

本版积分规则

现在加入蓝光电影网,注册一个账号

QQ| 手机版|小黑屋| 蓝光电影网 |网站地图

Copyright © 2015-2019 Comsenz Inc.  Template by 蓝光电影网 All Rights Reserved.

Powered by 蓝光电影网 X3.4

特别声明:本站所有资源均由网上收集而来,版权归原影音公司所有,如果侵犯了你的权益,请通知我们,我们会及时删除侵权内容.

快速回复 返回顶部 返回列表