找回密码

蓝光电影网

查看: 5870|回复: 80

冰河时代的巨人 Titans.of.the.Ice.Age.2013.1080p.BluRay.x264.DTS-HD.MA.5.1-SWTYBLZ 4.20GB

  [复制链接]

 成长值: 21925

发表于 2018-2-3 17:35:22 | 显示全部楼层 |阅读模式
013921a4k4gg4jgazlgq4d.jpg
◎译  名 冰河时代的巨人
◎片  名 Titans of the Ice Age
◎年  代 2013
◎产  地 美国
◎类  别 纪录片
◎语  言 英语
◎上映日期 2013-02-15
◎IMDb评分  6.9/10 from 106 users
◎IMDb链接  http://www.imdb.com/title/tt2653370/
◎豆瓣评分 7.5/10 from 22 users
◎豆瓣链接 https://movie.douban.com/subject/22991882/
◎导  演 大卫·克拉克 David Clark
◎主  演 克里斯托弗·普卢默 Christopher Plummer

◎简  介

  《冰河时代的巨人》引领观众回到现代文明诞生前的一万年前,在那个历史时期,人类与巨型动物共同生存在奇异壮观的冰封大陆上。本片尽可能真实的还原了北美、欧洲、亚洲大陆的壮丽地貌,利用炫目的CGI技术重塑了长毛象、剑齿虎、冰原狼等冰河时代生物,对冰河时代感兴趣的观众们来说,本片绝对是不应错过的一次饕餮盛宴。与此同时,影片还探索了可持续环境发展,在极端环境中存活等重要课题。


  1. Video
  2. ID                                       : 1
  3. Format                                   : AVC
  4. Format/Info                              : Advanced Video Codec
  5. Format profile                           : [email]High@L4.1[/email]
  6. Format settings                          : CABAC / 5 Ref Frames
  7. Format settings, CABAC                   : Yes
  8. Format settings, ReFrames                : 5 frames
  9. Codec ID                                 : V_MPEG4/ISO/AVC
  10. Duration                                 : 38 min 4 s
  11. Bit rate                                 : 11.6 Mb/s
  12. Width                                    : 1 920 pixels
  13. Height                                   : 1 080 pixels
  14. Display aspect ratio                     : 16:9
  15. Frame rate mode                          : Constant
  16. Frame rate                               : 23.976 (24000/1001) FPS
  17. Color space                              : YUV
  18. Chroma subsampling                       : 4:2:0
  19. Bit depth                                : 8 bits
  20. Scan type                                : Progressive
  21. Bits/(Pixel*Frame)                       : 0.234
  22. Stream size                              : 3.09GB (74%)
  23. Title                                    : Titans.of.the.Ice.Age.2013.1080p.BluRay.x264.DTS-HD.MA.5.1-SWTYBLZ
  24. Writing library                          : x264 core 148 r2795M aaa9aa8
  25. Encoding settings                        : cabac=1 / ref=5 / deblock=1:0:0 / analyse=0x3:0x133 / me=umh / subme=10 / psy=1 / psy_rd=1.00:0.00 / mixed_ref=1 / me_range=24 / chroma_me=1 / trellis=2 / 8x8dct=1 / cqm=0 / deadzone=21,11 / fast_pskip=1 / chroma_qp_offset=-2 / threads=24 / lookahead_threads=4 / sliced_threads=0 / nr=0 / decimate=1 / interlaced=0 / bluray_compat=0 / constrained_intra=0 / bframes=8 / b_pyramid=2 / b_adapt=2 / b_bias=0 / direct=3 / weightb=1 / open_gop=0 / weightp=2 / keyint=240 / keyint_min=24 / scenecut=40 / intra_refresh=0 / rc_lookahead=60 / rc=crf / mbtree=1 / crf=17.0 / qcomp=0.60 / qpmin=0 / qpmax=69 / qpstep=4 / ip_ratio=1.40 / aq=1:1.00
  26. Default                                  : Yes
  27. Forced                                   : No

  28. Audio
  29. ID                                       : 2
  30. Format                                   : DTS
  31. Format/Info                              : Digital Theater Systems
  32. Format profile                           : MA / Core
  33. Codec ID                                 : A_DTS
  34. Duration                                 : 38 min 33 s
  35. Bit rate mode                            : Variable / Constant
  36. Bit rate                                 : 3 997 kb/s / 1 509 kb/s
  37. Channel(s)                               : 6 channels
  38. Channel positions                        : Front: L C R, Side: L R, LFE
  39. Sampling rate                            : 48.0 kHz
  40. Frame rate                               : 93.750 FPS (512 SPF)
  41. Bit depth                                : 24 bits
  42. Compression mode                         : Lossless / Lossy
  43. Stream size                              : 1.08GB (26%)
  44. Title                                    : Titans.of.the.Ice.Age.2013.1080p.BluRay.x264.DTS-HD.MA.5.1-SWTYBLZ
  45. Language                                 : English
  46. Default                                  : Yes
  47. Forced                                   : No

  48. Text #1
  49. ID                                       : 3
  50. Format                                   : UTF-8
  51. Codec ID                                 : S_TEXT/UTF8
  52. Codec ID/Info                            : UTF-8 Plain Text
  53. Duration                                 : 34 min 36 s
  54. Bit rate                                 : 66 b/s
  55. Count of elements                        : 335
  56. Stream size                              : 16.8 KiB (0%)
  57. Title                                    : English-SRT
  58. Language                                 : English
  59. Default                                  : Yes
  60. Forced                                   : No

  61. Text #2
  62. ID                                       : 4
  63. Format                                   : PGS
  64. Muxing mode                              : zlib
  65. Codec ID                                 : S_HDMV/PGS
  66. Codec ID/Info                            : Picture based subtitle format used on BDs/HD-DVDs
  67. Duration                                 : 35 min 12 s
  68. Bit rate                                 : 42.6 kb/s
  69. Count of elements                        : 792
  70. Stream size                              : 10.7 MiB (0%)
  71. Language                                 : English
  72. Default                                  : No
  73. Forced                                   : No

  74. Text #3
  75. ID                                       : 5
  76. Format                                   : PGS
  77. Muxing mode                              : zlib
  78. Codec ID                                 : S_HDMV/PGS
  79. Codec ID/Info                            : Picture based subtitle format used on BDs/HD-DVDs
  80. Duration                                 : 37 min 3 s
  81. Bit rate                                 : 41.7 kb/s
  82. Count of elements                        : 666
  83. Stream size                              : 11.0 MiB (0%)
  84. Language                                 : French
  85. Default                                  : No
  86. Forced                                   : No

  87. Text #4
  88. ID                                       : 6
  89. Format                                   : PGS
  90. Muxing mode                              : zlib
  91. Codec ID                                 : S_HDMV/PGS
  92. Codec ID/Info                            : Picture based subtitle format used on BDs/HD-DVDs
  93. Duration                                 : 37 min 3 s
  94. Bit rate                                 : 36.2 kb/s
  95. Count of elements                        : 664
  96. Stream size                              : 9.60 MiB (0%)
  97. Language                                 : Danish
  98. Default                                  : No
  99. Forced                                   : No

  100. Text #5
  101. ID                                       : 7
  102. Format                                   : PGS
  103. Muxing mode                              : zlib
  104. Codec ID                                 : S_HDMV/PGS
  105. Codec ID/Info                            : Picture based subtitle format used on BDs/HD-DVDs
  106. Duration                                 : 37 min 3 s
  107. Bit rate                                 : 40.7 kb/s
  108. Count of elements                        : 664
  109. Stream size                              : 10.8 MiB (0%)
  110. Language                                 : Dutch
  111. Default                                  : No
  112. Forced                                   : No

  113. Text #6
  114. ID                                       : 8
  115. Format                                   : PGS
  116. Muxing mode                              : zlib
  117. Codec ID                                 : S_HDMV/PGS
  118. Codec ID/Info                            : Picture based subtitle format used on BDs/HD-DVDs
  119. Duration                                 : 37 min 3 s
  120. Bit rate                                 : 38.8 kb/s
  121. Count of elements                        : 664
  122. Stream size                              : 10.3 MiB (0%)
  123. Language                                 : Finnish
  124. Default                                  : No
  125. Forced                                   : No

  126. Text #7
  127. ID                                       : 9
  128. Format                                   : PGS
  129. Muxing mode                              : zlib
  130. Codec ID                                 : S_HDMV/PGS
  131. Codec ID/Info                            : Picture based subtitle format used on BDs/HD-DVDs
  132. Duration                                 : 37 min 3 s
  133. Bit rate                                 : 41.3 kb/s
  134. Count of elements                        : 664
  135. Stream size                              : 10.9 MiB (0%)
  136. Language                                 : German
  137. Default                                  : No
  138. Forced                                   : No

  139. Text #8
  140. ID                                       : 10
  141. Format                                   : PGS
  142. Muxing mode                              : zlib
  143. Codec ID                                 : S_HDMV/PGS
  144. Codec ID/Info                            : Picture based subtitle format used on BDs/HD-DVDs
  145. Duration                                 : 37 min 3 s
  146. Bit rate                                 : 36.2 kb/s
  147. Count of elements                        : 664
  148. Stream size                              : 9.60 MiB (0%)
  149. Language                                 : Norwegian
  150. Default                                  : No
  151. Forced                                   : No

  152. Text #9
  153. ID                                       : 11
  154. Format                                   : PGS
  155. Muxing mode                              : zlib
  156. Codec ID                                 : S_HDMV/PGS
  157. Codec ID/Info                            : Picture based subtitle format used on BDs/HD-DVDs
  158. Duration                                 : 37 min 3 s
  159. Bit rate                                 : 36.2 kb/s
  160. Count of elements                        : 664
  161. Stream size                              : 9.59 MiB (0%)
  162. Language                                 : Swedish
  163. Default                                  : No
  164. Forced                                   : No

  165. Menu
  166. 00:00:00.000                             : en:00:00:00.000
  167. 00:02:38.408                             : en:00:02:38.408
  168. 00:04:45.368                             : en:00:04:45.368
  169. 00:06:17.168                             : en:00:06:17.168
  170. 00:09:14.387                             : en:00:09:14.387
  171. 00:11:03.788                             : en:00:11:03.788
  172. 00:14:04.594                             : en:00:14:04.594
  173. 00:16:29.655                             : en:00:16:29.655
  174. 00:18:29.900                             : en:00:18:29.900
  175. 00:19:40.638                             : en:00:19:40.638
  176. 00:21:39.256                             : en:00:21:39.256
  177. 00:22:16.168                             : en:00:22:16.168
  178. 00:23:29.325                             : en:00:23:29.325
  179. 00:26:55.364                             : en:00:26:55.364
  180. 00:28:36.089                             : en:00:28:36.089
  181. 00:29:43.365                             : en:00:29:43.365
  182. 00:33:13.366                             : en:00:33:13.366
  183. 00:35:58.865                             : en:00:35:58.865



复制代码
复制代码
013921bzfhypygg1emzsn1.jpg 013922yhnrbxhzvmzm9zqm.jpg 013922cygyafzo4yyyyeku.jpg 013923d535cjz8qyj5j7bq.jpg 013923mvsvjngxtnwsxtj1.jpg 013923dsvbx8cfbxcm6edc.jpg



开通VIP免费下载本站所有资源---点这里
新手必看:资源下载、资源播放、字幕使用、等常见问题---点这里
回复

使用道具 举报

发表于 2018-2-3 19:11:50 | 显示全部楼层
还以为是动画片。。谢谢分享
开通VIP免费下载本站所有资源---点这里
新手必看:资源下载、资源播放、字幕使用、等常见问题---点这里
回复 支持 反对

使用道具 举报

发表于 2018-2-3 20:38:40 | 显示全部楼层
好东西啊,可惜没钱了
开通VIP免费下载本站所有资源---点这里
新手必看:资源下载、资源播放、字幕使用、等常见问题---点这里
回复 支持 反对

使用道具 举报

发表于 2018-2-4 11:15:16 | 显示全部楼层
多谢了, 下载收藏!谢谢分享!
开通VIP免费下载本站所有资源---点这里
新手必看:资源下载、资源播放、字幕使用、等常见问题---点这里
回复 支持 反对

使用道具 举报

发表于 2018-2-4 21:17:09 | 显示全部楼层
谢谢分享,支持哈,谢谢
开通VIP免费下载本站所有资源---点这里
新手必看:资源下载、资源播放、字幕使用、等常见问题---点这里
回复 支持 反对

使用道具 举报

发表于 2018-2-5 08:27:28 | 显示全部楼层
就喜欢这种片子~~
开通VIP免费下载本站所有资源---点这里
新手必看:资源下载、资源播放、字幕使用、等常见问题---点这里
回复 支持 反对

使用道具 举报

发表于 2018-2-5 19:12:17 | 显示全部楼层
谢谢分享,支持哈,谢谢
开通VIP免费下载本站所有资源---点这里
新手必看:资源下载、资源播放、字幕使用、等常见问题---点这里
回复 支持 反对

使用道具 举报

发表于 2018-2-7 00:13:01 | 显示全部楼层
很喜欢这方面题材的片子,谢谢楼主发片!
开通VIP免费下载本站所有资源---点这里
新手必看:资源下载、资源播放、字幕使用、等常见问题---点这里
回复 支持 反对

使用道具 举报

发表于 2018-2-9 22:10:36 | 显示全部楼层
好东西呀!
开通VIP免费下载本站所有资源---点这里
新手必看:资源下载、资源播放、字幕使用、等常见问题---点这里
回复

使用道具 举报

发表于 2018-2-20 11:56:30 | 显示全部楼层
好东西啊,可惜没钱了
开通VIP免费下载本站所有资源---点这里
新手必看:资源下载、资源播放、字幕使用、等常见问题---点这里
回复 支持 反对

使用道具 举报

懒得打字嘛,点击右侧快捷回复 【右侧内容,后台自定义】
您需要登录后才可以回帖 登录 | 立即加入

本版积分规则

现在加入蓝光电影网,注册一个账号

QQ| 手机版|小黑屋| 蓝光电影网 |网站地图

Copyright © 2015-2019 Comsenz Inc.  Template by 蓝光电影网 All Rights Reserved.

Powered by 蓝光电影网 X3.4

特别声明:本站所有资源均由网上收集而来,版权归原影音公司所有,如果侵犯了你的权益,请通知我们,我们会及时删除侵权内容.

快速回复 返回顶部 返回列表