找回密码

蓝光电影网

查看: 4985|回复: 76

冰河时代的巨人 Titans.of.the.Ice.Age.2013.1080p.BluRay.x264.DTS-HD.MA.5.1-SWTYBLZ 4.20GB

  [复制链接]
  • TA的每日心情
    开心
    19 小时前
  • 签到天数: 180 天

    [LV.7]常住居民III

     成长值: 20545

    发表于 2018-2-3 17:35:22 | 显示全部楼层 |阅读模式

    马上注册,获取最新影视资讯,享用更多功能,让你轻松玩转蓝光电影网。

    您需要 登录 才可以下载或查看,没有帐号?立即加入

    x
    013921a4k4gg4jgazlgq4d.jpg
    ◎译  名 冰河时代的巨人
    ◎片  名 Titans of the Ice Age
    ◎年  代 2013
    ◎产  地 美国
    ◎类  别 纪录片
    ◎语  言 英语
    ◎上映日期 2013-02-15
    ◎IMDb评分  6.9/10 from 106 users
    ◎IMDb链接  http://www.imdb.com/title/tt2653370/
    ◎豆瓣评分 7.5/10 from 22 users
    ◎豆瓣链接 https://movie.douban.com/subject/22991882/
    ◎导  演 大卫·克拉克 David Clark
    ◎主  演 克里斯托弗·普卢默 Christopher Plummer

    ◎简  介

      《冰河时代的巨人》引领观众回到现代文明诞生前的一万年前,在那个历史时期,人类与巨型动物共同生存在奇异壮观的冰封大陆上。本片尽可能真实的还原了北美、欧洲、亚洲大陆的壮丽地貌,利用炫目的CGI技术重塑了长毛象、剑齿虎、冰原狼等冰河时代生物,对冰河时代感兴趣的观众们来说,本片绝对是不应错过的一次饕餮盛宴。与此同时,影片还探索了可持续环境发展,在极端环境中存活等重要课题。
    • Video
    • ID                                       : 1
    • Format                                   : AVC
    • Format/Info                              : Advanced Video Codec
    • Format profile                           : High@L4.1
    • Format settings                          : CABAC / 5 Ref Frames
    • Format settings, CABAC                   : Yes
    • Format settings, ReFrames                : 5 frames
    • Codec ID                                 : V_MPEG4/ISO/AVC
    • Duration                                 : 38 min 4 s
    • Bit rate                                 : 11.6 Mb/s
    • Width                                    : 1 920 pixels
    • Height                                   : 1 080 pixels
    • Display aspect ratio                     : 16:9
    • Frame rate mode                          : Constant
    • Frame rate                               : 23.976 (24000/1001) FPS
    • Color space                              : YUV
    • Chroma subsampling                       : 4:2:0
    • Bit depth                                : 8 bits
    • Scan type                                : Progressive
    • Bits/(Pixel*Frame)                       : 0.234
    • Stream size                              : 3.09GB (74%)
    • Title                                    : Titans.of.the.Ice.Age.2013.1080p.BluRay.x264.DTS-HD.MA.5.1-SWTYBLZ
    • Writing library                          : x264 core 148 r2795M aaa9aa8
    • Encoding settings                        : cabac=1 / ref=5 / deblock=1:0:0 / analyse=0x3:0x133 / me=umh / subme=10 / psy=1 / psy_rd=1.00:0.00 / mixed_ref=1 / me_range=24 / chroma_me=1 / trellis=2 / 8x8dct=1 / cqm=0 / deadzone=21,11 / fast_pskip=1 / chroma_qp_offset=-2 / threads=24 / lookahead_threads=4 / sliced_threads=0 / nr=0 / decimate=1 / interlaced=0 / bluray_compat=0 / constrained_intra=0 / bframes=8 / b_pyramid=2 / b_adapt=2 / b_bias=0 / direct=3 / weightb=1 / open_gop=0 / weightp=2 / keyint=240 / keyint_min=24 / scenecut=40 / intra_refresh=0 / rc_lookahead=60 / rc=crf / mbtree=1 / crf=17.0 / qcomp=0.60 / qpmin=0 / qpmax=69 / qpstep=4 / ip_ratio=1.40 / aq=1:1.00
    • Default                                  : Yes
    • Forced                                   : No
    • Audio
    • ID                                       : 2
    • Format                                   : DTS
    • Format/Info                              : Digital Theater Systems
    • Format profile                           : MA / Core
    • Codec ID                                 : A_DTS
    • Duration                                 : 38 min 33 s
    • Bit rate mode                            : Variable / Constant
    • Bit rate                                 : 3 997 kb/s / 1 509 kb/s
    • Channel(s)                               : 6 channels
    • Channel positions                        : Front: L C R, Side: L R, LFE
    • Sampling rate                            : 48.0 kHz
    • Frame rate                               : 93.750 FPS (512 SPF)
    • Bit depth                                : 24 bits
    • Compression mode                         : Lossless / Lossy
    • Stream size                              : 1.08GB (26%)
    • Title                                    : Titans.of.the.Ice.Age.2013.1080p.BluRay.x264.DTS-HD.MA.5.1-SWTYBLZ
    • Language                                 : English
    • Default                                  : Yes
    • Forced                                   : No
    • Text #1
    • ID                                       : 3
    • Format                                   : UTF-8
    • Codec ID                                 : S_TEXT/UTF8
    • Codec ID/Info                            : UTF-8 Plain Text
    • Duration                                 : 34 min 36 s
    • Bit rate                                 : 66 b/s
    • Count of elements                        : 335
    • Stream size                              : 16.8 KiB (0%)
    • Title                                    : English-SRT
    • Language                                 : English
    • Default                                  : Yes
    • Forced                                   : No
    • Text #2
    • ID                                       : 4
    • Format                                   : PGS
    • Muxing mode                              : zlib
    • Codec ID                                 : S_HDMV/PGS
    • Codec ID/Info                            : Picture based subtitle format used on BDs/HD-DVDs
    • Duration                                 : 35 min 12 s
    • Bit rate                                 : 42.6 kb/s
    • Count of elements                        : 792
    • Stream size                              : 10.7 MiB (0%)
    • Language                                 : English
    • Default                                  : No
    • Forced                                   : No
    • Text #3
    • ID                                       : 5
    • Format                                   : PGS
    • Muxing mode                              : zlib
    • Codec ID                                 : S_HDMV/PGS
    • Codec ID/Info                            : Picture based subtitle format used on BDs/HD-DVDs
    • Duration                                 : 37 min 3 s
    • Bit rate                                 : 41.7 kb/s
    • Count of elements                        : 666
    • Stream size                              : 11.0 MiB (0%)
    • Language                                 : French
    • Default                                  : No
    • Forced                                   : No
    • Text #4
    • ID                                       : 6
    • Format                                   : PGS
    • Muxing mode                              : zlib
    • Codec ID                                 : S_HDMV/PGS
    • Codec ID/Info                            : Picture based subtitle format used on BDs/HD-DVDs
    • Duration                                 : 37 min 3 s
    • Bit rate                                 : 36.2 kb/s
    • Count of elements                        : 664
    • Stream size                              : 9.60 MiB (0%)
    • Language                                 : Danish
    • Default                                  : No
    • Forced                                   : No
    • Text #5
    • ID                                       : 7
    • Format                                   : PGS
    • Muxing mode                              : zlib
    • Codec ID                                 : S_HDMV/PGS
    • Codec ID/Info                            : Picture based subtitle format used on BDs/HD-DVDs
    • Duration                                 : 37 min 3 s
    • Bit rate                                 : 40.7 kb/s
    • Count of elements                        : 664
    • Stream size                              : 10.8 MiB (0%)
    • Language                                 : Dutch
    • Default                                  : No
    • Forced                                   : No
    • Text #6
    • ID                                       : 8
    • Format                                   : PGS
    • Muxing mode                              : zlib
    • Codec ID                                 : S_HDMV/PGS
    • Codec ID/Info                            : Picture based subtitle format used on BDs/HD-DVDs
    • Duration                                 : 37 min 3 s
    • Bit rate                                 : 38.8 kb/s
    • Count of elements                        : 664
    • Stream size                              : 10.3 MiB (0%)
    • Language                                 : Finnish
    • Default                                  : No
    • Forced                                   : No
    • Text #7
    • ID                                       : 9
    • Format                                   : PGS
    • Muxing mode                              : zlib
    • Codec ID                                 : S_HDMV/PGS
    • Codec ID/Info                            : Picture based subtitle format used on BDs/HD-DVDs
    • Duration                                 : 37 min 3 s
    • Bit rate                                 : 41.3 kb/s
    • Count of elements                        : 664
    • Stream size                              : 10.9 MiB (0%)
    • Language                                 : German
    • Default                                  : No
    • Forced                                   : No
    • Text #8
    • ID                                       : 10
    • Format                                   : PGS
    • Muxing mode                              : zlib
    • Codec ID                                 : S_HDMV/PGS
    • Codec ID/Info                            : Picture based subtitle format used on BDs/HD-DVDs
    • Duration                                 : 37 min 3 s
    • Bit rate                                 : 36.2 kb/s
    • Count of elements                        : 664
    • Stream size                              : 9.60 MiB (0%)
    • Language                                 : Norwegian
    • Default                                  : No
    • Forced                                   : No
    • Text #9
    • ID                                       : 11
    • Format                                   : PGS
    • Muxing mode                              : zlib
    • Codec ID                                 : S_HDMV/PGS
    • Codec ID/Info                            : Picture based subtitle format used on BDs/HD-DVDs
    • Duration                                 : 37 min 3 s
    • Bit rate                                 : 36.2 kb/s
    • Count of elements                        : 664
    • Stream size                              : 9.59 MiB (0%)
    • Language                                 : Swedish
    • Default                                  : No
    • Forced                                   : No
    • Menu
    • 00:00:00.000                             : en:00:00:00.000
    • 00:02:38.408                             : en:00:02:38.408
    • 00:04:45.368                             : en:00:04:45.368
    • 00:06:17.168                             : en:00:06:17.168
    • 00:09:14.387                             : en:00:09:14.387
    • 00:11:03.788                             : en:00:11:03.788
    • 00:14:04.594                             : en:00:14:04.594
    • 00:16:29.655                             : en:00:16:29.655
    • 00:18:29.900                             : en:00:18:29.900
    • 00:19:40.638                             : en:00:19:40.638
    • 00:21:39.256                             : en:00:21:39.256
    • 00:22:16.168                             : en:00:22:16.168
    • 00:23:29.325                             : en:00:23:29.325
    • 00:26:55.364                             : en:00:26:55.364
    • 00:28:36.089                             : en:00:28:36.089
    • 00:29:43.365                             : en:00:29:43.365
    • 00:33:13.366                             : en:00:33:13.366
    • 00:35:58.865                             : en:00:35:58.865

    复制代码
    013921bzfhypygg1emzsn1.jpg 013922yhnrbxhzvmzm9zqm.jpg 013922cygyafzo4yyyyeku.jpg 013923d535cjz8qyj5j7bq.jpg 013923mvsvjngxtnwsxtj1.jpg 013923dsvbx8cfbxcm6edc.jpg



    Titans.of.the.Ice.Age.2013.1080p.BluRay.x264.DTS-HD.MA.5.1-SWTYBLZ.torrent (84.52 KB, 下载次数: 179)
    [发帖际遇]: 蓝光 发帖时在路边捡到 2 蓝光币,偷偷放进了口袋. 幸运榜 / 衰神榜
    开通VIP免费下载本站所有资源---点这里
    新手必看:资源下载、资源播放、字幕使用、等常见问题---点这里
    回复

    使用道具 举报

    该用户从未签到

    发表于 2018-2-3 19:11:50 | 显示全部楼层
    还以为是动画片。。谢谢分享
    开通VIP免费下载本站所有资源---点这里
    新手必看:资源下载、资源播放、字幕使用、等常见问题---点这里
    回复 支持 反对

    使用道具 举报

  • TA的每日心情
    开心
    2019-3-27 20:50
  • 签到天数: 2 天

    [LV.1]初来乍到

    发表于 2018-2-3 20:38:40 | 显示全部楼层
    好东西啊,可惜没钱了
    开通VIP免费下载本站所有资源---点这里
    新手必看:资源下载、资源播放、字幕使用、等常见问题---点这里
    回复 支持 反对

    使用道具 举报

  • TA的每日心情
    开心
    2019-3-11 19:43
  • 签到天数: 1 天

    [LV.1]初来乍到

    发表于 2018-2-4 11:15:16 | 显示全部楼层
    多谢了, 下载收藏!谢谢分享!
    开通VIP免费下载本站所有资源---点这里
    新手必看:资源下载、资源播放、字幕使用、等常见问题---点这里
    回复 支持 反对

    使用道具 举报

    该用户从未签到

    发表于 2018-2-4 21:17:09 | 显示全部楼层
    谢谢分享,支持哈,谢谢
    开通VIP免费下载本站所有资源---点这里
    新手必看:资源下载、资源播放、字幕使用、等常见问题---点这里
    回复 支持 反对

    使用道具 举报

  • TA的每日心情
    开心
    2019-4-14 21:32
  • 签到天数: 2 天

    [LV.1]初来乍到

    发表于 2018-2-5 08:27:28 | 显示全部楼层
    就喜欢这种片子~~
    [发帖际遇]: qq_天蓝_UO5 发帖时在路边捡到 3 蓝光币,偷偷放进了口袋. 幸运榜 / 衰神榜
    开通VIP免费下载本站所有资源---点这里
    新手必看:资源下载、资源播放、字幕使用、等常见问题---点这里
    回复 支持 反对

    使用道具 举报

    该用户从未签到

    发表于 2018-2-5 19:12:17 | 显示全部楼层
    谢谢分享,支持哈,谢谢
    开通VIP免费下载本站所有资源---点这里
    新手必看:资源下载、资源播放、字幕使用、等常见问题---点这里
    回复 支持 反对

    使用道具 举报

  • TA的每日心情
    开心
    18 小时前
  • 签到天数: 108 天

    [LV.6]常住居民II

    发表于 2018-2-7 00:13:01 | 显示全部楼层
    很喜欢这方面题材的片子,谢谢楼主发片!
    开通VIP免费下载本站所有资源---点这里
    新手必看:资源下载、资源播放、字幕使用、等常见问题---点这里
    回复 支持 反对

    使用道具 举报

  • TA的每日心情
    开心
    2019-3-31 17:04
  • 签到天数: 4 天

    [LV.2]偶尔看看I

    发表于 2018-2-9 22:10:36 | 显示全部楼层
    好东西呀!
    开通VIP免费下载本站所有资源---点这里
    新手必看:资源下载、资源播放、字幕使用、等常见问题---点这里
    回复

    使用道具 举报

    该用户从未签到

    发表于 2018-2-20 11:56:30 | 显示全部楼层
    好东西啊,可惜没钱了
    开通VIP免费下载本站所有资源---点这里
    新手必看:资源下载、资源播放、字幕使用、等常见问题---点这里
    回复 支持 反对

    使用道具 举报

    *滑动验证:
    懒得打字嘛,点击右侧快捷回复 【右侧内容,后台自定义】
    您需要登录后才可以回帖 登录 | 立即加入

    本版积分规则

    现在加入蓝光电影网,注册一个账号

    QQ| 手机版|小黑屋| 蓝光电影网 |网站地图

    Copyright © 20013-2018 Comsenz Inc.  Template by 蓝光电影论坛 All Rights Reserved.

    Powered by 高清电影网 X3.4
    特别声明:本站所有资源均由网上收集而来,版权归原影音公司所有,如果侵犯了你的权益,请通知我们,我们会及时删除侵权内容.

    快速回复 返回顶部 返回列表