找回密码

蓝光电影网

查看: 474|回复: 7

[2160p-WEB] 致命女郎/蛇蝎美人 Fatale.2020.2160p.WEB.H265-NAISU 11.10GB

[复制链接]

 成长值: 17760

发表于 2021-1-12 16:54:21 | 显示全部楼层 |阅读模式
致命女郎/蛇蝎美人 Fatale.2020.2160p.WEB.H265-NAISU 11.10GB-1.jpg


◎译  名 致命女郎/蛇蝎美人
◎片  名 Fatale
◎年  代 2020
◎产  地 美国
◎类  别 惊悚
◎语  言 英语
◎上映日期 2020-12-18(美国)
◎IMDb评分  4.8/10 from 957 users
◎IMDb链接  https://www.imdb.com/title/tt8829830/
◎豆瓣评分 /10 from 0 users
◎豆瓣链接 https://movie.douban.com/subject/30382374/
◎片  长 102分钟
◎导  演 德翁·泰勒 Deon Taylor
◎编  剧 戴维·朗格利 David Loughery
◎主  演 希拉里·斯万克 Hilary Swank
       迈克尔·伊雷 Michael Ealy
       迈克·柯尔特 Mike Colter
       卡莉·霍克 Kali Hawk
       丹尼·皮诺 Danny Pino
       达马里斯·刘易斯 Damaris Lewis
       萨姆·戴利 Sam Daly
       杰弗里·欧文斯 Geoffrey Owens
       大卫·霍夫林 David Hoflin
       奥克莉·布尔 Oakley Bull
       达拉斯·钱德勒 Dallas Chandler
       泰里恩·特纳 Tyrin Turner
       朱莉安娜·唐纳德 Juliana Donald
       莱克萨·格鲁克 Lexa Gluck
       丹尼丝·道丝 Denise Dowse
       凯瑞·威斯特科特 Kerry Westcott
       Ian Stanley
       Sasha Golberg
◎标  签 2020 | 美国 | 电影 | 悬疑 | 惊悚 | 四点一 | 剧情 | 其他电影
◎简  介


  影片讲述一个成功的体育经纪人达伦(迈克尔·伊雷饰),当他被卷入由一个身份存疑、不知羞耻但行为坚定的侦探(希拉里·斯万克饰)领导的警方调查中,他原本的完美生活渐渐消失……
  1. Video
  2. ID                                       : 1
  3. Format                                   : HEVC
  4. Format/Info                              : High Efficiency Video Coding
  5. Format profile                           : [email protected]@Main
  6. Codec ID                                 : V_MPEGH/ISO/HEVC
  7. Duration                                 : 1 h 42 min
  8. Bit rate                                 : 14.8 Mb/s
  9. Width                                    : 3 840 pixels
  10. Height                                   : 2 160 pixels
  11. Display aspect ratio                     : 16:9
  12. Frame rate mode                          : Constant
  13. Frame rate                               : 23.976 (24000/1001/189150) FPS
  14. Color space                              : YUV
  15. Chroma subsampling                       : 4:2:0
  16. Bit depth                                : 8 bits
  17. Bits/(Pixel*Frame)                       : 0.074
  18. Stream size                              : 10.6 GiB (96%)
  19. Default                                  : Yes
  20. Forced                                   : No
  21. Color range                              : Limited
  22. Color primaries                          : BT.709
  23. Transfer characteristics                 : BT.709
  24. Matrix coefficients                      : BT.709
  25. Audio
  26. ID                                       : 2
  27. Format                                   : E-AC-3
  28. Format/Info                              : Enhanced AC-3
  29. Commercial name                          : Dolby Digital Plus
  30. Codec ID                                 : A_EAC3
  31. Duration                                 : 1 h 42 min
  32. Bit rate mode                            : Constant
  33. Bit rate                                 : 256 kb/s
  34. Channel(s)                               : 6 channels
  35. Channel layout                           : L R C LFE Ls Rs
  36. Sampling rate                            : 48.0 kHz
  37. Frame rate                               : 31.250 FPS (1536 SPF)
  38. Compression mode                         : Lossy
  39. Stream size                              : 188 MiB (2%)
  40. Language                                 : English
  41. Service kind                             : Complete Main
  42. Default                                  : Yes
  43. Forced                                   : No
  44. Text
  45. ID                                       : 3
  46. Format                                   : UTF-8
  47. Codec ID                                 : S_TEXT/UTF8
  48. Codec ID/Info                            : UTF-8 Plain Text
  49. Language                                 : English
  50. Default                                  : No
  51. Forced                                   : No
复制代码



                                       
                                       

                                       
                                       
                                       




回复

使用道具 举报

发表于 2021-1-12 21:38:20 | 显示全部楼层
楼主发贴辛苦了,谢谢楼主分享!我觉得蓝光电影网是注册对了!
回复 支持 反对

使用道具 举报

发表于 2021-1-12 23:24:34 | 显示全部楼层
感谢分享
回复

使用道具 举报

发表于 2021-1-13 10:59:52 | 显示全部楼层
楼主发贴辛苦了,谢谢楼主分享!
回复 支持 反对

使用道具 举报

发表于 2021-1-13 13:36:07 | 显示全部楼层

感谢分享
回复

使用道具 举报

发表于 2021-1-14 09:33:06 | 显示全部楼层
楼主发贴辛苦了,谢谢楼主分享!我觉得蓝光电影网是注册对了!
回复 支持 反对

使用道具 举报

发表于 2021-1-14 17:41:45 | 显示全部楼层
可以可以,这个电影拍的也太好了吧
回复 支持 反对

使用道具 举报

发表于 7 天前 | 显示全部楼层
楼主发贴辛苦了,谢谢楼主分享!我觉得蓝光电影网是注册对了!
回复 支持 反对

使用道具 举报

懒得打字嘛,点击右侧快捷回复 【右侧内容,后台自定义】
您需要登录后才可以回帖 登录 | 立即加入

本版积分规则

现在加入蓝光电影网,注册一个账号
上个主题 下个主题 快速回复 收藏帖子 返回列表 客服中心 搜索

手机版|小黑屋| 蓝光电影网 |网站地图 

Copyright © 2015-2019 Comsenz Inc.  Template by 蓝光电影论坛 All Rights Reserved.

Powered by 蓝光电影网 X3.4

特别声明:本站所有资源均由网上收集而来,版权归原影音公司所有,如果侵犯了你的权益,请通知我们,我们会及时删除侵权内容.

快速回复 返回顶部 返回列表