找回密码

蓝光电影网

查看: 787|回复: 23

钢之炼金术师/钢之炼金术师 真人版 Fullmetal.Alchemist.2017.JAPANESE.2160p.BluRay.REMUX.HEVC.DTS-HD.MA.5.1-FGT 77.76GB

[复制链接]
  • TA的每日心情
    开心
    昨天 09:07
  • 签到天数: 23 天

    [LV.4]偶尔看看III

     成长值: 18115

    发表于 2018-10-12 01:52:15 | 显示全部楼层 |阅读模式

    马上注册,获取最新影视资讯,享用更多功能,让你轻松玩转蓝光电影网。

    您需要 登录 才可以下载或查看,没有帐号?立即加入

    x

    钢之炼金术师/钢之炼金术师 真人版 Fullmetal.Alchemist.2017.JAPANESE.2160p.BluRay.REMUX.HEVC.DTS-HD.MA.5.1-FGT 77.76GB-1.jpg
    ◎译  名 钢之炼金术师/钢之炼金术师 真人版
    ◎片  名 鋼の錬金術師
    ◎年  代 2017
    ◎产  地 日本
    ◎类  别 动作
    ◎语  言 日语
    ◎上映日期 2017-10-25(东京电影节)/2017-12-01(日本)
    ◎IMDb评分  5.9/10 from 15,448 users
    ◎IMDb链接  http://www.imdb.com/title/tt5607028/
    ◎豆瓣评分 4.6/10 from 5,299 users
    ◎豆瓣链接 https://movie.douban.com/subject/26761256/
    ◎片  长 134分钟
    ◎导  演 曾利文彦 Fumihiko Sori
    ◎主  演 山田凉介 Ry?suke Yamada
          本田翼 Tsubasa Honda
          藤冈靛 Tatsuo Dean Fujioka
          佐藤隆太 Ry?ta Sat?
          大泉洋 Y? ?izumi
          松雪泰子 Yasuko Matsuyuki
          本乡奏多 Kanata Hong?
          莲佛美沙子 Misako Renbutsu
          内山信二 Shinji Uchiyama
          石丸谦二郎 Kenjir? Ishimaru
          小日向文世 Fumiyo Kohinata
          国村隼 Jun Kunimura
          夏菜 Natsuna

    ◎简  介

      悲伤的爱德华和阿尔冯斯两兄弟,试图利用炼金术中最大的禁忌——人体炼成术救活撒手人寰的母亲,谁知却遭遇巨大的灾难。失去身体的阿尔冯斯,其灵魂被封禁在铠甲中,爱德华则以自己的右臂和左脚为代价,迫使弟弟止步冥国门前。许多年后,爱德华(山田凉介 饰)成长为这个国家中最年轻的钢之炼金术师,他与弟弟(水石亚飞梦 配音)上下一心,共同奔跑在寻找贤者之石的道路上。与此同时,神秘的人造人拉丝特(松雪泰子 饰)、恩维(本乡奏多 饰)盘桓这个国家的角落,她们策划者恐怖的勾当,一时间上空阴云密布……
      本片根据荒川弘的原作漫画改编。
    • Video
    • ID                                       : 1
    • Format                                   : HEVC
    • Format/Info                              : High Efficiency Video Coding
    • Format profile                           : Main [email protected]@High
    • Codec ID                                 : V_MPEGH/ISO/HEVC
    • Duration                                 : 2 h 13 min
    • Bit rate                                 : 77.0 Mb/s
    • Width                                    : 3 840 pixels
    • Height                                   : 2 160 pixels
    • Display aspect ratio                     : 16:9
    • Frame rate mode                          : Constant
    • Frame rate                               : 23.976 (24000/1001) FPS
    • Color space                              : YUV
    • Chroma subsampling                       : 4:2:0 (Type 2)
    • Bit depth                                : 10 bits
    • Bits/(Pixel*Frame)                       : 0.387
    • Stream size                              : 71.9 GiB (92%)
    • Title                                    : Fullmetal.Alchemist.2017.JAPANESE.2160p.BluRay.REMUX.HEVC.DTS-HD.MA.5.1-FGT
    • Default                                  : Yes
    • Forced                                   : No
    • Color range                              : Limited
    • Color primaries                          : BT.2020
    • Transfer characteristics                 : PQ
    • Matrix coefficients                      : BT.2020 non-constant
    • Audio #1
    • ID                                       : 2
    • Format                                   : DTS XLL
    • Format/Info                              : Digital Theater Systems
    • Commercial name                          : DTS-HD Master Audio
    • Codec ID                                 : A_DTS
    • Duration                                 : 2 h 13 min
    • Bit rate mode                            : Variable
    • Bit rate                                 : 3 924 kb/s
    • Channel(s)                               : 6 channels
    • Channel layout                           : C L R Ls Rs LFE
    • Sampling rate                            : 48.0 kHz
    • Frame rate                               : 93.750 FPS (512 SPF)
    • Bit depth                                : 24 bits
    • Compression mode                         : Lossless
    • Stream size                              : 3.67 GiB (5%)
    • Title                                    : Fullmetal.Alchemist.2017.JAPANESE.2160p.BluRay.REMUX.HEVC.DTS-HD.MA.5.1-FGT
    • Language                                 : Japanese
    • Default                                  : Yes
    • Forced                                   : No
    • Audio #2
    • ID                                       : 3
    • Format                                   : PCM
    • Format settings                          : Little / Signed
    • Codec ID                                 : A_PCM/INT/LIT
    • Duration                                 : 2 h 13 min
    • Bit rate mode                            : Constant
    • Bit rate                                 : 2 304 kb/s
    • Channel(s)                               : 2 channels
    • Sampling rate                            : 48.0 kHz
    • Frame rate                               : 200.000 FPS (240 SPF)
    • Bit depth                                : 24 bits
    • Stream size                              : 2.15 GiB (3%)
    • Title                                    : Fullmetal.Alchemist.2017.JAPANESE.2160p.BluRay.REMUX.HEVC.DTS-HD.MA.5.1-FGT
    • Language                                 : Japanese
    • Default                                  : No
    • Forced                                   : No
    • Text #1
    • ID                                       : 4
    • Format                                   : UTF-8
    • Codec ID                                 : S_TEXT/UTF8
    • Codec ID/Info                            : UTF-8 Plain Text
    • Duration                                 : 2 h 6 min
    • Bit rate                                 : 27 b/s
    • Count of elements                        : 1220
    • Stream size                              : 25.3 KiB (0%)
    • Title                                    : English-SRT
    • Language                                 : English
    • Default                                  : Yes
    • Forced                                   : Yes
    • Text #2
    • ID                                       : 5
    • Format                                   : PGS
    • Muxing mode                              : zlib
    • Codec ID                                 : S_HDMV/PGS
    • Codec ID/Info                            : Picture based subtitle format used on BDs/HD-DVDs
    • Duration                                 : 2 h 11 min
    • Bit rate                                 : 29.1 kb/s
    • Count of elements                        : 2658
    • Stream size                              : 27.3 MiB (0%)
    • Title                                    : Japanese-PGS
    • Language                                 : Japanese
    • Default                                  : No
    • Forced                                   : No
    • Menu
    • 00:00:00.000                             : :Chapter 1
    • 00:06:42.276                             : :Chapter 2
    • 00:19:11.567                             : :Chapter 3
    • 00:26:41.433                             : :Chapter 4
    • 00:35:23.162                             : :Chapter 5
    • 00:47:11.328                             : :Chapter 6
    • 00:55:32.370                             : :Chapter 7
    • 01:04:24.819                             : :Chapter 8
    • 01:17:54.586                             : :Chapter 9
    • 01:25:32.585                             : :Chapter 10
    • 01:33:52.626                             : :Chapter 11
    • 01:49:45.203                             : :Chapter 12
    • 01:59:13.312                             : :Chapter 13
    • 02:08:04.676                             : :Chapter 14

    复制代码

    钢之炼金术师/钢之炼金术师 真人版 Fullmetal.Alchemist.2017.JAPANESE.2160p.BluRay.REMUX.HEVC.DTS-HD.MA.5.1-FGT 77.76GB-2.png 钢之炼金术师/钢之炼金术师 真人版 Fullmetal.Alchemist.2017.JAPANESE.2160p.BluRay.REMUX.HEVC.DTS-HD.MA.5.1-FGT 77.76GB-3.png 钢之炼金术师/钢之炼金术师 真人版 Fullmetal.Alchemist.2017.JAPANESE.2160p.BluRay.REMUX.HEVC.DTS-HD.MA.5.1-FGT 77.76GB-4.png





    Fullmetal.Alchemist.2017.JAPANESE.2160p.BluRay.REMUX.HEVC.DTS-HD.MA.5.1-FGT.torrent (194.97 KB, 下载次数: 74)
    开通VIP免费下载本站所有资源---点这里
    新手必看:资源下载、资源播放、字幕使用、等常见问题---点这里
    回复

    使用道具 举报

    该用户从未签到

    发表于 2018-10-12 02:06:09 | 显示全部楼层

    水电费规划局快乐;trewertyuioxcvbnm
    开通VIP免费下载本站所有资源---点这里
    新手必看:资源下载、资源播放、字幕使用、等常见问题---点这里
    回复 支持 反对

    使用道具 举报

  • TA的每日心情
    开心
    昨天 05:23
  • 签到天数: 25 天

    [LV.4]偶尔看看III

    发表于 2018-10-12 05:54:29 | 显示全部楼层
    强烈支持楼主ing……
    开通VIP免费下载本站所有资源---点这里
    新手必看:资源下载、资源播放、字幕使用、等常见问题---点这里
    回复 支持 反对

    使用道具 举报

  • TA的每日心情
    奋斗
    3 天前
  • 签到天数: 17 天

    [LV.4]偶尔看看III

    已抛锚 成长值: 200

    发表于 2018-10-12 06:49:16 | 显示全部楼层
    看到这帖子真是高兴!
    [发帖际遇]: 原罪沉沦 发帖时在路边捡到 1 蓝光币,偷偷放进了口袋. 幸运榜 / 衰神榜
    开通VIP免费下载本站所有资源---点这里
    新手必看:资源下载、资源播放、字幕使用、等常见问题---点这里
    回复 支持 反对

    使用道具 举报

  • TA的每日心情
    奋斗
    昨天 09:57
  • 签到天数: 18 天

    [LV.4]偶尔看看III

    发表于 2018-10-12 08:42:10 | 显示全部楼层
    强烈支持楼主ing……
    开通VIP免费下载本站所有资源---点这里
    新手必看:资源下载、资源播放、字幕使用、等常见问题---点这里
    回复 支持 反对

    使用道具 举报

  • TA的每日心情
    开心
    2018-11-29 13:42
  • 签到天数: 2 天

    [LV.1]初来乍到

    发表于 2018-10-12 08:51:05 | 显示全部楼层
    强烈支持楼主ing……
    开通VIP免费下载本站所有资源---点这里
    新手必看:资源下载、资源播放、字幕使用、等常见问题---点这里
    回复 支持 反对

    使用道具 举报

  • TA的每日心情
    开心
    1 小时前
  • 签到天数: 14 天

    [LV.3]偶尔看看II

    发表于 2018-10-12 09:01:41 | 显示全部楼层
    强烈支持楼主ing……
    开通VIP免费下载本站所有资源---点这里
    新手必看:资源下载、资源播放、字幕使用、等常见问题---点这里
    回复 支持 反对

    使用道具 举报

  • TA的每日心情
    开心
    昨天 08:52
  • 签到天数: 25 天

    [LV.4]偶尔看看III

    发表于 2018-10-12 09:12:18 | 显示全部楼层
    太生气了,无法HOLD啦 >_<......
    开通VIP免费下载本站所有资源---点这里
    新手必看:资源下载、资源播放、字幕使用、等常见问题---点这里
    回复 支持 反对

    使用道具 举报

    该用户从未签到

    发表于 2018-10-12 10:13:20 | 显示全部楼层
    强烈支持楼主ing……
    开通VIP免费下载本站所有资源---点这里
    新手必看:资源下载、资源播放、字幕使用、等常见问题---点这里
    回复 支持 反对

    使用道具 举报

  • TA的每日心情

    前天 20:03
  • 签到天数: 11 天

    [LV.3]偶尔看看II

    发表于 2018-10-12 10:27:40 | 显示全部楼层
    我查 还出真人版了
    开通VIP免费下载本站所有资源---点这里
    新手必看:资源下载、资源播放、字幕使用、等常见问题---点这里
    回复 支持 反对

    使用道具 举报

    懒得打字嘛,点击右侧快捷回复 【右侧内容,后台自定义】
    您需要登录后才可以回帖 登录 | 立即加入

    本版积分规则

    现在加入蓝光电影网,注册一个账号

    QQ| 手机版|小黑屋| 蓝光电影网 |网站地图

    Copyright © 20013-2018 Comsenz Inc.  Template by 蓝光电影论坛 All Rights Reserved.

    Powered by 高清电影网 X3.4
    特别声明:本站所有资源均由网上收集而来,版权归原影音公司所有,如果侵犯了你的权益,请通知我们,我们会及时删除侵权内容.

    快速回复 返回顶部 返回列表