找回密码

蓝光电影网

查看: 849|回复: 10

[2160p-WEB] 波拉特2 Borat.Subsequent.Moviefilm.2020.2160p.AMZN.WEBRip.x265.10bit.HDR.DDP5.1-C4K 13.28GB

[复制链接]

 成长值: 17010

发表于 2020-10-26 21:39:39 | 显示全部楼层 |阅读模式


◎译  名 波拉特2/Borat: Gift of Pornographic Monkey to Vice Premiere Mikhael Pence to Make Benefit Recently Diminished Nation of Kazakhstan/波拉特:为了近期式微的哈萨克斯坦的利益送给副总统迈克儿·彭斯的色情猴子礼物/波拉特2:为建设伟大祖国哈萨克斯坦而贿赂美国政权
◎片  名 Borat Subsequent Moviefilm: Delivery of Prodigious Bribe to American Regime for Make Benefit Once Glorious Nation of Kazakhstan
◎年  代 2020
◎产  地 英国,美国
◎类  别 喜剧
◎语  言 英语
◎上映日期 2020-10-23(美国)
◎IMDb评分  7.1/10 from 23454 users
◎IMDb链接  https://www.imdb.com/title/tt13143964/
◎豆瓣评分 7.7/10 from 1593 users
◎豆瓣链接 https://movie.douban.com/subject/4135439/
◎导  演 杰森·威奈勒 Jason Woliner
◎编  剧 萨莎·拜伦·科恩 Sacha Baron Cohen / 安东尼·海恩斯 Anthony Hines / Dan Swimer / 彼得·贝恩汉姆 Peter Baynham / 埃丽卡·里维诺亚 Erica Rivinoja / 丹·马泽 Dan Mazer / Jena Friedman / 李·克恩 Lee Kern / Nina Pedrad / Nick Corirossi
◎主  演 萨莎·拜伦·科恩 Sacha Baron Cohen
       玛丽亚·巴卡洛娃 Maria Bakalova
       迈克·彭斯 Mike Pence
       鲁迪·朱利安尼 Rudolph W. Giuliani
       汤姆·汉克斯 Tom Hanks
       约翰尼·扬·博施 Johnny Yong Bosch
       肯·戴维蒂安 Ken Davitian
◎标  签 喜剧 | 美国 | 黑色幽默 | 恶搞 | 政治 | 2020 | 美国电影 | 电影
◎简  介


  To be more specific, this is the Borat Subsequent Moviefilm: Delivery of Prodigious Bribe to American Regime for Make Benefit Once Glorious Nation of Kazakhstan. Chenqui!
  1. Video
  2. ID                                       : 1
  3. Format                                   : HEVC
  4. Format/Info                              : High Efficiency Video Coding
  5. Format profile                           : Main [email protected]@Main
  6. HDR format                               : SMPTE ST 2086, HDR10 compatible
  7. Codec ID                                 : V_MPEGH/ISO/HEVC
  8. Duration                                 : 1 h 35 min
  9. Bit rate                                 : 19.2 Mb/s
  10. Width                                    : 3 840 pixels
  11. Height                                   : 2 160 pixels
  12. Display aspect ratio                     : 16:9
  13. Frame rate mode                          : Constant
  14. Frame rate                               : 23.976 (24000/1001/189150) FPS
  15. Color space                              : YUV
  16. Chroma subsampling                       : 4:2:0
  17. Bit depth                                : 10 bits
  18. Bits/(Pixel*Frame)                       : 0.096
  19. Stream size                              : 12.9 GiB (97%)
  20. Default                                  : Yes
  21. Forced                                   : No
  22. Color range                              : Full
  23. Color primaries                          : BT.2020
  24. Transfer characteristics                 : PQ
  25. Matrix coefficients                      : BT.2020 non-constant
  26. Mastering display color primaries        : Display P3
  27. Mastering display luminance              : min: 249.0406 cd/m2, max: 1000 cd/m2
  28. Maximum Content Light Level              : 999
  29. Maximum Frame-Average Light Level        : 209
  30. Audio
  31. ID                                       : 2
  32. Format                                   : E-AC-3
  33. Format/Info                              : Enhanced AC-3
  34. Commercial name                          : Dolby Digital Plus
  35. Codec ID                                 : A_EAC3
  36. Duration                                 : 1 h 36 min
  37. Bit rate mode                            : Constant
  38. Bit rate                                 : 640 kb/s
  39. Channel(s)                               : 6 channels
  40. Channel layout                           : L R C LFE Ls Rs
  41. Sampling rate                            : 48.0 kHz
  42. Frame rate                               : 31.250 FPS (1536 SPF)
  43. Compression mode                         : Lossy
  44. Delay relative to video                  : 23 ms
  45. Stream size                              : 440 MiB (3%)
  46. Language                                 : English
  47. Service kind                             : Complete Main
  48. Default                                  : Yes
  49. Forced                                   : No
  50. Text #1
  51. ID                                       : 3
  52. Format                                   : UTF-8
  53. Codec ID                                 : S_TEXT/UTF8
  54. Codec ID/Info                            : UTF-8 Plain Text
  55. Duration                                 : 1 h 35 min
  56. Bit rate                                 : 64 b/s
  57. Count of elements                        : 1543
  58. Stream size                              : 45.4 KiB (0%)
  59. Title                                    : Bahasa Melayu
  60. Language                                 : Malay
  61. Default                                  : No
  62. Forced                                   : No
  63. Text #2
  64. ID                                       : 4
  65. Format                                   : UTF-8
  66. Codec ID                                 : S_TEXT/UTF8
  67. Codec ID/Info                            : UTF-8 Plain Text
  68. Duration                                 : 1 h 35 min
  69. Bit rate                                 : 64 b/s
  70. Count of elements                        : 1527
  71. Stream size                              : 45.5 KiB (0%)
  72. Title                                    : Dansk
  73. Language                                 : Danish
  74. Default                                  : No
  75. Forced                                   : No
  76. Text #3
  77. ID                                       : 5
  78. Format                                   : UTF-8
  79. Codec ID                                 : S_TEXT/UTF8
  80. Codec ID/Info                            : UTF-8 Plain Text
  81. Duration                                 : 1 h 35 min
  82. Bit rate                                 : 69 b/s
  83. Count of elements                        : 1286
  84. Stream size                              : 48.7 KiB (0%)
  85. Title                                    : Deutsch
  86. Language                                 : German
  87. Default                                  : No
  88. Forced                                   : No
  89. Text #4
  90. ID                                       : 6
  91. Format                                   : UTF-8
  92. Codec ID                                 : S_TEXT/UTF8
  93. Codec ID/Info                            : UTF-8 Plain Text
  94. Duration                                 : 1 h 35 min
  95. Bit rate                                 : 83 b/s
  96. Count of elements                        : 1959
  97. Stream size                              : 58.8 KiB (0%)
  98. Title                                    : English (SDH)
  99. Language                                 : English
  100. Default                                  : No
  101. Forced                                   : No
  102. Text #5
  103. ID                                       : 7
  104. Format                                   : UTF-8
  105. Codec ID                                 : S_TEXT/UTF8
  106. Codec ID/Info                            : UTF-8 Plain Text
  107. Duration                                 : 1 h 35 min
  108. Bit rate                                 : 66 b/s
  109. Count of elements                        : 1536
  110. Stream size                              : 46.3 KiB (0%)
  111. Title                                    : Spanish
  112. Language                                 : Spanish
  113. Default                                  : No
  114. Forced                                   : No
  115. Text #6
  116. ID                                       : 8
  117. Format                                   : UTF-8
  118. Codec ID                                 : S_TEXT/UTF8
  119. Codec ID/Info                            : UTF-8 Plain Text
  120. Duration                                 : 1 h 35 min
  121. Bit rate                                 : 66 b/s
  122. Count of elements                        : 1536
  123. Stream size                              : 46.3 KiB (0%)
  124. Title                                    : Spanish
  125. Language                                 : Spanish
  126. Default                                  : No
  127. Forced                                   : No
  128. Text #7
  129. ID                                       : 9
  130. Format                                   : UTF-8
  131. Codec ID                                 : S_TEXT/UTF8
  132. Codec ID/Info                            : UTF-8 Plain Text
  133. Duration                                 : 1 h 35 min
  134. Bit rate                                 : 68 b/s
  135. Count of elements                        : 1546
  136. Stream size                              : 47.8 KiB (0%)
  137. Title                                    : Fran?ais
  138. Language                                 : French
  139. Default                                  : No
  140. Forced                                   : No
  141. Text #8
  142. ID                                       : 10
  143. Format                                   : UTF-8
  144. Codec ID                                 : S_TEXT/UTF8
  145. Codec ID/Info                            : UTF-8 Plain Text
  146. Duration                                 : 1 h 35 min
  147. Bit rate                                 : 65 b/s
  148. Count of elements                        : 1542
  149. Stream size                              : 46.1 KiB (0%)
  150. Title                                    : Indonesia
  151. Language                                 : Indonesian
  152. Default                                  : No
  153. Forced                                   : No
  154. Text #9
  155. ID                                       : 11
  156. Format                                   : UTF-8
  157. Codec ID                                 : S_TEXT/UTF8
  158. Codec ID/Info                            : UTF-8 Plain Text
  159. Duration                                 : 1 h 35 min
  160. Bit rate                                 : 65 b/s
  161. Count of elements                        : 1522
  162. Stream size                              : 45.6 KiB (0%)
  163. Title                                    : Italiano
  164. Language                                 : Italian
  165. Default                                  : No
  166. Forced                                   : No
  167. Text #10
  168. ID                                       : 12
  169. Format                                   : UTF-8
  170. Codec ID                                 : S_TEXT/UTF8
  171. Codec ID/Info                            : UTF-8 Plain Text
  172. Duration                                 : 1 h 35 min
  173. Bit rate                                 : 66 b/s
  174. Count of elements                        : 1528
  175. Stream size                              : 46.6 KiB (0%)
  176. Title                                    : Nederlands
  177. Language                                 : Dutch
  178. Default                                  : No
  179. Forced                                   : No
  180. Text #11
  181. ID                                       : 13
  182. Format                                   : UTF-8
  183. Codec ID                                 : S_TEXT/UTF8
  184. Codec ID/Info                            : UTF-8 Plain Text
  185. Duration                                 : 1 h 35 min
  186. Bit rate                                 : 66 b/s
  187. Count of elements                        : 1536
  188. Stream size                              : 46.9 KiB (0%)
  189. Title                                    : Norsk Bokm?l
  190. Language                                 : Norwegian Bokmal
  191. Default                                  : No
  192. Forced                                   : No
  193. Text #12
  194. ID                                       : 14
  195. Format                                   : UTF-8
  196. Codec ID                                 : S_TEXT/UTF8
  197. Codec ID/Info                            : UTF-8 Plain Text
  198. Duration                                 : 1 h 35 min
  199. Bit rate                                 : 58 b/s
  200. Count of elements                        : 1531
  201. Stream size                              : 40.7 KiB (0%)
  202. Title                                    : Polski
  203. Language                                 : Polish
  204. Default                                  : No
  205. Forced                                   : No
  206. Text #13
  207. ID                                       : 15
  208. Format                                   : UTF-8
  209. Codec ID                                 : S_TEXT/UTF8
  210. Codec ID/Info                            : UTF-8 Plain Text
  211. Duration                                 : 1 h 35 min
  212. Bit rate                                 : 64 b/s
  213. Count of elements                        : 1534
  214. Stream size                              : 45.4 KiB (0%)
  215. Title                                    : Português (Brasil)
  216. Language                                 : Portuguese
  217. Default                                  : No
  218. Forced                                   : No
  219. Text #14
  220. ID                                       : 16
  221. Format                                   : UTF-8
  222. Codec ID                                 : S_TEXT/UTF8
  223. Codec ID/Info                            : UTF-8 Plain Text
  224. Duration                                 : 1 h 35 min
  225. Bit rate                                 : 64 b/s
  226. Count of elements                        : 1534
  227. Stream size                              : 45.4 KiB (0%)
  228. Title                                    : Português (Portugal)
  229. Language                                 : Portuguese
  230. Default                                  : No
  231. Forced                                   : No
  232. Text #15
  233. ID                                       : 17
  234. Format                                   : UTF-8
  235. Codec ID                                 : S_TEXT/UTF8
  236. Codec ID/Info                            : UTF-8 Plain Text
  237. Duration                                 : 1 h 35 min
  238. Bit rate                                 : 59 b/s
  239. Count of elements                        : 1521
  240. Stream size                              : 41.9 KiB (0%)
  241. Title                                    : Suomi
  242. Language                                 : Finnish
  243. Default                                  : No
  244. Forced                                   : No
  245. Text #16
  246. ID                                       : 18
  247. Format                                   : UTF-8
  248. Codec ID                                 : S_TEXT/UTF8
  249. Codec ID/Info                            : UTF-8 Plain Text
  250. Duration                                 : 1 h 35 min
  251. Bit rate                                 : 62 b/s
  252. Count of elements                        : 1524
  253. Stream size                              : 44.0 KiB (0%)
  254. Title                                    : Svenska
  255. Language                                 : Swedish
  256. Default                                  : No
  257. Forced                                   : No
  258. Text #17
  259. ID                                       : 19
  260. Format                                   : UTF-8
  261. Codec ID                                 : S_TEXT/UTF8
  262. Codec ID/Info                            : UTF-8 Plain Text
  263. Duration                                 : 1 h 35 min
  264. Bit rate                                 : 64 b/s
  265. Count of elements                        : 1498
  266. Stream size                              : 45.5 KiB (0%)
  267. Title                                    : Tl
  268. Language                                 : Tagalog
  269. Default                                  : No
  270. Forced                                   : No
  271. Text #18
  272. ID                                       : 20
  273. Format                                   : UTF-8
  274. Codec ID                                 : S_TEXT/UTF8
  275. Codec ID/Info                            : UTF-8 Plain Text
  276. Duration                                 : 1 h 35 min
  277. Bit rate                                 : 109 b/s
  278. Count of elements                        : 1557
  279. Stream size                              : 76.7 KiB (0%)
  280. Title                                    : Русский
  281. Language                                 : Russian
  282. Default                                  : No
  283. Forced                                   : No
  284. Text #19
  285. ID                                       : 21
  286. Format                                   : UTF-8
  287. Codec ID                                 : S_TEXT/UTF8
  288. Codec ID/Info                            : UTF-8 Plain Text
  289. Duration                                 : 1 h 35 min
  290. Bit rate                                 : 104 b/s
  291. Count of elements                        : 1557
  292. Stream size                              : 72.9 KiB (0%)
  293. Title                                    : ?????
  294. Language                                 : Hebrew
  295. Default                                  : No
  296. Forced                                   : No
  297. Text #20
  298. ID                                       : 22
  299. Format                                   : UTF-8
  300. Codec ID                                 : S_TEXT/UTF8
  301. Codec ID/Info                            : UTF-8 Plain Text
  302. Duration                                 : 1 h 35 min
  303. Bit rate                                 : 163 b/s
  304. Count of elements                        : 1557
  305. Stream size                              : 115 KiB (0%)
  306. Title                                    : ???
  307. Language                                 : Thai
  308. Default                                  : No
  309. Forced                                   : No
  310. Text #21
  311. ID                                       : 23
  312. Format                                   : UTF-8
  313. Codec ID                                 : S_TEXT/UTF8
  314. Codec ID/Info                            : UTF-8 Plain Text
  315. Duration                                 : 1 h 35 min
  316. Bit rate                                 : 61 b/s
  317. Count of elements                        : 1559
  318. Stream size                              : 43.4 KiB (0%)
  319. Title                                    : 中文(简体)
  320. Language                                 : Chinese
  321. Default                                  : No
  322. Forced                                   : No
  323. Text #22
  324. ID                                       : 24
  325. Format                                   : UTF-8
  326. Codec ID                                 : S_TEXT/UTF8
  327. Codec ID/Info                            : UTF-8 Plain Text
  328. Duration                                 : 1 h 35 min
  329. Bit rate                                 : 61 b/s
  330. Count of elements                        : 1559
  331. Stream size                              : 43.4 KiB (0%)
  332. Title                                    : 中文(繁體)
  333. Language                                 : Chinese
  334. Default                                  : No
  335. Forced                                   : No
  336. Text #23
  337. ID                                       : 25
  338. Format                                   : UTF-8
  339. Codec ID                                 : S_TEXT/UTF8
  340. Codec ID/Info                            : UTF-8 Plain Text
  341. Duration                                 : 1 h 35 min
  342. Bit rate                                 : 69 b/s
  343. Count of elements                        : 1591
  344. Stream size                              : 49.0 KiB (0%)
  345. Title                                    : 日本語
  346. Language                                 : Japanese
  347. Default                                  : No
  348. Forced                                   : No
  349. Text #24
  350. ID                                       : 26
  351. Format                                   : UTF-8
  352. Codec ID                                 : S_TEXT/UTF8
  353. Codec ID/Info                            : UTF-8 Plain Text
  354. Duration                                 : 1 h 35 min
  355. Bit rate                                 : 76 b/s
  356. Count of elements                        : 1557
  357. Stream size                              : 53.8 KiB (0%)
  358. Title                                    : ???
  359. Language                                 : Korean
  360. Default                                  : No
  361. Forced                                   : No
  362. Menu
  363. 00:00:00.000                             : en:Amazon Original
  364. 00:00:06.000                             : en:Scene 2
  365. 01:03:45.000                             : en:Scene 3
  366. 01:04:28.000                             : en:Scene 4
  367. 01:30:17.000                             : en:Acknowledgement
  368. 01:30:24.000                             : en:End Credits
复制代码



                                       
                                       

                                       
                                       
                                       




回复

使用道具 举报

发表于 2020-10-28 13:31:13 | 显示全部楼层
波拉特:为了近期式微的哈萨克斯坦的利益送给副总统迈克儿·彭斯的色情猴子礼物
回复 支持 反对

使用道具 举报

发表于 2020-10-28 14:19:19 | 显示全部楼层
牛!!!!!!!!!!!!!!!!!!!!
回复

使用道具 举报

发表于 2020-10-28 22:52:50 | 显示全部楼层
楼主发贴辛苦了,谢谢楼主分享!我觉得蓝光电影网是注册对了!
回复 支持 反对

使用道具 举报

发表于 2020-10-29 15:56:24 | 显示全部楼层
谢谢楼主分享
回复 支持 反对

使用道具 举报

发表于 2020-10-30 19:25:57 | 显示全部楼层

楼主太厉害了!楼主,电影应该很好看我觉得蓝光电影网真是个好地方!
回复 支持 反对

使用道具 举报

发表于 2020-10-31 14:48:37 | 显示全部楼层

这东西我收了!谢谢楼主!蓝光电影网真好!
回复 支持 反对

使用道具 举报

发表于 2020-10-31 15:54:00 | 显示全部楼层

这个帖子不回对不起自己!我想我是一天也不能离开蓝光电影网
回复 支持 反对

使用道具 举报

发表于 2020-11-1 05:45:50 | 显示全部楼层

这个帖子不回对不起自己!我想我是一天也不能离开蓝光电影网
回复 支持 反对

使用道具 举报

发表于 2020-11-3 12:49:33 | 显示全部楼层

这个帖子不回对不起自己!我想我是一天也不能离开蓝光电影网
回复 支持 反对

使用道具 举报

懒得打字嘛,点击右侧快捷回复 【右侧内容,后台自定义】
您需要登录后才可以回帖 登录 | 立即加入

本版积分规则

现在加入蓝光电影网,注册一个账号
上个主题 下个主题 快速回复 收藏帖子 返回列表 客服中心 搜索

手机版|小黑屋| 蓝光电影网 |网站地图 

Copyright © 2015-2019 Comsenz Inc.  Template by 蓝光电影论坛 All Rights Reserved.

Powered by 蓝光电影网 X3.4

特别声明:本站所有资源均由网上收集而来,版权归原影音公司所有,如果侵犯了你的权益,请通知我们,我们会及时删除侵权内容.

快速回复 返回顶部 返回列表