找回密码

蓝光电影网

查看: 193|回复: 6

[8bit.SDR] 回到未来/回到未来第一集 Back.to.the.Future.1985.2160p.BluRay.x264.8bit.SDR.DTS-HD.MA.TrueHD.7.1.Atmos-SWTYBLZ 60.47GB

[复制链接]

 成长值: 16485

发表于 2020-10-16 00:19:29 | 显示全部楼层 |阅读模式


◎译  名 回到未来/回到未来第一集
◎片  名 Back to the Future
◎年  代 1985
◎产  地 美国
◎类  别 喜剧 / 科幻 / 冒险
◎语  言 英语
◎上映日期 1985-07-03(美国)
◎IMDb评分  8.5/10 from 1034996 users
◎IMDb链接  https://www.imdb.com/title/tt0088763/
◎豆瓣评分 8.7/10 from 147687 users
◎豆瓣链接 https://movie.douban.com/subject/1300555/
◎片  长 116分钟
◎导  演 罗伯特·泽米吉斯 Robert Zemeckis
◎编  剧 罗伯特·泽米吉斯 Robert Zemeckis / 鲍勃·盖尔 Bob Gale
◎主  演 迈克尔·J·福克斯 Michael J. Fox
       克里斯托弗·洛伊德 Christopher Lloyd
       莉·汤普森 Lea Thompson
       克里斯平·格洛弗 Crispin Glover
       托马斯·F·威尔森 Thomas F. Wilson
       克劳迪娅·韦尔斯 Claudia Wells
       马克·麦克卢尔 Marc McClure
       温迪·乔·斯佩博 Wendie Jo Sperber
       乔治·第桑佐 George DiCenzo
       弗兰西斯·李·麦克凯恩 Frances Lee McCain
       詹姆斯·托根 James Tolkan
       J·J·科恩 J.J. Cohen
       凯西·希玛兹科 Casey Siemaszko
       比利·赞恩 Billy Zane
       小哈利·沃特斯 Harry Waters Jr.
       唐纳德·富利洛夫 Donald Fullilove
       丽萨·弗里曼 Lisa Freeman
       克里斯滕·考夫曼 Cristen Kauffman
       萨奇·帕克 Sachi Parker
       玛丽·艾伦·特雷纳 Mary Ellen Trainor
       麦娅·布鲁顿 Maia Brewton
       加里·莱利 Gary Riley
       艾尔莎·瑞雯 Elsa Raven
       休易·路易斯 Huey Lewis
       Tiger
       德博拉·哈蒙 Deborah Harmon
       诺曼·阿尔登 Norman Alden
       考特尼·盖恩斯 Courtney Gains
       乔治·“巴克”·弗劳尔 George 'Buck' Flower
       艾薇·贝瑟恩 Ivy Bethune
       罗伯特·克兰茨 Robert Krantz
       Tom Willett
       查尔斯·L·坎贝尔 Charles L. Campbell
       贾森·赫维 Jason Hervey
       Jeff O'Haco
       Will Hare
       Tom Tangen
       Jason Marin
       Tommy Thomas
       Read Morgan
       Karen Petrasek
◎标  签 科幻 | 美国 | 经典 | 喜剧 | 回到未来 | 1985 | 美国电影 | 穿越
◎简  介


  布朗博士(克里斯托弗?洛伊德 Christopher Lloyd 饰)总是有些稀奇古怪的发明。在一次试验他发明的时光机器时,他找来了忘年交高中生马丁(迈克尔?J?福克斯 Michael J. Fox 饰)。岂料实验过程中博士被歹徒杀害了,马丁慌乱中架着时光机逃跑,回到了30年前。
  
  马丁遇到了30年前的父亲乔治(克利斯丁?格拉夫 Crispin Glover 饰)和母亲洛莲(莉?汤普森 Lea Thompson 饰)。马丁一边找寻30年前的布朗博士,好让自己回到未来;一边尽力撮合乔治和洛莲,以免自己在以后消失了。但乔治为人懦弱,马丁在撮合过程中弄巧成拙让洛莲爱上了自己。还有令人讨厌的贝夫从中作梗,令马丁恼怒不已。
  
  马丁周旋在他的双亲之间,还要尽快找到博士,想办法回到未来……
◎获奖情况
  第58届奥斯卡金像奖 ?(1986)
  最佳原创剧本(提名) 鲍勃·盖尔?/?罗伯特·泽米吉斯
  最佳音效剪辑 查尔斯·L·坎贝尔?/?罗伯特·拉特利奇
  最佳音响(提名) 威廉·B·卡普兰?/?B·丁尼生·塞巴斯蒂安二世?/?比尔·瓦尼?/?罗伯特·瑟尔威尔
  最佳原创歌曲(提名) 休易·路易斯?/?克里斯·海耶斯?/?约翰尼·科拉
  1. Video
  2. ID                                       : 1
  3. Format                                   : AVC
  4. Format/Info                              : Advanced Video Codec
  5. Format profile                           : [email protected]
  6. Format settings                          : CABAC / 5 Ref Frames
  7. Format settings, CABAC                   : Yes
  8. Format settings, Reference frames        : 5 frames
  9. Codec ID                                 : V_MPEG4/ISO/AVC
  10. Duration                                 : 1 h 56 min
  11. Bit rate                                 : 65.0 Mb/s
  12. Width                                    : 3 840 pixels
  13. Height                                   : 2 076 pixels
  14. Display aspect ratio                     : 1.85:1
  15. Frame rate mode                          : Constant
  16. Frame rate                               : 23.976 (24000/1001/189150) FPS
  17. Color space                              : YUV
  18. Chroma subsampling                       : 4:2:0
  19. Bit depth                                : 8 bits
  20. Scan type                                : Progressive
  21. Bits/(Pixel*Frame)                       : 0.340
  22. Stream size                              : 52.7 GiB (88%)
  23. Title                                    : Back.to.the.Future.1985.2160p.BluRay.x264.8bit.SDR.DTS-HD.MA.TrueHD.7.1.Atmos-SWTYBLZ
  24. Writing library                          : x264 core 157 r2935 545de2f
  25. Encoding settings                        : cabac=1 / ref=5 / deblock=1:-1:-1 / analyse=0x3:0x113 / me=umh / subme=10 / psy=1 / psy_rd=1.00:0.15 / mixed_ref=1 / me_range=48 / chroma_me=1 / trellis=2 / 8x8dct=1 / cqm=0 / deadzone=21,11 / fast_pskip=1 / chroma_qp_offset=-3 / threads=48 / lookahead_threads=4 / sliced_threads=0 / nr=0 / decimate=0 / interlaced=0 / bluray_compat=0 / constrained_intra=0 / bframes=3 / b_pyramid=2 / b_adapt=2 / b_bias=0 / direct=3 / weightb=1 / open_gop=0 / weightp=2 / keyint=250 / keyint_min=23 / scenecut=40 / intra_refresh=0 / rc_lookahead=50 / rc=crf / mbtree=1 / crf=18.0 / qcomp=0.60 / qpmin=0 / qpmax=69 / qpstep=4 / ip_ratio=1.40 / aq=1:1.00
  26. Default                                  : Yes
  27. Forced                                   : No
  28. Audio #1
  29. ID                                       : 2
  30. Format                                   : MLP FBA 16-ch
  31. Format/Info                              : Meridian Lossless Packing FBA with 16-channel presentation
  32. Commercial name                          : Dolby TrueHD with Dolby Atmos
  33. Codec ID                                 : A_TRUEHD
  34. Duration                                 : 1 h 56 min
  35. Bit rate mode                            : Variable
  36. Bit rate                                 : 4 213 kb/s
  37. Maximum bit rate                         : 7 626 kb/s
  38. Channel(s)                               : 8 channels
  39. Channel layout                           : L R C LFE Ls Rs Lb Rb
  40. Sampling rate                            : 48.0 kHz
  41. Frame rate                               : 1 200.000 FPS (40 SPF)
  42. Compression mode                         : Lossless
  43. Stream size                              : 3.41 GiB (6%)
  44. Title                                    : Back.to.the.Future.1985.2160p.BluRay.x264.8bit.SDR.DTS-HD.MA.TrueHD.7.1.Atmos-SWTYBLZ
  45. Language                                 : English
  46. Default                                  : Yes
  47. Forced                                   : No
  48. Number of dynamic objects                : 11
  49. Bed channel count                        : 1 channel
  50. Bed channel configuration                : LFE
  51. Audio #2
  52. ID                                       : 3
  53. Format                                   : DTS XLL
  54. Format/Info                              : Digital Theater Systems
  55. Commercial name                          : DTS-HD Master Audio
  56. Codec ID                                 : A_DTS
  57. Duration                                 : 1 h 56 min
  58. Bit rate mode                            : Variable
  59. Bit rate                                 : 4 268 kb/s
  60. Channel(s)                               : 8 channels
  61. Channel layout                           : C L R LFE Lb Rb Lss Rss
  62. Sampling rate                            : 48.0 kHz
  63. Frame rate                               : 93.750 FPS (512 SPF)
  64. Bit depth                                : 24 bits
  65. Compression mode                         : Lossless
  66. Stream size                              : 3.46 GiB (6%)
  67. Title                                    : Back.to.the.Future.1985.2160p.BluRay.x264.8bit.SDR.DTS-HD.MA.TrueHD.7.1.Atmos-SWTYBLZ
  68. Language                                 : English
  69. Default                                  : No
  70. Forced                                   : No
  71. Audio #3
  72. ID                                       : 4
  73. Format                                   : AC-3
  74. Format/Info                              : Audio Coding 3
  75. Commercial name                          : Dolby Digital
  76. Codec ID                                 : A_AC3
  77. Duration                                 : 1 h 56 min
  78. Bit rate mode                            : Constant
  79. Bit rate                                 : 448 kb/s
  80. Channel(s)                               : 6 channels
  81. Channel layout                           : L R C LFE Ls Rs
  82. Sampling rate                            : 48.0 kHz
  83. Frame rate                               : 31.250 FPS (1536 SPF)
  84. Compression mode                         : Lossy
  85. Stream size                              : 372 MiB (1%)
  86. Title                                    : Back.to.the.Future.1985.2160p.BluRay.x264.8bit.SDR.DTS-HD.MA.TrueHD.7.1.Atmos-SWTYBLZ
  87. Language                                 : English
  88. Service kind                             : Complete Main
  89. Default                                  : No
  90. Forced                                   : No
  91. Text #1
  92. ID                                       : 5
  93. Format                                   : UTF-8
  94. Codec ID                                 : S_TEXT/UTF8
  95. Codec ID/Info                            : UTF-8 Plain Text
  96. Duration                                 : 1 h 50 min
  97. Bit rate                                 : 62 b/s
  98. Count of elements                        : 1573
  99. Stream size                              : 50.1 KiB (0%)
  100. Title                                    : English-SRT
  101. Language                                 : English
  102. Default                                  : Yes
  103. Forced                                   : No
  104. Text #2
  105. ID                                       : 6
  106. Format                                   : PGS
  107. Muxing mode                              : zlib
  108. Codec ID                                 : S_HDMV/PGS
  109. Codec ID/Info                            : Picture based subtitle format used on BDs/HD-DVDs
  110. Duration                                 : 1 h 51 min
  111. Bit rate                                 : 40.3 kb/s
  112. Count of elements                        : 3044
  113. Stream size                              : 32.1 MiB (0%)
  114. Title                                    : English-PGS
  115. Language                                 : English
  116. Default                                  : No
  117. Forced                                   : No
  118. Text #3
  119. ID                                       : 7
  120. Format                                   : PGS
  121. Muxing mode                              : zlib
  122. Codec ID                                 : S_HDMV/PGS
  123. Codec ID/Info                            : Picture based subtitle format used on BDs/HD-DVDs
  124. Duration                                 : 1 h 51 min
  125. Bit rate                                 : 44.1 kb/s
  126. Count of elements                        : 3555
  127. Stream size                              : 35.1 MiB (0%)
  128. Title                                    : English-SDH-PGS
  129. Language                                 : English
  130. Default                                  : No
  131. Forced                                   : No
  132. Text #4
  133. ID                                       : 8
  134. Format                                   : PGS
  135. Muxing mode                              : zlib
  136. Codec ID                                 : S_HDMV/PGS
  137. Codec ID/Info                            : Picture based subtitle format used on BDs/HD-DVDs
  138. Duration                                 : 1 h 50 min
  139. Bit rate                                 : 24.4 kb/s
  140. Count of elements                        : 2498
  141. Stream size                              : 19.3 MiB (0%)
  142. Title                                    : Chinese-PGS
  143. Language                                 : Chinese
  144. Default                                  : No
  145. Forced                                   : No
  146. Text #5
  147. ID                                       : 9
  148. Format                                   : PGS
  149. Muxing mode                              : zlib
  150. Codec ID                                 : S_HDMV/PGS
  151. Codec ID/Info                            : Picture based subtitle format used on BDs/HD-DVDs
  152. Duration                                 : 1 h 50 min
  153. Bit rate                                 : 24.7 kb/s
  154. Count of elements                        : 2558
  155. Stream size                              : 19.5 MiB (0%)
  156. Title                                    : Chinese-PGS
  157. Language                                 : Chinese
  158. Default                                  : No
  159. Forced                                   : No
  160. Text #6
  161. ID                                       : 10
  162. Format                                   : PGS
  163. Muxing mode                              : zlib
  164. Codec ID                                 : S_HDMV/PGS
  165. Codec ID/Info                            : Picture based subtitle format used on BDs/HD-DVDs
  166. Duration                                 : 1 h 50 min
  167. Bit rate                                 : 31.1 kb/s
  168. Count of elements                        : 2598
  169. Stream size                              : 24.5 MiB (0%)
  170. Title                                    : Croatian-PGS
  171. Language                                 : Croatian
  172. Default                                  : No
  173. Forced                                   : No
  174. Text #7
  175. ID                                       : 11
  176. Format                                   : PGS
  177. Muxing mode                              : zlib
  178. Codec ID                                 : S_HDMV/PGS
  179. Codec ID/Info                            : Picture based subtitle format used on BDs/HD-DVDs
  180. Duration                                 : 1 h 50 min
  181. Bit rate                                 : 30.7 kb/s
  182. Count of elements                        : 2608
  183. Stream size                              : 24.2 MiB (0%)
  184. Title                                    : Czech-PGS
  185. Language                                 : Czech
  186. Default                                  : No
  187. Forced                                   : No
  188. Text #8
  189. ID                                       : 12
  190. Format                                   : PGS
  191. Muxing mode                              : zlib
  192. Codec ID                                 : S_HDMV/PGS
  193. Codec ID/Info                            : Picture based subtitle format used on BDs/HD-DVDs
  194. Duration                                 : 1 h 50 min
  195. Bit rate                                 : 33.9 kb/s
  196. Count of elements                        : 2602
  197. Stream size                              : 26.7 MiB (0%)
  198. Title                                    : Danish-PGS
  199. Language                                 : Danish
  200. Default                                  : No
  201. Forced                                   : No
  202. Text #9
  203. ID                                       : 13
  204. Format                                   : PGS
  205. Muxing mode                              : zlib
  206. Codec ID                                 : S_HDMV/PGS
  207. Codec ID/Info                            : Picture based subtitle format used on BDs/HD-DVDs
  208. Duration                                 : 1 h 50 min
  209. Bit rate                                 : 33.4 kb/s
  210. Count of elements                        : 2598
  211. Stream size                              : 26.4 MiB (0%)
  212. Title                                    : Dutch-PGS
  213. Language                                 : Dutch
  214. Default                                  : No
  215. Forced                                   : No
  216. Text #10
  217. ID                                       : 14
  218. Format                                   : PGS
  219. Muxing mode                              : zlib
  220. Codec ID                                 : S_HDMV/PGS
  221. Codec ID/Info                            : Picture based subtitle format used on BDs/HD-DVDs
  222. Duration                                 : 1 h 50 min
  223. Bit rate                                 : 31.2 kb/s
  224. Count of elements                        : 2604
  225. Stream size                              : 24.6 MiB (0%)
  226. Title                                    : Finnish-PGS
  227. Language                                 : Finnish
  228. Default                                  : No
  229. Forced                                   : No
  230. Text #11
  231. ID                                       : 15
  232. Format                                   : PGS
  233. Muxing mode                              : zlib
  234. Codec ID                                 : S_HDMV/PGS
  235. Codec ID/Info                            : Picture based subtitle format used on BDs/HD-DVDs
  236. Duration                                 : 1 h 50 min
  237. Bit rate                                 : 36.7 kb/s
  238. Count of elements                        : 2604
  239. Stream size                              : 29.0 MiB (0%)
  240. Title                                    : French-PGS
  241. Language                                 : French
  242. Default                                  : No
  243. Forced                                   : No
  244. Text #12
  245. ID                                       : 16
  246. Format                                   : PGS
  247. Muxing mode                              : zlib
  248. Codec ID                                 : S_HDMV/PGS
  249. Codec ID/Info                            : Picture based subtitle format used on BDs/HD-DVDs
  250. Duration                                 : 1 h 50 min
  251. Bit rate                                 : 31.6 kb/s
  252. Count of elements                        : 2606
  253. Stream size                              : 25.0 MiB (0%)
  254. Title                                    : French-PGS
  255. Language                                 : French
  256. Default                                  : No
  257. Forced                                   : No
  258. Text #13
  259. ID                                       : 17
  260. Format                                   : PGS
  261. Muxing mode                              : zlib
  262. Codec ID                                 : S_HDMV/PGS
  263. Codec ID/Info                            : Picture based subtitle format used on BDs/HD-DVDs
  264. Duration                                 : 1 h 50 min
  265. Bit rate                                 : 36.0 kb/s
  266. Count of elements                        : 2602
  267. Stream size                              : 28.4 MiB (0%)
  268. Title                                    : German-PGS
  269. Language                                 : German
  270. Default                                  : No
  271. Forced                                   : No
  272. Text #14
  273. ID                                       : 18
  274. Format                                   : PGS
  275. Muxing mode                              : zlib
  276. Codec ID                                 : S_HDMV/PGS
  277. Codec ID/Info                            : Picture based subtitle format used on BDs/HD-DVDs
  278. Duration                                 : 1 h 50 min
  279. Bit rate                                 : 35.9 kb/s
  280. Count of elements                        : 2618
  281. Stream size                              : 28.4 MiB (0%)
  282. Title                                    : Greek-PGS
  283. Language                                 : Greek
  284. Default                                  : No
  285. Forced                                   : No
  286. Text #15
  287. ID                                       : 19
  288. Format                                   : PGS
  289. Muxing mode                              : zlib
  290. Codec ID                                 : S_HDMV/PGS
  291. Codec ID/Info                            : Picture based subtitle format used on BDs/HD-DVDs
  292. Duration                                 : 1 h 50 min
  293. Bit rate                                 : 34.1 kb/s
  294. Count of elements                        : 2610
  295. Stream size                              : 26.9 MiB (0%)
  296. Title                                    : Hungarian-PGS
  297. Language                                 : Hungarian
  298. Default                                  : No
  299. Forced                                   : No
  300. Text #16
  301. ID                                       : 20
  302. Format                                   : PGS
  303. Muxing mode                              : zlib
  304. Codec ID                                 : S_HDMV/PGS
  305. Codec ID/Info                            : Picture based subtitle format used on BDs/HD-DVDs
  306. Duration                                 : 1 h 50 min
  307. Bit rate                                 : 31.8 kb/s
  308. Count of elements                        : 2604
  309. Stream size                              : 25.1 MiB (0%)
  310. Title                                    : Icelandic-PGS
  311. Language                                 : Icelandic
  312. Default                                  : No
  313. Forced                                   : No
  314. Text #17
  315. ID                                       : 21
  316. Format                                   : PGS
  317. Muxing mode                              : zlib
  318. Codec ID                                 : S_HDMV/PGS
  319. Codec ID/Info                            : Picture based subtitle format used on BDs/HD-DVDs
  320. Duration                                 : 1 h 50 min
  321. Bit rate                                 : 32.6 kb/s
  322. Count of elements                        : 2608
  323. Stream size                              : 25.7 MiB (0%)
  324. Title                                    : Italian-PGS
  325. Language                                 : Italian
  326. Default                                  : No
  327. Forced                                   : No
  328. Text #18
  329. ID                                       : 22
  330. Format                                   : PGS
  331. Muxing mode                              : zlib
  332. Codec ID                                 : S_HDMV/PGS
  333. Codec ID/Info                            : Picture based subtitle format used on BDs/HD-DVDs
  334. Duration                                 : 1 h 50 min
  335. Bit rate                                 : 19.3 kb/s
  336. Count of elements                        : 2144
  337. Stream size                              : 15.2 MiB (0%)
  338. Title                                    : Japanese-PGS
  339. Language                                 : Japanese
  340. Default                                  : No
  341. Forced                                   : No
  342. Text #19
  343. ID                                       : 23
  344. Format                                   : PGS
  345. Muxing mode                              : zlib
  346. Codec ID                                 : S_HDMV/PGS
  347. Codec ID/Info                            : Picture based subtitle format used on BDs/HD-DVDs
  348. Duration                                 : 1 h 51 min
  349. Bit rate                                 : 22.0 kb/s
  350. Count of elements                        : 2492
  351. Stream size                              : 17.5 MiB (0%)
  352. Title                                    : Korean-PGS
  353. Language                                 : Korean
  354. Default                                  : No
  355. Forced                                   : No
  356. Text #20
  357. ID                                       : 24
  358. Format                                   : PGS
  359. Muxing mode                              : zlib
  360. Codec ID                                 : S_HDMV/PGS
  361. Codec ID/Info                            : Picture based subtitle format used on BDs/HD-DVDs
  362. Duration                                 : 1 h 50 min
  363. Bit rate                                 : 31.3 kb/s
  364. Count of elements                        : 2604
  365. Stream size                              : 24.7 MiB (0%)
  366. Title                                    : Norwegian-PGS
  367. Language                                 : Norwegian
  368. Default                                  : No
  369. Forced                                   : No
  370. Text #21
  371. ID                                       : 25
  372. Format                                   : PGS
  373. Muxing mode                              : zlib
  374. Codec ID                                 : S_HDMV/PGS
  375. Codec ID/Info                            : Picture based subtitle format used on BDs/HD-DVDs
  376. Duration                                 : 1 h 50 min
  377. Bit rate                                 : 33.6 kb/s
  378. Count of elements                        : 2596
  379. Stream size                              : 26.5 MiB (0%)
  380. Title                                    : Polish-PGS
  381. Language                                 : Polish
  382. Default                                  : No
  383. Forced                                   : No
  384. Text #22
  385. ID                                       : 26
  386. Format                                   : PGS
  387. Muxing mode                              : zlib
  388. Codec ID                                 : S_HDMV/PGS
  389. Codec ID/Info                            : Picture based subtitle format used on BDs/HD-DVDs
  390. Duration                                 : 1 h 50 min
  391. Bit rate                                 : 30.3 kb/s
  392. Count of elements                        : 2462
  393. Stream size                              : 24.0 MiB (0%)
  394. Title                                    : Portuguese-PGS
  395. Language                                 : Portuguese
  396. Default                                  : No
  397. Forced                                   : No
  398. Text #23
  399. ID                                       : 27
  400. Format                                   : PGS
  401. Muxing mode                              : zlib
  402. Codec ID                                 : S_HDMV/PGS
  403. Codec ID/Info                            : Picture based subtitle format used on BDs/HD-DVDs
  404. Duration                                 : 1 h 51 min
  405. Bit rate                                 : 33.6 kb/s
  406. Count of elements                        : 2604
  407. Stream size                              : 26.7 MiB (0%)
  408. Title                                    : Portuguese-PGS
  409. Language                                 : Portuguese
  410. Default                                  : No
  411. Forced                                   : No
  412. Text #24
  413. ID                                       : 28
  414. Format                                   : PGS
  415. Muxing mode                              : zlib
  416. Codec ID                                 : S_HDMV/PGS
  417. Codec ID/Info                            : Picture based subtitle format used on BDs/HD-DVDs
  418. Duration                                 : 1 h 51 min
  419. Bit rate                                 : 30.0 kb/s
  420. Count of elements                        : 2598
  421. Stream size                              : 23.8 MiB (0%)
  422. Title                                    : Romanian-PGS
  423. Language                                 : Romanian
  424. Default                                  : No
  425. Forced                                   : No
  426. Text #25
  427. ID                                       : 29
  428. Format                                   : PGS
  429. Muxing mode                              : zlib
  430. Codec ID                                 : S_HDMV/PGS
  431. Codec ID/Info                            : Picture based subtitle format used on BDs/HD-DVDs
  432. Duration                                 : 1 h 50 min
  433. Bit rate                                 : 30.0 kb/s
  434. Count of elements                        : 2596
  435. Stream size                              : 23.7 MiB (0%)
  436. Title                                    : Slovenian-PGS
  437. Language                                 : Slovenian
  438. Default                                  : No
  439. Forced                                   : No
  440. Text #26
  441. ID                                       : 30
  442. Format                                   : PGS
  443. Muxing mode                              : zlib
  444. Codec ID                                 : S_HDMV/PGS
  445. Codec ID/Info                            : Picture based subtitle format used on BDs/HD-DVDs
  446. Duration                                 : 1 h 50 min
  447. Bit rate                                 : 34.5 kb/s
  448. Count of elements                        : 2602
  449. Stream size                              : 27.2 MiB (0%)
  450. Title                                    : Spanish-PGS
  451. Language                                 : Spanish
  452. Default                                  : No
  453. Forced                                   : No
  454. Text #27
  455. ID                                       : 31
  456. Format                                   : PGS
  457. Muxing mode                              : zlib
  458. Codec ID                                 : S_HDMV/PGS
  459. Codec ID/Info                            : Picture based subtitle format used on BDs/HD-DVDs
  460. Duration                                 : 1 h 50 min
  461. Bit rate                                 : 26.2 kb/s
  462. Count of elements                        : 2207
  463. Stream size                              : 20.7 MiB (0%)
  464. Title                                    : Spanish-PGS
  465. Language                                 : Spanish
  466. Default                                  : No
  467. Forced                                   : No
  468. Text #28
  469. ID                                       : 32
  470. Format                                   : PGS
  471. Muxing mode                              : zlib
  472. Codec ID                                 : S_HDMV/PGS
  473. Codec ID/Info                            : Picture based subtitle format used on BDs/HD-DVDs
  474. Duration                                 : 1 h 50 min
  475. Bit rate                                 : 30.3 kb/s
  476. Count of elements                        : 2574
  477. Stream size                              : 23.9 MiB (0%)
  478. Title                                    : Swedish-PGS
  479. Language                                 : Swedish
  480. Default                                  : No
  481. Forced                                   : No
  482. Text #29
  483. ID                                       : 33
  484. Format                                   : PGS
  485. Muxing mode                              : zlib
  486. Codec ID                                 : S_HDMV/PGS
  487. Codec ID/Info                            : Picture based subtitle format used on BDs/HD-DVDs
  488. Duration                                 : 1 h 50 min
  489. Bit rate                                 : 24.7 kb/s
  490. Count of elements                        : 2478
  491. Stream size                              : 19.5 MiB (0%)
  492. Title                                    : Thai-PGS
  493. Language                                 : Thai
  494. Default                                  : No
  495. Forced                                   : No
  496. Text #30
  497. ID                                       : 34
  498. Format                                   : PGS
  499. Muxing mode                              : zlib
  500. Codec ID                                 : S_HDMV/PGS
  501. Codec ID/Info                            : Picture based subtitle format used on BDs/HD-DVDs
  502. Duration                                 : 1 h 50 min
  503. Bit rate                                 : 35.5 kb/s
  504. Count of elements                        : 2608
  505. Stream size                              : 28.0 MiB (0%)
  506. Title                                    : Turkish-PGS
  507. Language                                 : Turkish
  508. Default                                  : No
  509. Forced                                   : No
  510. Menu
  511. 00:00:00.000                             : en:Main Titles
  512. 00:04:13.545                             : en:Late for School
  513. 00:06:47.282                             : en:The Slacker
  514. 00:11:45.246                             : en:The Family McFly
  515. 00:18:04.166                             : en:A Time Machine?
  516. 00:28:12.274                             : en:Escape to the Past
  517. 00:31:30.680                             : en:1955
  518. 00:38:40.693                             : en:Dad the Dork
  519. 00:41:22.313                             : en:Calvin & Lorraine
  520. 00:47:53.370                             : en:Future Boy & Doc
  521. 00:55:53.141                             : en:Marty\'s Problem
  522. 00:58:49.860                             : en:The Matchmaker
  523. 01:05:16.788                             : en:Skateboard Hero
  524. 01:16:40.304                             : en:The Big Date
  525. 01:20:14.643                             : en:The Real George
  526. 01:27:23.321                             : en:Johnny B. Goode
  527. 01:31:12.050                             : en:Back to the Future
  528. 01:41:40.553                             : en:Doc\'s Decision
  529. 01:46:41.437                             : en:Future Shock
  530. 01:51:24.511                             : en:Roads? (Credits)
复制代码





                                       
                                       

                                       
                                       
                                       




回复

使用道具 举报

发表于 2020-10-16 10:47:24 | 显示全部楼层

楼主,我太崇拜你了!我想我是一天也不能离开蓝光电影网
回复 支持 反对

使用道具 举报

发表于 2020-10-16 11:08:08 | 显示全部楼层
  进来看看,哈哈哈,好东西。老电影就是经典。
回复 支持 反对

使用道具 举报

发表于 2020-10-16 16:59:46 | 显示全部楼层
好 的,休息休息
回复 支持 反对

使用道具 举报

发表于 7 天前 | 显示全部楼层
箩 利 资 原【 w w w . p 9 9  . f u n
回复 支持 反对

使用道具 举报

发表于 7 天前 | 显示全部楼层

楼主太厉害了!楼主,电影应该很好看我觉得蓝光电影网真是个好地方!
回复 支持 反对

使用道具 举报

发表于 昨天 18:28 | 显示全部楼层
楼主发贴辛苦了,谢谢楼主分享!我觉得蓝光电影网是注册对了!
回复 支持 反对

使用道具 举报

懒得打字嘛,点击右侧快捷回复 【右侧内容,后台自定义】
您需要登录后才可以回帖 登录 | 立即加入

本版积分规则

现在加入蓝光电影网,注册一个账号
上个主题 下个主题 快速回复 收藏帖子 返回列表 客服中心 搜索

手机版|小黑屋| 蓝光电影网 |网站地图 

Copyright © 2015-2019 Comsenz Inc.  Template by 蓝光电影论坛 All Rights Reserved.

Powered by 蓝光电影网 X3.4

特别声明:本站所有资源均由网上收集而来,版权归原影音公司所有,如果侵犯了你的权益,请通知我们,我们会及时删除侵权内容.

快速回复 返回顶部 返回列表