找回密码

蓝光电影网

查看: 309|回复: 7

[REMUX.HEVC] 海扁王 Kick-Ass.2010.2160p.BluRay.REMUX.HEVC.DTS-HD.MA.TrueHD.7.1.Atmos-FGT 62.01GB

[复制链接]

 成长值: 28405

发表于 2020-10-15 13:20:10 | 显示全部楼层 |阅读模式
海扁王 Kick-Ass.2010.2160p.BluRay.REMUX.HEVC.DTS-HD.MA.TrueHD.7.1.Atmos-FGT 62.01GB-1.jpg

译  名 海扁王/劲揪侠(港)/特攻联盟(台)/超屌侠

片  名 Kick-Ass

年  代 2010

产  地 美国/英国

类  别 动作/犯罪/惊悚

语  言 英语

上映日期 2010-04-16

IMDb评分  7.7/10 from 467,143 users

IMDb链接  http://www.imdb.com/title/tt1250777/

豆瓣评分 7.5/10 from 161,769 users

豆瓣链接 https://movie.douban.com/subject/3148748/

片  长 117 分钟

导  演 马修·沃恩 Matthew Vaughn

主  演 亚伦·约翰逊 Aaron Johnson

      科洛·莫瑞兹 Chloe Moretz

      尼古拉斯·凯奇 Nicolas Cage

      克里斯托夫·梅兹-普莱瑟 Christopher Mintz-Plasse

      马克·斯创 Mark Strong

      琳德西·冯塞卡 Lyndsy Fonseca

      伊万·彼得斯 Evan Peters

      克拉克 杜克 Clark Duke

      黛博拉·特维斯 Deborah Twiss

      Garrett M. Brown

      苏菲·吴 Sophie Wu




简  介




  戴夫·莱泽斯基(亚伦·约翰逊 Aaron Johnson 饰)和所有普通的男孩一样,梦想有一天可以成为超级英雄,只不过他把自己的这一梦想带入了现实。在网上购买到一套廉价的绿色连体衣之后,戴夫便开始了只身打击犯罪的行动。虽然第一次行动便让戴夫身负重伤,不过戴夫可不是一个轻言放弃的人,伤愈之后的戴夫在一次阻止斗殴时,被热心的群众发现并拍摄,之后关于超级英雄“海扁王”的事迹便传遍整个城市。成为传说中超级英雄的戴夫在一次行动中结识超级英雄父女“大老爸”(尼古拉斯·凯奇 Nicolas Cage饰)和“超杀女”(科洛·莫瑞兹 Chloe Moretz 饰),之后戴夫遭毒枭集团老大弗兰克·阿米克(马克·斯特朗 Mark Strong 饰)之子伪装成的英雄“红旋风”(克里斯托夫·梅兹-普莱瑟 Christopher Mintz-Plasse 饰)的利用,让“大老爸”和自己身陷囹圄。危难之时,“超杀女”及时出现救出戴夫,但“大老爸” 却不幸身亡。“超杀女”决定完成其父遗志,彻底消灭毒枭集团……

  本片根据马克·米勒(Mark Millar)著名同名漫画改编。




获奖情况




  第23届欧洲电影奖  (2010)

  观众选择奖(提名)




  第20届MTV电影奖  (2011)

  MTV电影奖 突破表演奖 科洛·莫瑞兹

  MTV电影奖 最佳打斗(提名) 科洛·莫瑞兹 / 马克·斯特朗




  第10届凤凰城影评人协会奖  (2010)

  最佳女配角(提名) 科洛·莫瑞兹

  最佳特技表演(提名)

  最具突破表演 科洛·莫瑞兹




  第12届美国青少年选择奖  (2010)

  最佳动作冒险电影(提名)

  最佳动作冒险电影男演员(提名) 尼古拉斯·凯奇

  最佳电影反派(提名) 克里斯托夫·梅兹-普莱瑟

  Choice Movie Breakout: Male(提名) 亚伦·泰勒-约翰逊

  Choice Movie Breakout: Female(提名) 科洛·莫瑞兹




  1. Video #1
  2. ID                                       : 1
  3. Format                                   : HEVC
  4. Format/Info                              : High Efficiency Video Coding
  5. Format profile                           : Main High@L4@High
  6. Codec ID                                 : V_MPEGH/ISO/HEVC
  7. Duration                                 : 1 h 57 min
  8. Bit rate                                 : 57.2 Mb/s
  9. Width                                    : 3 840 pixels
  10. Height                                   : 2 160 pixels
  11. Display aspect ratio                     : 16:9
  12. Frame rate mode                          : Constant
  13. Frame rate                               : 23.976 (24000/1001) FPS
  14. Color space                              : YUV
  15. Chroma subsampling                       : 4:2:0 (Type 2)
  16. Bit depth                                : 10 bits
  17. Bits/(Pixel*Frame)                       : 0.288
  18. Stream size                              : 47.1 GiB (76%)
  19. Title                                    : Kick-Ass.2010.2160p.BluRay.REMUX.HEVC.DTS-HD.MA.TrueHD.7.1.Atmos-FGT
  20. Default                                  : Yes
  21. Forced                                   : No
  22. Color range                              : Limited
  23. Color primaries                          : BT.2020
  24. Transfer characteristics                 : SMPTE ST 2084
  25. Matrix coefficients                      : BT.2020 non-constant
  26. Mastering display color primaries        : R: x=0.680000 y=0.320000, G: x=0.265000 y=0.690000, B: x=0.150000 y=0.060000, White point: x=0.312700 y=0.329000
  27. Mastering display luminance              : min: 0.0050 cd/m2, max: 1000.0000 cd/m2
  28. Maximum Content Light Level              : 1000 cd/m2
  29. Maximum Frame-Average Light Level        : 266 cd/m2

  30. Video #2
  31. ID                                       : 2
  32. Format                                   : HEVC
  33. Format/Info                              : High Efficiency Video Coding
  34. Format profile                           : Main High@L4@High
  35. Codec ID                                 : V_MPEGH/ISO/HEVC
  36. Duration                                 : 1 h 57 min
  37. Bit rate                                 : 7 666 kb/s
  38. Width                                    : 1 920 pixels
  39. Height                                   : 1 080 pixels
  40. Display aspect ratio                     : 16:9
  41. Frame rate mode                          : Constant
  42. Frame rate                               : 23.976 (24000/1001) FPS
  43. Color space                              : YUV
  44. Chroma subsampling                       : 4:2:0 (Type 2)
  45. Bit depth                                : 10 bits
  46. Bits/(Pixel*Frame)                       : 0.154
  47. Stream size                              : 6.31 GiB (10%)
  48. Title                                    : Kick-Ass.2010.2160p.BluRay.REMUX.HEVC.DTS-HD.MA.TrueHD.7.1.Atmos-FGT
  49. Default                                  : No
  50. Forced                                   : No
  51. Color range                              : Limited
  52. Color primaries                          : BT.2020
  53. Transfer characteristics                 : SMPTE ST 2084
  54. Matrix coefficients                      : BT.2020 non-constant
  55. Mastering display color primaries        : R: x=0.680000 y=0.320000, G: x=0.265000 y=0.690000, B: x=0.150000 y=0.060000, White point: x=0.312700 y=0.329000
  56. Mastering display luminance              : min: 0.0050 cd/m2, max: 1000.0000 cd/m2


  57. Audio #1
  58. ID                                       : 3
  59. Format                                   : TrueHD
  60. Format profile                           : TrueHD+Atmos / TrueHD
  61. Codec ID                                 : A_TRUEHD
  62. Duration                                 : 1 h 57 min
  63. Bit rate mode                            : Variable
  64. Bit rate                                 : 4 854 kb/s
  65. Maximum bit rate                         : 9 444 kb/s
  66. Channel(s)                               : Object Based / 8 channels
  67. Channel positions                        : Object Based / Front: L C R, Side: L R, Back: L R, LFE
  68. Sampling rate                            :  / 48.0 kHz
  69. Frame rate                               : 1 200.000 FPS (40 spf)
  70. Compression mode                         : Lossless
  71. Stream size                              : 3.99 GiB (6%)
  72. Title                                    : Kick-Ass.2010.2160p.BluRay.REMUX.HEVC.DTS-HD.MA.TrueHD.7.1.Atmos-FGT
  73. Language                                 : English
  74. Default                                  : Yes
  75. Forced                                   : No

  76. Audio #2
  77. ID                                       : 4
  78. Format                                   : DTS
  79. Format/Info                              : Digital Theater Systems
  80. Format profile                           : MA / Core
  81. Mode                                     : 16
  82. Format settings, Endianness              : Big
  83. Codec ID                                 : A_DTS
  84. Duration                                 : 1 h 57 min
  85. Bit rate mode                            : Variable / Constant
  86. Bit rate                                 : 3 840 kb/s / 1 509 kb/s
  87. Channel(s)                               : 8 channels / 6 channels
  88. Channel positions                        : Front: L C R, Side: L R, Back: L R, LFE / Front: L C R, Side: L R, LFE
  89. Sampling rate                            : 48.0 kHz
  90. Frame rate                               : 93.750 FPS (512 spf)
  91. Bit depth                                : 24 bits
  92. Compression mode                         : Lossless / Lossy
  93. Stream size                              : 3.18 GiB (5%)
  94. Title                                    : Kick-Ass.2010.2160p.BluRay.REMUX.HEVC.DTS-HD.MA.TrueHD.7.1.Atmos-FGT
  95. Language                                 : English
  96. Default                                  : No
  97. Forced                                   : No

  98. Audio #3
  99. ID                                       : 5
  100. Format                                   : AC-3
  101. Format/Info                              : Audio Coding 3
  102. Format settings, Endianness              : Big
  103. Codec ID                                 : A_AC3
  104. Duration                                 : 1 h 57 min
  105. Bit rate mode                            : Constant
  106. Bit rate                                 : 640 kb/s
  107. Channel(s)                               : 6 channels
  108. Channel positions                        : Front: L C R, Side: L R, LFE
  109. Sampling rate                            : 48.0 kHz
  110. Frame rate                               : 31.250 FPS (1536 spf)
  111. Bit depth                                : 16 bits
  112. Compression mode                         : Lossy
  113. Stream size                              : 539 MiB (1%)
  114. Title                                    : Kick-Ass.2010.2160p.BluRay.REMUX.HEVC.DTS-HD.MA.TrueHD.7.1.Atmos-FGT
  115. Language                                 : English
  116. Service kind                             : Complete Main
  117. Default                                  : No
  118. Forced                                   : No

  119. Audio #4
  120. ID                                       : 6
  121. Format                                   : AC-3
  122. Format/Info                              : Audio Coding 3
  123. Format settings, Endianness              : Big
  124. Codec ID                                 : A_AC3
  125. Duration                                 : 1 h 57 min
  126. Bit rate mode                            : Constant
  127. Bit rate                                 : 192 kb/s
  128. Channel(s)                               : 2 channels
  129. Channel positions                        : Front: L R
  130. Sampling rate                            : 48.0 kHz
  131. Frame rate                               : 31.250 FPS (1536 spf)
  132. Bit depth                                : 16 bits
  133. Compression mode                         : Lossy
  134. Stream size                              : 162 MiB (0%)
  135. Title                                    : Kick-Ass.2010.2160p.BluRay.REMUX.HEVC.DTS-HD.MA.TrueHD.7.1.Atmos-FGT
  136. Language                                 : English
  137. Service kind                             : Complete Main
  138. Default                                  : No
  139. Forced                                   : No

  140. Audio #5
  141. ID                                       : 7
  142. Format                                   : AC-3
  143. Format/Info                              : Audio Coding 3
  144. Format settings, Endianness              : Big
  145. Codec ID                                 : A_AC3
  146. Duration                                 : 1 h 57 min
  147. Bit rate mode                            : Constant
  148. Bit rate                                 : 640 kb/s
  149. Channel(s)                               : 6 channels
  150. Channel positions                        : Front: L C R, Side: L R, LFE
  151. Sampling rate                            : 48.0 kHz
  152. Frame rate                               : 31.250 FPS (1536 spf)
  153. Bit depth                                : 16 bits
  154. Compression mode                         : Lossy
  155. Stream size                              : 539 MiB (1%)
  156. Title                                    : Kick-Ass.2010.2160p.BluRay.REMUX.HEVC.DTS-HD.MA.TrueHD.7.1.Atmos-FGT
  157. Language                                 : French
  158. Service kind                             : Complete Main
  159. Default                                  : No
  160. Forced                                   : No

  161. Audio #6
  162. ID                                       : 8
  163. Format                                   : AC-3
  164. Format/Info                              : Audio Coding 3
  165. Mode                                     : Dolby Digital
  166. Format settings, Endianness              : Big
  167. Codec ID                                 : A_AC3
  168. Duration                                 : 1 h 57 min
  169. Bit rate mode                            : Constant
  170. Bit rate                                 : 192 kb/s
  171. Channel(s)                               : 2 channels
  172. Channel positions                        : Front: L R
  173. Sampling rate                            : 48.0 kHz
  174. Frame rate                               : 31.250 FPS (1536 spf)
  175. Bit depth                                : 16 bits
  176. Compression mode                         : Lossy
  177. Stream size                              : 162 MiB (0%)
  178. Title                                    : Kick-Ass.2010.2160p.BluRay.REMUX.HEVC.DTS-HD.MA.TrueHD.7.1.Atmos-FGT
  179. Language                                 : English
  180. Service kind                             : Complete Main
  181. Default                                  : No
  182. Forced                                   : No

  183. Text #1
  184. ID                                       : 9
  185. Format                                   : PGS
  186. Muxing mode                              : zlib
  187. Codec ID                                 : S_HDMV/PGS
  188. Codec ID/Info                            : Picture based subtitle format used on BDs/HD-DVDs
  189. Duration                                 : 1 h 50 min
  190. Bit rate                                 : 38.4 kb/s
  191. Count of elements                        : 2640
  192. Stream size                              : 30.3 MiB (0%)
  193. Title                                    : English-PGS
  194. Language                                 : English
  195. Default                                  : Yes
  196. Forced                                   : No

  197. Text #2
  198. ID                                       : 10
  199. Format                                   : PGS
  200. Muxing mode                              : zlib
  201. Codec ID                                 : S_HDMV/PGS
  202. Codec ID/Info                            : Picture based subtitle format used on BDs/HD-DVDs
  203. Duration                                 : 1 h 50 min
  204. Bit rate                                 : 41.2 kb/s
  205. Count of elements                        : 2902
  206. Stream size                              : 32.5 MiB (0%)
  207. Title                                    : English-SDH-PGS
  208. Language                                 : English
  209. Default                                  : No
  210. Forced                                   : No

  211. Text #3
  212. ID                                       : 11
  213. Format                                   : PGS
  214. Muxing mode                              : zlib
  215. Codec ID                                 : S_HDMV/PGS
  216. Codec ID/Info                            : Picture based subtitle format used on BDs/HD-DVDs
  217. Duration                                 : 1 h 57 min
  218. Bit rate                                 : 38.5 kb/s
  219. Count of elements                        : 3006
  220. Stream size                              : 32.2 MiB (0%)
  221. Title                                    : Spanish-PGS
  222. Language                                 : Spanish
  223. Default                                  : No
  224. Forced                                   : No

  225. Menu
  226. 00:00:00.000                             : en:Chapter 1
  227. 00:05:33.541                             : en:Chapter 2
  228. 00:15:55.829                             : en:Chapter 3
  229. 00:21:10.269                             : en:Chapter 4
  230. 00:28:17.904                             : en:Chapter 5
  231. 00:47:53.161                             : en:Chapter 6
  232. 00:52:35.026                             : en:Chapter 7
  233. 01:03:17.043                             : en:Chapter 8
  234. 01:10:17.087                             : en:Chapter 9
  235. 01:16:25.330                             : en:Chapter 10
  236. 01:25:17.487                             : en:Chapter 11
  237. 01:30:26.254                             : en:Chapter 12
  238. 01:38:17.558                             : en:Chapter 13
  239. 01:43:58.190                             : en:Chapter 14
  240. 01:47:05.627                             : en:Chapter 15
  241. 01:49:47.330                             : en:Chapter 16
复制代码






海扁王 Kick-Ass.2010.2160p.BluRay.REMUX.HEVC.DTS-HD.MA.TrueHD.7.1.Atmos-FGT 62.01GB-2.jpg
海扁王 Kick-Ass.2010.2160p.BluRay.REMUX.HEVC.DTS-HD.MA.TrueHD.7.1.Atmos-FGT 62.01GB-3.jpg

海扁王 Kick-Ass.2010.2160p.BluRay.REMUX.HEVC.DTS-HD.MA.TrueHD.7.1.Atmos-FGT 62.01GB-4.jpg
海扁王 Kick-Ass.2010.2160p.BluRay.REMUX.HEVC.DTS-HD.MA.TrueHD.7.1.Atmos-FGT 62.01GB-5.jpg

海扁王 Kick-Ass.2010.2160p.BluRay.REMUX.HEVC.DTS-HD.MA.TrueHD.7.1.Atmos-FGT 62.01GB-6.jpg
海扁王 Kick-Ass.2010.2160p.BluRay.REMUX.HEVC.DTS-HD.MA.TrueHD.7.1.Atmos-FGT 62.01GB-7.jpg






回复

使用道具 举报

发表于 2020-10-15 17:39:45 | 显示全部楼层

楼主太厉害了!楼主,电影应该很好看我觉得蓝光电影网真是个好地方!
回复 支持 反对

使用道具 举报

发表于 2020-10-15 21:54:06 | 显示全部楼层
楼主发贴辛苦了,谢谢楼主分享!我觉得蓝光电影网是注册对了!
回复 支持 反对

使用道具 举报

发表于 2020-10-16 16:50:03 | 显示全部楼层
这个也4K了?厉害!
回复 支持 反对

使用道具 举报

发表于 2020-10-17 20:06:47 | 显示全部楼层
楼主发贴辛苦了,谢谢楼主分享!我觉得蓝光电影网是注册对了!
回复 支持 反对

使用道具 举报

发表于 2020-10-21 00:31:01 | 显示全部楼层
楼主发贴辛苦了,谢谢楼主分享!我觉得蓝光电影网是注册对了!
回复 支持 反对

使用道具 举报

发表于 6 天前 | 显示全部楼层

这个帖子不回对不起自己!我想我是一天也不能离开蓝光电影网
回复 支持 反对

使用道具 举报

发表于 昨天 15:14 | 显示全部楼层
谢谢楼主分享
回复 支持 反对

使用道具 举报

懒得打字嘛,点击右侧快捷回复 【右侧内容,后台自定义】
您需要登录后才可以回帖 登录 | 立即加入

本版积分规则

现在加入蓝光电影网,注册一个账号
上个主题 下个主题 快速回复 收藏帖子 返回列表 客服中心 搜索

手机版|小黑屋| 蓝光电影网 |网站地图 

Copyright © 2015-2019 Comsenz Inc.  Template by 蓝光电影论坛 All Rights Reserved.

Powered by 蓝光电影网 X3.4

特别声明:本站所有资源均由网上收集而来,版权归原影音公司所有,如果侵犯了你的权益,请通知我们,我们会及时删除侵权内容.

快速回复 返回顶部 返回列表