找回密码

蓝光电影网

查看: 163|回复: 3

[8bit.SDR] 自然之力/飓风守护 Force.of.Nature.2020.EXTENDED.2160p.BluRay.x264.8bit.SDR.DTS-HD.MA.5.1-SWTYBLZ 44.65GB

[复制链接]

 成长值: 16530

发表于 2020-10-12 18:00:48 | 显示全部楼层 |阅读模式


◎译  名 自然之力/飓风守护
◎片  名 Force of Nature
◎年  代 2020
◎产  地 美国
◎类  别 剧情 / 动作
◎语  言 英语
◎上映日期 2020-06-18(美国)
◎IMDb评分  4.4/10 from 4323 users
◎IMDb链接  https://www.imdb.com/title/tt10308928/
◎豆瓣评分 4.6/10 from 441 users
◎豆瓣链接 https://movie.douban.com/subject/33441957/
◎片  长 91分钟
◎导  演 麦克·鲍力施 Michael Polish
◎编  剧 Cory Miller
◎主  演 梅尔·吉布森 Mel Gibson
       凯特·波茨沃斯 Kate Bosworth
       埃米尔·赫斯基 Emile Hirsch
       大卫·札亚斯 David Zayas
       斯蒂芬妮·卡约 Stephanie Cayo
       泰勒·乔恩·奥尔森 Tyler Jon Olson
       斯温·特梅尔 Swen Temmel
       雷·埃尔南德斯 Rey Hernandez
       杰西·麦金尼 Jesy McKinney
◎标  签 犯罪 | 梅尔·吉布森 | 动作 | 2020 | 美国 | 飓风 | 美国电影 | 剧情
◎简  介


  梅尔·吉布森、凯特·波茨沃斯出演新片[自然之力](Force Of Nature,暂译)。本片由麦克·鲍力施执导,科里·米勒撰写剧本。本片讲述一名警察在飓风疏散过程中必须保护建筑物内的剩余居民,而犯罪分子则试图在建筑物内实施神秘抢劫。吉布森饰演一位固执的退休侦探,他拒绝疏散,并对出现在他家门口的窃贼进行了反击。
  1. Video
  2. ID                                       : 1
  3. Format                                   : AVC
  4. Format/Info                              : Advanced Video Codec
  5. Format profile                           : [email protected]
  6. Format settings                          : CABAC / 5 Ref Frames
  7. Format settings, CABAC                   : Yes
  8. Format settings, Reference frames        : 5 frames
  9. Codec ID                                 : V_MPEG4/ISO/AVC
  10. Duration                                 : 1 h 39 min
  11. Bit rate                                 : 59.3 Mb/s
  12. Width                                    : 3 840 pixels
  13. Height                                   : 1 608 pixels
  14. Display aspect ratio                     : 2.40:1
  15. Frame rate mode                          : Constant
  16. Frame rate                               : 23.976 (24000/1001/189150) FPS
  17. Color space                              : YUV
  18. Chroma subsampling                       : 4:2:0
  19. Bit depth                                : 8 bits
  20. Scan type                                : Progressive
  21. Bits/(Pixel*Frame)                       : 0.401
  22. Stream size                              : 41.2 GiB (93%)
  23. Title                                    : Force.of.Nature.2020.EXTENDED.2160p.BluRay.x264.8bit.SDR.DTS-HD.MA.5.1-SWTYBLZ
  24. Writing library                          : x264 core 157 r2935 545de2f
  25. Encoding settings                        : cabac=1 / ref=5 / deblock=1:-1:-1 / analyse=0x3:0x113 / me=umh / subme=10 / psy=1 / psy_rd=1.00:0.15 / mixed_ref=1 / me_range=48 / chroma_me=1 / trellis=2 / 8x8dct=1 / cqm=0 / deadzone=21,11 / fast_pskip=1 / chroma_qp_offset=-3 / threads=48 / lookahead_threads=4 / sliced_threads=0 / nr=0 / decimate=0 / interlaced=0 / bluray_compat=0 / constrained_intra=0 / bframes=3 / b_pyramid=2 / b_adapt=2 / b_bias=0 / direct=3 / weightb=1 / open_gop=0 / weightp=2 / keyint=250 / keyint_min=23 / scenecut=40 / intra_refresh=0 / rc_lookahead=50 / rc=crf / mbtree=1 / crf=18.0 / qcomp=0.60 / qpmin=0 / qpmax=69 / qpstep=4 / ip_ratio=1.40 / aq=1:1.00
  26. Language                                 : English
  27. Default                                  : Yes
  28. Forced                                   : No
  29. Audio #1
  30. ID                                       : 2
  31. ID in the original source medium         : 4353 (0x1101)
  32. Format                                   : DTS XLL
  33. Format/Info                              : Digital Theater Systems
  34. Commercial name                          : DTS-HD Master Audio
  35. Codec ID                                 : A_DTS
  36. Duration                                 : 1 h 39 min
  37. Bit rate mode                            : Variable
  38. Bit rate                                 : 3 963 kb/s
  39. Channel(s)                               : 6 channels
  40. Channel layout                           : C L R Ls Rs LFE
  41. Sampling rate                            : 48.0 kHz
  42. Frame rate                               : 93.750 FPS (512 SPF)
  43. Bit depth                                : 24 bits
  44. Compression mode                         : Lossless
  45. Stream size                              : 2.76 GiB (6%)
  46. Title                                    : Force.of.Nature.2020.EXTENDED.2160p.BluRay.x264.8bit.SDR.DTS-HD.MA.5.1-SWTYBLZ
  47. Language                                 : English
  48. Default                                  : Yes
  49. Forced                                   : No
  50. Original source medium                   : Blu-ray
  51. Audio #2
  52. ID                                       : 3
  53. Format                                   : AC-3
  54. Format/Info                              : Audio Coding 3
  55. Commercial name                          : Dolby Digital
  56. Codec ID                                 : A_AC3
  57. Duration                                 : 1 h 39 min
  58. Bit rate mode                            : Constant
  59. Bit rate                                 : 640 kb/s
  60. Channel(s)                               : 6 channels
  61. Channel layout                           : L R C LFE Ls Rs
  62. Sampling rate                            : 48.0 kHz
  63. Frame rate                               : 31.250 FPS (1536 SPF)
  64. Compression mode                         : Lossy
  65. Stream size                              : 456 MiB (1%)
  66. Title                                    : Force.of.Nature.2020.EXTENDED.2160p.BluRay.x264.8bit.SDR.DTS-HD.MA.5.1-SWTYBLZ
  67. Language                                 : English
  68. Service kind                             : Complete Main
  69. Default                                  : No
  70. Forced                                   : No
  71. Text #1
  72. ID                                       : 4
  73. ID in the original source medium         : 4608 (0x1200)
  74. Format                                   : PGS
  75. Muxing mode                              : zlib
  76. Codec ID                                 : S_HDMV/PGS
  77. Codec ID/Info                            : Picture based subtitle format used on BDs/HD-DVDs
  78. Duration                                 : 1 h 34 min
  79. Bit rate                                 : 37.3 kb/s
  80. Count of elements                        : 2138
  81. Stream size                              : 25.2 MiB (0%)
  82. Title                                    : German-PGS
  83. Language                                 : German
  84. Default                                  : No
  85. Forced                                   : No
  86. Original source medium                   : Blu-ray
  87. Text #2
  88. ID                                       : 5
  89. ID in the original source medium         : 4609 (0x1201)
  90. Format                                   : PGS
  91. Muxing mode                              : zlib
  92. Codec ID                                 : S_HDMV/PGS
  93. Codec ID/Info                            : Picture based subtitle format used on BDs/HD-DVDs
  94. Duration                                 : 51 min 25 s
  95. Bit rate                                 : 203 b/s
  96. Count of elements                        : 8
  97. Stream size                              : 76.7 KiB (0%)
  98. Title                                    : German-FORCED-PGS
  99. Language                                 : German
  100. Default                                  : No
  101. Forced                                   : No
  102. Original source medium                   : Blu-ray
  103. Menu
  104. 00:00:00.000                             : en:Chapter 01
  105. 00:08:57.828                             : en:Chapter 02
  106. 00:15:35.684                             : en:Chapter 03
  107. 00:20:44.117                             : en:Chapter 04
  108. 00:29:53.291                             : en:Chapter 05
  109. 00:39:55.976                             : en:Chapter 06
  110. 00:49:15.953                             : en:Chapter 07
  111. 00:57:55.054                             : en:Chapter 08
  112. 01:07:19.994                             : en:Chapter 09
  113. 01:15:46.959                             : en:Chapter 10
  114. 01:26:03.491                             : en:Chapter 11
  115. 01:33:14.088                             : en:Chapter 12
复制代码





                                       
                                       

                                       
                                       
                                       




回复

使用道具 举报

发表于 2020-10-13 00:06:35 | 显示全部楼层

楼主太厉害了!楼主,电影应该很好看我觉得蓝光电影网真是个好地方!
回复 支持 反对

使用道具 举报

发表于 2020-10-13 09:55:53 | 显示全部楼层

这个帖子不回对不起自己!我想我是一天也不能离开蓝光电影网
回复 支持 反对

使用道具 举报

发表于 2020-10-14 10:40:41 | 显示全部楼层
谢谢分享!
回复

使用道具 举报

懒得打字嘛,点击右侧快捷回复 【右侧内容,后台自定义】
您需要登录后才可以回帖 登录 | 立即加入

本版积分规则

现在加入蓝光电影网,注册一个账号
上个主题 下个主题 快速回复 收藏帖子 返回列表 客服中心 搜索

手机版|小黑屋| 蓝光电影网 |网站地图 

Copyright © 2015-2019 Comsenz Inc.  Template by 蓝光电影论坛 All Rights Reserved.

Powered by 蓝光电影网 X3.4

特别声明:本站所有资源均由网上收集而来,版权归原影音公司所有,如果侵犯了你的权益,请通知我们,我们会及时删除侵权内容.

快速回复 返回顶部 返回列表