找回密码

蓝光电影网

查看: 193|回复: 5

[UHD.HEVC] 职业枪手 The.Specialists.1969.ITALIAN.2160p.BluRay.REMUX.HEVC.SDR.DTS-HD.2.0-FGT 46.47GB

[复制链接]

 成长值: 16065

发表于 2020-9-10 01:04:04 | 显示全部楼层 |阅读模式


◎译  名 职业枪手/Le Specialiste/The Specialists/職業鎗手(港)
◎片  名 Gli specialisti
◎年  代 1969
◎产  地 意大利,法国,西德
◎类  别 西部
◎语  言 意大利语
◎上映日期 1969
◎IMDb评分  6.3/10 from 747 users
◎IMDb链接  https://www.imdb.com/title/tt0065026/
◎豆瓣评分 /10 from 0 users
◎豆瓣链接 https://movie.douban.com/subject/5156643/
◎片  长 104 分钟
◎导  演 赛尔乔·科尔布奇 Sergio Corbucci
◎编  剧 赛尔乔·科尔布奇 Sergio Corbucci
◎主  演 吉诺·佩尔尼切 Gino Pernice
       Riccardo Pizzuti
       雷纳托·平奇罗利 Renato Pinciroli
       加斯通·莫辛 Gastone Moschin
       贝里奇·蒙迪纳罗 Brizio Montinaro
       塞尔日·马康 Serge Marquand
       西尔薇·费内克 Sylvie Fennec
       Pietro Ceccarelli
       马里奥·阿多夫 Mario Adorf
       弗兰西丝·法比安 Fran?oise Fabian
       安吉拉·露西 Angela Luce
       约翰尼·哈里戴 Johnny Hallyday
       Andrés José Cruz Soublette
◎标  签 意大利 | 1969 | 西部 | western | SergioCorbucci | 西德 | 被忽视的片子 | 法国
◎简  介


  暂无相关剧情介绍
  1. Video
  2. ID                                       : 1
  3. ID in the original source medium         : 4113 (0x1011)
  4. Format                                   : HEVC
  5. Format/Info                              : High Efficiency Video Coding
  6. Format profile                           : Main [email protected]@High
  7. Codec ID                                 : V_MPEGH/ISO/HEVC
  8. Duration                                 : 1 h 44 min
  9. Bit rate                                 : 60.0 Mb/s
  10. Width                                    : 3 840 pixels
  11. Height                                   : 2 160 pixels
  12. Display aspect ratio                     : 16:9
  13. Frame rate mode                          : Constant
  14. Frame rate                               : 24.000 FPS
  15. Color space                              : YUV
  16. Chroma subsampling                       : 4:2:0 (Type 2)
  17. Bit depth                                : 10 bits
  18. Bits/(Pixel*Frame)                       : 0.301
  19. Stream size                              : 43.8 GiB (94%)
  20. Title                                    : The.Specialists.1969.ITALIAN.2160p.BluRay.REMUX.HEVC.SDR.DTS-HD.2.0-FGT
  21. Writing library                          : ATEME Titan File 3.8.14 (4.8.14.0)      
  22. Language                                 : English
  23. Default                                  : No
  24. Forced                                   : No
  25. Color range                              : Limited
  26. Color primaries                          : BT.709
  27. Transfer characteristics                 : BT.709
  28. Matrix coefficients                      : BT.709
  29. Original source medium                   : Blu-ray

  30. Audio #1
  31. ID                                       : 2
  32. ID in the original source medium         : 4353 (0x1101)
  33. Format                                   : DTS XLL
  34. Format/Info                              : Digital Theater Systems
  35. Commercial name                          : DTS-HD Master Audio
  36. Codec ID                                 : A_DTS
  37. Duration                                 : 1 h 44 min
  38. Bit rate mode                            : Variable
  39. Bit rate                                 : 1 779 kb/s
  40. Channel(s)                               : 2 channels
  41. Channel layout                           : L R
  42. Sampling rate                            : 48.0 kHz
  43. Frame rate                               : 93.750 FPS (512 SPF)
  44. Bit depth                                : 24 bits
  45. Compression mode                         : Lossless
  46. Stream size                              : 1.30 GiB (3%)
  47. Title                                    : The.Specialists.1969.ITALIAN.2160p.BluRay.REMUX.HEVC.SDR.DTS-HD.2.0-FGT
  48. Language                                 : Italian
  49. Default                                  : Yes
  50. Forced                                   : No
  51. Original source medium                   : Blu-ray

  52. Audio #2
  53. ID                                       : 3
  54. ID in the original source medium         : 4352 (0x1100)
  55. Format                                   : DTS XLL
  56. Format/Info                              : Digital Theater Systems
  57. Commercial name                          : DTS-HD Master Audio
  58. Codec ID                                 : A_DTS
  59. Duration                                 : 1 h 44 min
  60. Bit rate mode                            : Variable
  61. Bit rate                                 : 1 857 kb/s
  62. Channel(s)                               : 2 channels
  63. Channel layout                           : L R
  64. Sampling rate                            : 48.0 kHz
  65. Frame rate                               : 93.750 FPS (512 SPF)
  66. Bit depth                                : 24 bits
  67. Compression mode                         : Lossless
  68. Stream size                              : 1.36 GiB (3%)
  69. Title                                    : The.Specialists.1969.ITALIAN.2160p.BluRay.REMUX.HEVC.SDR.DTS-HD.2.0-FGT
  70. Language                                 : French
  71. Default                                  : No
  72. Forced                                   : No
  73. Original source medium                   : Blu-ray

  74. Text #1
  75. ID                                       : 4
  76. Format                                   : UTF-8
  77. Codec ID                                 : S_TEXT/UTF8
  78. Codec ID/Info                            : UTF-8 Plain Text
  79. Duration                                 : 1 h 44 min
  80. Bit rate                                 : 39 b/s
  81. Count of elements                        : 1151
  82. Stream size                              : 30.1 KiB (0%)
  83. Title                                    : English-SRT
  84. Language                                 : English
  85. Default                                  : Yes
  86. Forced                                   : No

  87. Text #2
  88. ID                                       : 5
  89. ID in the original source medium         : 4608 (0x1200)
  90. Format                                   : PGS
  91. Muxing mode                              : zlib
  92. Codec ID                                 : S_HDMV/PGS
  93. Codec ID/Info                            : Picture based subtitle format used on BDs/HD-DVDs
  94. Duration                                 : 1 s 479 ms
  95. Bit rate                                 : 59.7 kb/s
  96. Count of elements                        : 2
  97. Stream size                              : 10.8 KiB (0%)
  98. Title                                    : French-PGS
  99. Language                                 : French
  100. Default                                  : No
  101. Forced                                   : No
  102. Original source medium                   : Blu-ray

  103. Text #3
  104. ID                                       : 6
  105. ID in the original source medium         : 4609 (0x1201)
  106. Format                                   : PGS
  107. Muxing mode                              : zlib
  108. Codec ID                                 : S_HDMV/PGS
  109. Codec ID/Info                            : Picture based subtitle format used on BDs/HD-DVDs
  110. Duration                                 : 1 h 42 min
  111. Bit rate                                 : 21.9 kb/s
  112. Count of elements                        : 2098
  113. Stream size                              : 16.1 MiB (0%)
  114. Title                                    : French-PGS
  115. Language                                 : French
  116. Default                                  : No
  117. Forced                                   : No
  118. Original source medium                   : Blu-ray

  119. Text #4
  120. ID                                       : 7
  121. ID in the original source medium         : 4610 (0x1202)
  122. Format                                   : PGS
  123. Muxing mode                              : zlib
  124. Codec ID                                 : S_HDMV/PGS
  125. Codec ID/Info                            : Picture based subtitle format used on BDs/HD-DVDs
  126. Duration                                 : 1 h 44 min
  127. Bit rate                                 : 27.5 kb/s
  128. Count of elements                        : 2408
  129. Stream size                              : 20.5 MiB (0%)
  130. Title                                    : French-PGS
  131. Language                                 : French
  132. Default                                  : No
  133. Forced                                   : No
  134. Original source medium                   : Blu-ray

  135. Text #5
  136. ID                                       : 8
  137. ID in the original source medium         : 4611 (0x1203)
  138. Format                                   : PGS
  139. Muxing mode                              : zlib
  140. Codec ID                                 : S_HDMV/PGS
  141. Codec ID/Info                            : Picture based subtitle format used on BDs/HD-DVDs
  142. Duration                                 : 1 h 44 min
  143. Bit rate                                 : 24.7 kb/s
  144. Count of elements                        : 2312
  145. Stream size                              : 18.4 MiB (0%)
  146. Title                                    : English-PGS
  147. Language                                 : English
  148. Default                                  : No
  149. Forced                                   : No
  150. Original source medium                   : Blu-ray

  151. Menu
  152. 00:00:00.000                             : en:Chapter 01
  153. 00:08:25.250                             : en:Chapter 02
  154. 00:16:35.125                             : en:Chapter 03
  155. 00:23:51.458                             : en:Chapter 04
  156. 00:31:20.416                             : en:Chapter 05
  157. 00:42:01.875                             : en:Chapter 06
  158. 00:53:36.083                             : en:Chapter 07
  159. 01:01:30.875                             : en:Chapter 08
  160. 01:09:36.375                             : en:Chapter 09
  161. 01:17:17.166                             : en:Chapter 10
  162. 01:25:27.916                             : en:Chapter 11
  163. 01:34:20.458                             : en:Chapter 12
复制代码



                                       
                                       

                                       
                                       
                                       




回复

使用道具 举报

 成长值: 4735

发表于 2020-9-10 18:32:38 | 显示全部楼层
谢谢楼主无私分享。
回复 支持 反对

使用道具 举报

发表于 2020-9-10 19:55:52 | 显示全部楼层
楼主发贴辛苦了,谢谢楼主分享!我觉得蓝光电影网是注册对了!
回复 支持 反对

使用道具 举报

发表于 2020-9-11 08:42:27 | 显示全部楼层
楼主发贴辛苦了,谢谢楼主分享!我觉得蓝光电影网是注册对了!
回复 支持 反对

使用道具 举报

发表于 2020-9-12 08:48:34 | 显示全部楼层

这个帖子不回对不起自己!我想我是一天也不能离开蓝光电影网
回复 支持 反对

使用道具 举报

发表于 2020-9-13 17:55:32 | 显示全部楼层
楼主发贴辛苦了,谢谢楼主分享!我觉得蓝光电影网是注册对了!
回复 支持 反对

使用道具 举报

懒得打字嘛,点击右侧快捷回复 【右侧内容,后台自定义】
您需要登录后才可以回帖 登录 | 立即加入

本版积分规则

现在加入蓝光电影网,注册一个账号
上个主题 下个主题 快速回复 收藏帖子 返回列表 客服中心 搜索

手机版|小黑屋| 蓝光电影网 |网站地图 

Copyright © 2015-2019 Comsenz Inc.  Template by 蓝光电影论坛 All Rights Reserved.

Powered by 蓝光电影网 X3.4

特别声明:本站所有资源均由网上收集而来,版权归原影音公司所有,如果侵犯了你的权益,请通知我们,我们会及时删除侵权内容.

快速回复 返回顶部 返回列表