找回密码

蓝光电影网

查看: 1659|回复: 27

[2160p] 秘密花园 The.Secret.Garden.2020.HDR.2160p.WEB.H265-HUZZAH 10.69GB

[复制链接]

 成长值: 17685

发表于 2020-8-8 23:28:06 | 显示全部楼层 |阅读模式
秘密花园 The.Secret.Garden.2020.HDR.2160p.WEB.H265-HUZZAH 10.69GB-1.jpeg

◎译  名 秘密花园
◎片  名 The Secret Garden
◎年  代 2020
◎产  地 英国 / 法国
◎类  别 剧情 / 奇幻
◎语  言 英语
◎上映日期 2020-08-07(美国)
◎IMDb评分  6.9/10 from 47 users
◎IMDb链接  https://www.imdb.com/title/tt2702920
◎豆瓣评分 0/10 from 0 users
◎豆瓣链接 https://movie.douban.com/subject/30206883/
◎片  长 99分钟
◎导  演 马克·穆登 Marc Munden
◎编  剧 杰克·索恩 Jack Thorne / 弗朗西丝·霍奇森·伯内特 Frances Hodgson Burnett
◎主  演 迪克西·艾格瑞克斯 Dixie Egerickx
       科林·费尔斯 Colin Firth
       朱丽·沃特斯 Julie Walters
       伊登·黑赫斯特 Edan Hayhurst
       梅芙·德莫迪 Maeve Dermody
       杰玛·鲍威尔 Jemma Powell
       保罗·G·雷蒙德 Paul G. Raymond
       阿米尔·威尔森 Amir Wilson
       Isis Davis
       Sonia Goswami
       Paul Dean-Kelly
       Anne Lacey
       Albert Giannitelli
       Jackson Kai
       Chloe Stannage
       Tommy Gene Surridge

◎标  签 奇幻 | 英国 | 小说改编 | 童话 | ColinFirth | 2020 | 儿童 | 电影
◎简  介

  
  小女孩玛丽父母双亡,她生活在姨夫阴暗神秘的大房子里。随后,玛丽闯进了禁闭已久的花园,与迪肯、柯林等人找到了快乐的源泉。充满魔力的旅程揭开,快乐、爱心,改变了孩子们的人生。
  1. Video
  2. ID                                       : 1
  3. Format                                   : HEVC
  4. Format/Info                              : High Efficiency Video Coding
  5. Format profile                           : Main [email protected]@Main
  6. Codec ID                                 : V_MPEGH/ISO/HEVC
  7. Duration                                 : 1 h 39 min
  8. Bit rate                                 : 14.9 Mb/s
  9. Width                                    : 3 840 pixels
  10. Height                                   : 2 160 pixels
  11. Display aspect ratio                     : 16:9
  12. Frame rate mode                          : Constant
  13. Frame rate                               : 23.976 (24000/1001/189150) FPS
  14. Color space                              : YUV
  15. Chroma subsampling                       : 4:2:0 (Type 2)
  16. Bit depth                                : 10 bits
  17. Bits/(Pixel*Frame)                       : 0.075
  18. Stream size                              : 10.4 GiB (98%)
  19. Default                                  : Yes
  20. Forced                                   : No
  21. Color range                              : Limited
  22. Color primaries                          : BT.2020
  23. Transfer characteristics                 : PQ
  24. Matrix coefficients                      : BT.2020 non-constant
  25. Maximum Content Light Level              : 1028 cd/m2
  26. Maximum Frame-Average Light Level        : 338 cd/m2
  27. Audio
  28. ID                                       : 2
  29. Format                                   : E-AC-3
  30. Format/Info                              : Enhanced AC-3
  31. Commercial name                          : Dolby Digital Plus
  32. Codec ID                                 : A_EAC3
  33. Duration                                 : 1 h 39 min
  34. Bit rate mode                            : Constant
  35. Bit rate                                 : 256 kb/s
  36. Channel(s)                               : 6 channels
  37. Channel layout                           : L R C LFE Ls Rs
  38. Sampling rate                            : 48.0 kHz
  39. Frame rate                               : 31.250 FPS (1536 SPF)
  40. Compression mode                         : Lossy
  41. Stream size                              : 183 MiB (2%)
  42. Language                                 : English
  43. Service kind                             : Complete Main
  44. Default                                  : Yes
  45. Forced                                   : No
  46. Text
  47. ID                                       : 3
  48. Format                                   : UTF-8
  49. Codec ID                                 : S_TEXT/UTF8
  50. Codec ID/Info                            : UTF-8 Plain Text
  51. Duration                                 : 1 h 32 min
  52. Bit rate                                 : 43 b/s
  53. Count of elements                        : 1040
  54. Stream size                              : 29.5 KiB (0%)
  55. Language                                 : English
  56. Default                                  : No
  57. Forced                                   : No
复制代码



                                       
                                       

                                       
                                       
                                       




回复

使用道具 举报

发表于 2020-8-9 07:40:44 | 显示全部楼层
谢谢楼主分享。
回复 支持 反对

使用道具 举报

 成长值: 6680

发表于 2020-8-9 11:46:32 | 显示全部楼层
楼主发贴辛苦了,谢谢楼主分享!我觉得蓝光电影网是注册对了!
回复 支持 反对

使用道具 举报

发表于 2020-8-9 12:28:24 | 显示全部楼层
充满魔力的旅程揭开,快乐、爱心,改变了孩子们的人生。感谢分享好资源!
回复 支持 反对

使用道具 举报

发表于 2020-8-9 12:40:18 | 显示全部楼层

论坛不能没有像楼主这样的人才啊!我会一直支持蓝光电影网
回复 支持 反对

使用道具 举报

发表于 2020-8-9 14:01:12 | 显示全部楼层

楼主太厉害了!楼主,电影应该很好看我觉得蓝光电影网真是个好地方!
回复 支持 反对

使用道具 举报

发表于 2020-8-9 21:57:05 | 显示全部楼层

其实我一直觉得楼主的品味不错!呵呵!蓝光电影网太棒了!
回复 支持 反对

使用道具 举报

发表于 2020-8-10 10:58:52 | 显示全部楼层

我看不错噢 谢谢楼主!蓝光电影网越来越好!
回复 支持 反对

使用道具 举报

发表于 2020-8-11 07:30:56 | 显示全部楼层
楼主发贴辛苦了,谢谢楼主分享!我觉得蓝光电影网是注册对了!
回复 支持 反对

使用道具 举报

发表于 2020-8-11 11:10:27 | 显示全部楼层
又一部魔幻电影
回复 支持 反对

使用道具 举报

懒得打字嘛,点击右侧快捷回复 【右侧内容,后台自定义】
您需要登录后才可以回帖 登录 | 立即加入

本版积分规则

现在加入蓝光电影网,注册一个账号
上个主题 下个主题 快速回复 收藏帖子 返回列表 客服中心 搜索

手机版|小黑屋| 蓝光电影网 |网站地图 

Copyright © 2015-2019 Comsenz Inc.  Template by 蓝光电影论坛 All Rights Reserved.

Powered by 蓝光电影网 X3.4

特别声明:本站所有资源均由网上收集而来,版权归原影音公司所有,如果侵犯了你的权益,请通知我们,我们会及时删除侵权内容.

快速回复 返回顶部 返回列表