找回密码

蓝光电影网

查看: 49|回复: 4

[剧情片] 俘获玛丽/记录玛丽 Capturing.Mary.2007.1080p.AMZN.WEBRip.DDP2.0.x264-TEPES 10.57GB

[复制链接]

 成长值: 26095

发表于 5 天前 | 显示全部楼层 |阅读模式
俘获玛丽/记录玛丽 Capturing.Mary.2007.1080p.AMZN.WEBRip.DDP2.0.x264-TEPES 10.57GB-1.png

译  名 俘获玛丽 / 记录玛丽
片  名 Capturing Mary
年  代 2007
产  地 英国
类  别 剧情
语  言 英语
上映日期 2007-11-12
IMDb评分  6.9/10 from 1563 users
IMDb链接  https://www.imdb.com/title/tt0899052
豆瓣评分 7.8/10 from 268 users
豆瓣链接 https://movie.douban.com/subject/2287158/
导  演 斯蒂芬·波利亚科夫 Stephen Poliakoff
编  剧 斯蒂芬·波利亚科夫 Stephen Poliakoff
主  演 玛吉·史密斯 Maggie Smith
       大卫·威廉姆斯 David Walliams
       露丝·威尔森 Ruth Wilson


标  签 英国 | MaggieSmith | BBC | 英国电影 | 英剧 | 女性 | 2007 | DavidWilliams

简  介  

  如果没有看AReal Summer,并不会对欣赏 Capturing Mary有太大影响。这个故事是说女作家 Mary年纪轻轻就显露才华,为一家星期天报纸写专栏,以“年轻人的声音”自居。她被邀请到 Joe’s Palace中的大宅参加名流艺术家的晚会,遭遇了一个神秘且具有强大影响力的男人Greville。Mary被Greville的神秘感吸引,然而面对他的步步逼近的精神上的操纵,她坚决地拒绝了。她的事业从此碰壁,写作陷入低潮。多年以后Mary已经重建自己的事业,却一直无法走出Greville的阴影,为逃避精神上的压力而酗酒。直到有一天她终于鼓足勇气,面对过去,重返久违的大宅,看门人Joe为她打开了大门……
  1. Video
  2. ID                                       : 1
  3. Format                                   : AVC
  4. Format/Info                              : Advanced Video Codec
  5. Format profile                           : High@L4
  6. Format settings                          : CABAC / 4 Ref Frames
  7. Format settings, CABAC                   : Yes
  8. Format settings, Reference frames        : 4 frames
  9. Codec ID                                 : V_MPEG4/ISO/AVC
  10. Duration                                 : 1 h 44 min
  11. Bit rate mode                            : Variable
  12. Bit rate                                 : 14.2 Mb/s
  13. Maximum bit rate                         : 15.0 Mb/s
  14. Width                                    : 1 920 pixels
  15. Height                                   : 1 080 pixels
  16. Display aspect ratio                     : 16:9
  17. Frame rate mode                          : Constant
  18. Frame rate                               : 23.976 (24000/1001/189150) FPS
  19. Color space                              : YUV
  20. Chroma subsampling                       : 4:2:0
  21. Bit depth                                : 8 bits
  22. Scan type                                : Progressive
  23. Bits/(Pixel*Frame)                       : 0.286
  24. Stream size                              : 10.4 GiB (98%)
  25. Default                                  : Yes
  26. Forced                                   : No
  27. Color range                              : Limited
  28. Color primaries                          : BT.709
  29. Transfer characteristics                 : BT.709
  30. Matrix coefficients                      : BT.709

  31. Audio
  32. ID                                       : 2
  33. Format                                   : E-AC-3
  34. Format/Info                              : Enhanced AC-3
  35. Commercial name                          : Dolby Digital Plus
  36. Codec ID                                 : A_EAC3
  37. Duration                                 : 1 h 44 min
  38. Bit rate mode                            : Constant
  39. Bit rate                                 : 224 kb/s
  40. Channel(s)                               : 2 channels
  41. Channel layout                           : L R
  42. Sampling rate                            : 48.0 kHz
  43. Frame rate                               : 31.250 FPS (1536 SPF)
  44. Compression mode                         : Lossy
  45. Stream size                              : 168 MiB (2%)
  46. Language                                 : English
  47. Service kind                             : Complete Main
  48. Default                                  : Yes
  49. Forced                                   : No

  50. Text #1
  51. ID                                       : 3
  52. Format                                   : UTF-8
  53. Codec ID                                 : S_TEXT/UTF8
  54. Codec ID/Info                            : UTF-8 Plain Text
  55. Duration                                 : 1 h 41 min
  56. Bit rate                                 : 63 b/s
  57. Count of elements                        : 1495
  58. Stream size                              : 46.9 KiB (0%)
  59. Language                                 : English
  60. Default                                  : No
  61. Forced                                   : No

  62. Text #2
  63. ID                                       : 4
  64. Format                                   : UTF-8
  65. Codec ID                                 : S_TEXT/UTF8
  66. Codec ID/Info                            : UTF-8 Plain Text
  67. Duration                                 : 1 h 42 min
  68. Bit rate                                 : 66 b/s
  69. Count of elements                        : 1604
  70. Stream size                              : 50.4 KiB (0%)
  71. Title                                    : SDH
  72. Language                                 : English
  73. Default                                  : No
  74. Forced                                   : No
复制代码

俘获玛丽/记录玛丽 Capturing.Mary.2007.1080p.AMZN.WEBRip.DDP2.0.x264-TEPES 10.57GB-2.png 俘获玛丽/记录玛丽 Capturing.Mary.2007.1080p.AMZN.WEBRip.DDP2.0.x264-TEPES 10.57GB-3.png 俘获玛丽/记录玛丽 Capturing.Mary.2007.1080p.AMZN.WEBRip.DDP2.0.x264-TEPES 10.57GB-4.png






回复

使用道具 举报

 成长值: 3520

发表于 5 天前 | 显示全部楼层
太好啦&萬分感謝版主的無私發佈分享%
回复 支持 反对

使用道具 举报

发表于 5 天前 | 显示全部楼层
楼主发贴辛苦了,谢谢楼主分享!我觉得蓝光电影网是注册对了!
回复 支持 反对

使用道具 举报

懒得打字嘛,点击右侧快捷回复 【右侧内容,后台自定义】
您需要登录后才可以回帖 登录 | 立即加入

本版积分规则

现在加入蓝光电影网,注册一个账号
上个主题 下个主题 快速回复 收藏帖子 返回列表 客服中心 搜索

手机版|小黑屋| 蓝光电影网 |网站地图 

Copyright © 2015-2019 Comsenz Inc.  Template by 蓝光电影论坛 All Rights Reserved.

Powered by 蓝光电影网 X3.4

特别声明:本站所有资源均由网上收集而来,版权归原影音公司所有,如果侵犯了你的权益,请通知我们,我们会及时删除侵权内容.

快速回复 返回顶部 返回列表