找回密码

蓝光电影网

查看: 277|回复: 7

[10bit.SDR] 霹雳男儿/雷声四起 Days.of.Thunder.1990.2160p.BluRay.x265.10bit.SDR.DTS-HD.MA.TrueHD.5.1-SWTYBLZ 68.07GB

[复制链接]

 成长值: 26095

发表于 6 天前 | 显示全部楼层 |阅读模式
霹雳男儿/雷声四起 Days.of.Thunder.1990.2160p.BluRay.x265.10bit.SDR.DTS-HD.MA.TrueHD.5.1-SWTYBLZ 68.07GB-1.png

译  名 霹雳男儿 / 雷声四起 / 雷霆壮志 / 雷鸣的日子
片  名 Days of Thunder
年  代 1990
产  地 美国
类  别 剧情 / 动作 / 爱情 / 运动
语  言 英语
上映日期 1990-06-27
IMDb评分  6.0/10 from 75954 users
IMDb链接  https://www.imdb.com/title/tt0099371
豆瓣评分 6.8/10 from 1794 users
豆瓣链接 https://movie.douban.com/subject/1292746/
片  长 107 分钟
导  演 Tony Scott
编  剧 Robert Towne
主  演 Tom Cruise
       Nicole Kidman
       Robert Duvall


标  签 TomCruise | 美国 | NicoleKidman | 励志 | 汤姆·克鲁斯 | 爱情 | 美国电影 | 1990

简  介  

  赛车版的《壮志凌云》
  杰克是一名职业赛车手,对胜利和赛车冠军充满了渴望,在走出失败的阴影之后,他在女友的鼓励及赛车设计高手哈里的帮助下,决定再次挑战对手联手向雷特那赛车冠军发起了冲击。经过惊险万分比赛,最后终于赢得了冠军!

获奖情况  

  第63届奥斯卡金像奖(1991)
  最佳音响(提名) Donald O. Mitchell / 凯文·奥康奈尔 / 里克·克莱恩 / Charles M. Wilborn
  1. Video
  2. ID                                       : 1
  3. Format                                   : HEVC
  4. Format/Info                              : High Efficiency Video Coding
  5. Format profile                           : Main High@L4@High
  6. Codec ID                                 : V_MPEGH/ISO/HEVC
  7. Duration                                 : 1 h 47 min
  8. Bit rate                                 : 82.5 Mb/s
  9. Width                                    : 3 840 pixels
  10. Height                                   : 1 600 pixels
  11. Display aspect ratio                     : 2.40:1
  12. Frame rate mode                          : Constant
  13. Frame rate                               : 23.976 (24000/1001/189150) FPS
  14. Color space                              : YUV
  15. Chroma subsampling                       : 4:2:0
  16. Bit depth                                : 10 bits
  17. Bits/(Pixel*Frame)                       : 0.560
  18. Stream size                              : 61.8 GiB (91%)
  19. Title                                    : Days.of.Thunder.1990.2160p.BluRay.x265.10bit.SDR.DTS-HD.MA.TrueHD.5.1-SWTYBLZ
  20. Writing library                          : x265 3.0ed72af837053:[Windows][GCC 8.2.0][64 bit] 10bit
  21. Encoding settings                        : cpuid=1111039 / frame-threads=6 / numa-pools=40 / wpp / no-pmode / no-pme / no-psnr / no-ssim / log-level=2 / input-csp=1 / input-res=3840x1600 / interlace=0 / total-frames=154336 / level-idc=51 / high-tier=1 / uhd-bd=0 / ref=3 / no-allow-non-conformance / repeat-headers / annexb / aud / hrd / info / hash=0 / no-temporal-layers / no-open-gop / min-keyint=1 / keyint=24 / gop-lookahead=0 / bframes=4 / b-adapt=2 / b-pyramid / bframe-bias=0 / rc-lookahead=25 / lookahead-slices=4 / scenecut=40 / radl=0 / no-splice / no-intra-refresh / ctu=64 / min-cu-size=8 / no-rect / no-amp / max-tu-size=32 / tu-inter-depth=1 / tu-intra-depth=1 / limit-tu=0 / rdoq-level=0 / dynamic-rd=0.00 / no-ssim-rd / signhide / no-tskip / nr-intra=0 / nr-inter=0 / no-constrained-intra / strong-intra-smoothing / max-merge=2 / limit-refs=3 / no-limit-modes / me=1 / subme=2 / merange=57 / temporal-mvp / weightp / no-weightb / no-analyze-src-pics / deblock=0:0 / no-sao / no-sao-non-deblock / rd=3 / no-early-skip / rskip / no-fast-intra / no-tskip-fast / no-cu-lossless / no-b-intra / no-splitrd-skip / rdpenalty=0 / psy-rd=2.00 / psy-rdoq=0.00 / no-rd-refine / no-lossless / cbqpoffs=0 / crqpoffs=0 / rc=crf / crf=21.0 / qcomp=0.60 / qpstep=4 / stats-write=0 / stats-read=0 / vbv-maxrate=160000 / vbv-bufsize=160000 / vbv-init=0.9 / crf-max=0.0 / crf-min=0.0 / ipratio=1.40 / pbratio=1.30 / aq-mode=1 / aq-strength=1.00 / cutree / zone-count=0 / no-strict-cbr / qg-size=32 / no-rc-grain / qpmax=69 / qpmin=0 / no-const-vbv / sar=1 / overscan=0 / videoformat=5 / range=0 / colorprim=2 / transfer=2 / colormatrix=2 / chromaloc=0 / display-window=0 / max-cll=0,0 / min-luma=0 / max-luma=1023 / log2-max-poc-lsb=8 / vui-timing-info / vui-hrd-info / slices=1 / opt-qp-pps / opt-ref-list-length-pps / no-multi-pass-opt-rps / scenecut-bias=0.05 / no-opt-cu-delta-qp / no-aq-motion / no-hdr / no-hdr-opt / no-dhdr10-opt / no-idr-recovery-sei / analysis-reuse-level=5 / scale-factor=0 / refine-intra=0 / refine-inter=0 / refine-mv=0 / refine-ctu-distortion=0 / no-limit-sao / ctu-info=0 / no-lowpass-dct / refine-analysis-type=0 / copy-pic=1 / max-ausize-factor=1.0 / no-dynamic-refine / no-single-sei / no-hevc-aq / qp-adaptation-range=1.00
  22. Default                                  : Yes
  23. Forced                                   : No

  24. Audio #1
  25. ID                                       : 2
  26. ID in the original source medium         : 4352 (0x1100)
  27. Format                                   : MLP FBA
  28. Format/Info                              : Meridian Lossless Packing FBA
  29. Commercial name                          : Dolby TrueHD
  30. Codec ID                                 : A_TRUEHD
  31. Duration                                 : 1 h 47 min
  32. Bit rate mode                            : Variable
  33. Bit rate                                 : 3 334 kb/s
  34. Maximum bit rate                         : 4 758 kb/s
  35. Channel(s)                               : 6 channels
  36. Channel layout                           : L R C LFE Ls Rs
  37. Sampling rate                            : 48.0 kHz
  38. Frame rate                               : 1 200.000 FPS (40 SPF)
  39. Compression mode                         : Lossless
  40. Stream size                              : 2.50 GiB (4%)
  41. Title                                    : Days.of.Thunder.1990.2160p.BluRay.x265.10bit.SDR.DTS-HD.MA.TrueHD.5.1-SWTYBLZ
  42. Language                                 : English
  43. Default                                  : Yes
  44. Forced                                   : No
  45. Original source medium                   : Blu-ray

  46. Audio #2
  47. ID                                       : 3
  48. Format                                   : DTS XLL
  49. Format/Info                              : Digital Theater Systems
  50. Commercial name                          : DTS-HD Master Audio
  51. Codec ID                                 : A_DTS
  52. Duration                                 : 1 h 47 min
  53. Bit rate mode                            : Variable
  54. Bit rate                                 : 3 779 kb/s
  55. Channel(s)                               : 6 channels
  56. Channel layout                           : C L R Ls Rs LFE
  57. Sampling rate                            : 48.0 kHz
  58. Frame rate                               : 93.750 FPS (512 SPF)
  59. Bit depth                                : 24 bits
  60. Compression mode                         : Lossless
  61. Stream size                              : 2.83 GiB (4%)
  62. Title                                    : Days.of.Thunder.1990.2160p.BluRay.x265.10bit.SDR.DTS-HD.MA.TrueHD.5.1-SWTYBLZ
  63. Language                                 : English
  64. Default                                  : No
  65. Forced                                   : No

  66. Audio #3
  67. ID                                       : 4
  68. ID in the original source medium         : 4352 (0x1100)
  69. Format                                   : AC-3
  70. Format/Info                              : Audio Coding 3
  71. Commercial name                          : Dolby Digital
  72. Codec ID                                 : A_AC3
  73. Duration                                 : 1 h 47 min
  74. Bit rate mode                            : Constant
  75. Bit rate                                 : 640 kb/s
  76. Channel(s)                               : 6 channels
  77. Channel layout                           : L R C LFE Ls Rs
  78. Sampling rate                            : 48.0 kHz
  79. Frame rate                               : 31.250 FPS (1536 SPF)
  80. Bit depth                                : 16 bits
  81. Compression mode                         : Lossy
  82. Stream size                              : 491 MiB (1%)
  83. Title                                    : Days.of.Thunder.1990.2160p.BluRay.x265.10bit.SDR.DTS-HD.MA.TrueHD.5.1-SWTYBLZ
  84. Language                                 : English
  85. Service kind                             : Complete Main
  86. Default                                  : No
  87. Forced                                   : No
  88. Original source medium                   : Blu-ray

  89. Text #1
  90. ID                                       : 5
  91. Format                                   : UTF-8
  92. Codec ID                                 : S_TEXT/UTF8
  93. Codec ID/Info                            : UTF-8 Plain Text
  94. Duration                                 : 1 h 40 min
  95. Bit rate                                 : 64 b/s
  96. Count of elements                        : 1217
  97. Stream size                              : 47.9 KiB (0%)
  98. Title                                    : English-SRT
  99. Language                                 : English
  100. Default                                  : Yes
  101. Forced                                   : No

  102. Text #2
  103. ID                                       : 6
  104. ID in the original source medium         : 4768 (0x12A0)
  105. Format                                   : PGS
  106. Muxing mode                              : zlib
  107. Codec ID                                 : S_HDMV/PGS
  108. Codec ID/Info                            : Picture based subtitle format used on BDs/HD-DVDs
  109. Duration                                 : 1 h 40 min
  110. Bit rate                                 : 40.2 kb/s
  111. Count of elements                        : 2442
  112. Stream size                              : 29.0 MiB (0%)
  113. Title                                    : English-PGS
  114. Language                                 : English
  115. Default                                  : No
  116. Forced                                   : No
  117. Original source medium                   : Blu-ray

  118. Text #3
  119. ID                                       : 7
  120. ID in the original source medium         : 4769 (0x12A1)
  121. Format                                   : PGS
  122. Muxing mode                              : zlib
  123. Codec ID                                 : S_HDMV/PGS
  124. Codec ID/Info                            : Picture based subtitle format used on BDs/HD-DVDs
  125. Duration                                 : 1 h 41 min
  126. Bit rate                                 : 41.2 kb/s
  127. Count of elements                        : 2494
  128. Stream size                              : 29.8 MiB (0%)
  129. Title                                    : English-SDH-PGS
  130. Language                                 : English
  131. Default                                  : No
  132. Forced                                   : No
  133. Original source medium                   : Blu-ray

  134. Text #4
  135. ID                                       : 8
  136. ID in the original source medium         : 4770 (0x12A2)
  137. Format                                   : PGS
  138. Muxing mode                              : zlib
  139. Codec ID                                 : S_HDMV/PGS
  140. Codec ID/Info                            : Picture based subtitle format used on BDs/HD-DVDs
  141. Duration                                 : 1 h 45 min
  142. Bit rate                                 : 21.1 kb/s
  143. Count of elements                        : 2360
  144. Stream size                              : 15.9 MiB (0%)
  145. Title                                    : Arabic-PGS
  146. Language                                 : Arabic
  147. Default                                  : No
  148. Forced                                   : No
  149. Original source medium                   : Blu-ray

  150. Text #5
  151. ID                                       : 9
  152. ID in the original source medium         : 4771 (0x12A3)
  153. Format                                   : PGS
  154. Muxing mode                              : zlib
  155. Codec ID                                 : S_HDMV/PGS
  156. Codec ID/Info                            : Picture based subtitle format used on BDs/HD-DVDs
  157. Duration                                 : 1 h 45 min
  158. Bit rate                                 : 28.3 kb/s
  159. Count of elements                        : 2408
  160. Stream size                              : 21.3 MiB (0%)
  161. Title                                    : Chinese-PGS
  162. Language                                 : Chinese
  163. Default                                  : No
  164. Forced                                   : No
  165. Original source medium                   : Blu-ray

  166. Text #6
  167. ID                                       : 10
  168. ID in the original source medium         : 4772 (0x12A4)
  169. Format                                   : PGS
  170. Muxing mode                              : zlib
  171. Codec ID                                 : S_HDMV/PGS
  172. Codec ID/Info                            : Picture based subtitle format used on BDs/HD-DVDs
  173. Duration                                 : 1 h 45 min
  174. Bit rate                                 : 35.1 kb/s
  175. Count of elements                        : 2426
  176. Stream size                              : 26.4 MiB (0%)
  177. Title                                    : Danish-PGS
  178. Language                                 : Danish
  179. Default                                  : No
  180. Forced                                   : No
  181. Original source medium                   : Blu-ray

  182. Text #7
  183. ID                                       : 11
  184. ID in the original source medium         : 4773 (0x12A5)
  185. Format                                   : PGS
  186. Muxing mode                              : zlib
  187. Codec ID                                 : S_HDMV/PGS
  188. Codec ID/Info                            : Picture based subtitle format used on BDs/HD-DVDs
  189. Duration                                 : 1 h 45 min
  190. Bit rate                                 : 32.5 kb/s
  191. Count of elements                        : 2378
  192. Stream size                              : 24.4 MiB (0%)
  193. Title                                    : German-PGS
  194. Language                                 : German
  195. Default                                  : No
  196. Forced                                   : No
  197. Original source medium                   : Blu-ray

  198. Text #8
  199. ID                                       : 12
  200. ID in the original source medium         : 4774 (0x12A6)
  201. Format                                   : PGS
  202. Muxing mode                              : zlib
  203. Codec ID                                 : S_HDMV/PGS
  204. Codec ID/Info                            : Picture based subtitle format used on BDs/HD-DVDs
  205. Duration                                 : 1 h 45 min
  206. Bit rate                                 : 31.9 kb/s
  207. Count of elements                        : 2586
  208. Stream size                              : 24.0 MiB (0%)
  209. Title                                    : Greek-PGS
  210. Language                                 : Greek
  211. Default                                  : No
  212. Forced                                   : No
  213. Original source medium                   : Blu-ray

  214. Text #9
  215. ID                                       : 13
  216. ID in the original source medium         : 4775 (0x12A7)
  217. Format                                   : PGS
  218. Muxing mode                              : zlib
  219. Codec ID                                 : S_HDMV/PGS
  220. Codec ID/Info                            : Picture based subtitle format used on BDs/HD-DVDs
  221. Duration                                 : 1 h 45 min
  222. Bit rate                                 : 36.2 kb/s
  223. Count of elements                        : 2408
  224. Stream size                              : 27.2 MiB (0%)
  225. Title                                    : Spanish-PGS
  226. Language                                 : Spanish
  227. Default                                  : No
  228. Forced                                   : No
  229. Original source medium                   : Blu-ray

  230. Text #10
  231. ID                                       : 14
  232. ID in the original source medium         : 4775 (0x12A7)
  233. Format                                   : PGS
  234. Muxing mode                              : zlib
  235. Codec ID                                 : S_HDMV/PGS
  236. Codec ID/Info                            : Picture based subtitle format used on BDs/HD-DVDs
  237. Duration                                 : 1 h 43 min
  238. Bit rate                                 : 158 b/s
  239. Count of elements                        : 12
  240. Stream size                              : 121 KiB (0%)
  241. Title                                    : Spanish-PGS
  242. Language                                 : Spanish
  243. Default                                  : No
  244. Forced                                   : No
  245. Original source medium                   : Blu-ray

  246. Text #11
  247. ID                                       : 15
  248. ID in the original source medium         : 4777 (0x12A9)
  249. Format                                   : PGS
  250. Muxing mode                              : zlib
  251. Codec ID                                 : S_HDMV/PGS
  252. Codec ID/Info                            : Picture based subtitle format used on BDs/HD-DVDs
  253. Duration                                 : 1 h 45 min
  254. Bit rate                                 : 29.2 kb/s
  255. Count of elements                        : 2396
  256. Stream size                              : 22.0 MiB (0%)
  257. Title                                    : French-PGS
  258. Language                                 : French
  259. Default                                  : No
  260. Forced                                   : No
  261. Original source medium                   : Blu-ray

  262. Text #12
  263. ID                                       : 16
  264. ID in the original source medium         : 4778 (0x12AA)
  265. Format                                   : PGS
  266. Muxing mode                              : zlib
  267. Codec ID                                 : S_HDMV/PGS
  268. Codec ID/Info                            : Picture based subtitle format used on BDs/HD-DVDs
  269. Duration                                 : 1 h 45 min
  270. Bit rate                                 : 25.4 kb/s
  271. Count of elements                        : 1786
  272. Stream size                              : 19.1 MiB (0%)
  273. Title                                    : Icelandic-PGS
  274. Language                                 : Icelandic
  275. Default                                  : No
  276. Forced                                   : No
  277. Original source medium                   : Blu-ray

  278. Text #13
  279. ID                                       : 17
  280. ID in the original source medium         : 4779 (0x12AB)
  281. Format                                   : PGS
  282. Muxing mode                              : zlib
  283. Codec ID                                 : S_HDMV/PGS
  284. Codec ID/Info                            : Picture based subtitle format used on BDs/HD-DVDs
  285. Duration                                 : 1 h 45 min
  286. Bit rate                                 : 34.8 kb/s
  287. Count of elements                        : 2384
  288. Stream size                              : 26.1 MiB (0%)
  289. Title                                    : Italian-PGS
  290. Language                                 : Italian
  291. Default                                  : No
  292. Forced                                   : No
  293. Original source medium                   : Blu-ray

  294. Text #14
  295. ID                                       : 18
  296. ID in the original source medium         : 4780 (0x12AC)
  297. Format                                   : PGS
  298. Muxing mode                              : zlib
  299. Codec ID                                 : S_HDMV/PGS
  300. Codec ID/Info                            : Picture based subtitle format used on BDs/HD-DVDs
  301. Duration                                 : 1 h 40 min
  302. Bit rate                                 : 24.1 kb/s
  303. Count of elements                        : 2182
  304. Stream size                              : 17.4 MiB (0%)
  305. Title                                    : Japanese-PGS
  306. Language                                 : Japanese
  307. Default                                  : No
  308. Forced                                   : No
  309. Original source medium                   : Blu-ray

  310. Text #15
  311. ID                                       : 19
  312. ID in the original source medium         : 4781 (0x12AD)
  313. Format                                   : PGS
  314. Muxing mode                              : zlib
  315. Codec ID                                 : S_HDMV/PGS
  316. Codec ID/Info                            : Picture based subtitle format used on BDs/HD-DVDs
  317. Duration                                 : 1 h 45 min
  318. Bit rate                                 : 17.2 kb/s
  319. Count of elements                        : 2292
  320. Stream size                              : 13.0 MiB (0%)
  321. Title                                    : Korean-PGS
  322. Language                                 : Korean
  323. Default                                  : No
  324. Forced                                   : No
  325. Original source medium                   : Blu-ray

  326. Text #16
  327. ID                                       : 20
  328. ID in the original source medium         : 4782 (0x12AE)
  329. Format                                   : PGS
  330. Muxing mode                              : zlib
  331. Codec ID                                 : S_HDMV/PGS
  332. Codec ID/Info                            : Picture based subtitle format used on BDs/HD-DVDs
  333. Duration                                 : 1 h 45 min
  334. Bit rate                                 : 35.4 kb/s
  335. Count of elements                        : 2402
  336. Stream size                              : 26.6 MiB (0%)
  337. Title                                    : Dutch-PGS
  338. Language                                 : Dutch
  339. Default                                  : No
  340. Forced                                   : No
  341. Original source medium                   : Blu-ray

  342. Text #17
  343. ID                                       : 21
  344. ID in the original source medium         : 4783 (0x12AF)
  345. Format                                   : PGS
  346. Muxing mode                              : zlib
  347. Codec ID                                 : S_HDMV/PGS
  348. Codec ID/Info                            : Picture based subtitle format used on BDs/HD-DVDs
  349. Duration                                 : 1 h 45 min
  350. Bit rate                                 : 33.7 kb/s
  351. Count of elements                        : 2384
  352. Stream size                              : 25.3 MiB (0%)
  353. Title                                    : Norwegian-PGS
  354. Language                                 : Norwegian
  355. Default                                  : No
  356. Forced                                   : No
  357. Original source medium                   : Blu-ray

  358. Text #18
  359. ID                                       : 22
  360. ID in the original source medium         : 4784 (0x12B0)
  361. Format                                   : PGS
  362. Muxing mode                              : zlib
  363. Codec ID                                 : S_HDMV/PGS
  364. Codec ID/Info                            : Picture based subtitle format used on BDs/HD-DVDs
  365. Duration                                 : 1 h 45 min
  366. Bit rate                                 : 29.5 kb/s
  367. Count of elements                        : 2184
  368. Stream size                              : 22.3 MiB (0%)
  369. Title                                    : Portuguese-PGS
  370. Language                                 : Portuguese
  371. Default                                  : No
  372. Forced                                   : No
  373. Original source medium                   : Blu-ray

  374. Text #19
  375. ID                                       : 23
  376. ID in the original source medium         : 4785 (0x12B1)
  377. Format                                   : PGS
  378. Muxing mode                              : zlib
  379. Codec ID                                 : S_HDMV/PGS
  380. Codec ID/Info                            : Picture based subtitle format used on BDs/HD-DVDs
  381. Duration                                 : 1 h 45 min
  382. Bit rate                                 : 33.2 kb/s
  383. Count of elements                        : 2456
  384. Stream size                              : 25.1 MiB (0%)
  385. Title                                    : Romanian-PGS
  386. Language                                 : Romanian
  387. Default                                  : No
  388. Forced                                   : No
  389. Original source medium                   : Blu-ray

  390. Text #20
  391. ID                                       : 24
  392. ID in the original source medium         : 4786 (0x12B2)
  393. Format                                   : PGS
  394. Muxing mode                              : zlib
  395. Codec ID                                 : S_HDMV/PGS
  396. Codec ID/Info                            : Picture based subtitle format used on BDs/HD-DVDs
  397. Duration                                 : 1 h 45 min
  398. Bit rate                                 : 35.7 kb/s
  399. Count of elements                        : 2392
  400. Stream size                              : 26.8 MiB (0%)
  401. Title                                    : Finnish-PGS
  402. Language                                 : Finnish
  403. Default                                  : No
  404. Forced                                   : No
  405. Original source medium                   : Blu-ray

  406. Text #21
  407. ID                                       : 25
  408. ID in the original source medium         : 4787 (0x12B3)
  409. Format                                   : PGS
  410. Muxing mode                              : zlib
  411. Codec ID                                 : S_HDMV/PGS
  412. Codec ID/Info                            : Picture based subtitle format used on BDs/HD-DVDs
  413. Duration                                 : 1 h 45 min
  414. Bit rate                                 : 34.6 kb/s
  415. Count of elements                        : 2394
  416. Stream size                              : 26.0 MiB (0%)
  417. Title                                    : Swedish-PGS
  418. Language                                 : Swedish
  419. Default                                  : No
  420. Forced                                   : No
  421. Original source medium                   : Blu-ray

  422. Text #22
  423. ID                                       : 26
  424. ID in the original source medium         : 4788 (0x12B4)
  425. Format                                   : PGS
  426. Muxing mode                              : zlib
  427. Codec ID                                 : S_HDMV/PGS
  428. Codec ID/Info                            : Picture based subtitle format used on BDs/HD-DVDs
  429. Duration                                 : 1 h 45 min
  430. Bit rate                                 : 25.0 kb/s
  431. Count of elements                        : 2352
  432. Stream size                              : 18.8 MiB (0%)
  433. Title                                    : Thai-PGS
  434. Language                                 : Thai
  435. Default                                  : No
  436. Forced                                   : No
  437. Original source medium                   : Blu-ray

  438. Menu
  439. 00:00:00.000                             : en:Chapter 01
  440. 00:03:39.260                             : en:Chapter 02
  441. 00:05:36.878                             : en:Chapter 03
  442. 00:12:51.812                             : en:Chapter 04
  443. 00:14:36.041                             : en:Chapter 05
  444. 00:18:27.564                             : en:Chapter 06
  445. 00:24:49.779                             : en:Chapter 07
  446. 00:31:40.815                             : en:Chapter 08
  447. 00:36:25.975                             : en:Chapter 09
  448. 00:41:13.471                             : en:Chapter 10
  449. 00:45:05.369                             : en:Chapter 11
  450. 00:51:03.185                             : en:Chapter 12
  451. 00:53:32.584                             : en:Chapter 13
  452. 00:56:15.413                             : en:Chapter 14
  453. 01:01:38.444                             : en:Chapter 15
  454. 01:04:12.723                             : en:Chapter 16
  455. 01:11:31.954                             : en:Chapter 17
  456. 01:15:22.434                             : en:Chapter 18
  457. 01:20:36.957                             : en:Chapter 19
  458. 01:27:29.244                             : en:Chapter 20
  459. 01:33:12.670                             : en:Chapter 21
  460. 01:38:40.164                             : en:Chapter 22
  461. 01:43:11.018                             : en:Chapter 23
复制代码

霹雳男儿/雷声四起 Days.of.Thunder.1990.2160p.BluRay.x265.10bit.SDR.DTS-HD.MA.TrueHD.5.1-SWTYBLZ 68.07GB-2.png 霹雳男儿/雷声四起 Days.of.Thunder.1990.2160p.BluRay.x265.10bit.SDR.DTS-HD.MA.TrueHD.5.1-SWTYBLZ 68.07GB-3.png 霹雳男儿/雷声四起 Days.of.Thunder.1990.2160p.BluRay.x265.10bit.SDR.DTS-HD.MA.TrueHD.5.1-SWTYBLZ 68.07GB-4.png 霹雳男儿/雷声四起 Days.of.Thunder.1990.2160p.BluRay.x265.10bit.SDR.DTS-HD.MA.TrueHD.5.1-SWTYBLZ 68.07GB-5.png 霹雳男儿/雷声四起 Days.of.Thunder.1990.2160p.BluRay.x265.10bit.SDR.DTS-HD.MA.TrueHD.5.1-SWTYBLZ 68.07GB-6.png 霹雳男儿/雷声四起 Days.of.Thunder.1990.2160p.BluRay.x265.10bit.SDR.DTS-HD.MA.TrueHD.5.1-SWTYBLZ 68.07GB-7.png







回复

使用道具 举报

发表于 6 天前 | 显示全部楼层
楼主发贴辛苦了,谢谢楼主分享!我觉得蓝光电影网是注册对了!
回复 支持 反对

使用道具 举报

发表于 6 天前 | 显示全部楼层
楼主发贴辛苦了,谢谢楼主分享!我觉得蓝光电影网是注册对了!
回复 支持 反对

使用道具 举报

发表于 6 天前 | 显示全部楼层

这个帖子不回对不起自己!我想我是一天也不能离开蓝光电影网
回复 支持 反对

使用道具 举报

发表于 6 天前 | 显示全部楼层
楼主发贴辛苦了,谢谢楼主分享!我觉得蓝光电影网是注册对了!
回复 支持 反对

使用道具 举报

发表于 6 天前 | 显示全部楼层
楼主发贴辛苦了,谢谢楼主分享!我觉得蓝光电影网是注册对了!
回复 支持 反对

使用道具 举报

发表于 5 天前 | 显示全部楼层
谢谢楼主分享蓝光电影网
回复 支持 反对

使用道具 举报

发表于 5 天前 | 显示全部楼层
回一个紧是夲国夺
回复 支持 反对

使用道具 举报

懒得打字嘛,点击右侧快捷回复 【右侧内容,后台自定义】
您需要登录后才可以回帖 登录 | 立即加入

本版积分规则

现在加入蓝光电影网,注册一个账号
上个主题 下个主题 快速回复 收藏帖子 返回列表 客服中心 搜索

手机版|小黑屋| 蓝光电影网 |网站地图 

Copyright © 2015-2019 Comsenz Inc.  Template by 蓝光电影论坛 All Rights Reserved.

Powered by 蓝光电影网 X3.4

特别声明:本站所有资源均由网上收集而来,版权归原影音公司所有,如果侵犯了你的权益,请通知我们,我们会及时删除侵权内容.

快速回复 返回顶部 返回列表