找回密码

蓝光电影网

查看: 130|回复: 8

[10bit.HDR] 壮志凌云/壮志凌云 3D Top.Gun.1986.2160p.UHD.BluRay.X265.10bit.HDR.TrueHD.7.1.Atmos-IAMABLE 30.05GB

[复制链接]

 成长值: 26155

发表于 2020-5-20 22:46:06 | 显示全部楼层 |阅读模式
壮志凌云/壮志凌云 3D Top.Gun.1986.2160p.UHD.BluRay.X265.10bit.HDR.TrueHD.7.1.Atmos-IAMABLE 30.05GB-1.png

译  名 壮志凌云 / 壮志凌云 3D / 捍卫战士(台)
片  名 Top Gun
年  代 1986
产  地 美国
类  别 剧情 / 动作 / 爱情
语  言 英语
上映日期 1986-05-16(美国) / 2013-02-08(美国)
IMDb评分  6.9/10 from 279716 users
IMDb链接  https://www.imdb.com/title/tt0092099
豆瓣评分 7.7/10 from 55099 users
豆瓣链接 https://movie.douban.com/subject/1293799/
片  长 110分钟
导  演 托尼·斯科特 Tony Scott
编  剧 吉姆·卡什 Jim Cash / 小杰克·埃普斯 Jack Epps Jr. / 埃胡德·约纳 Ehud Yonay
主  演 汤姆·克鲁斯 Tom Cruise
       凯莉·麦吉利斯 Kelly McGillis
       方·基默 Val Kilmer
       安东尼·爱德华兹 Anthony Edwards
       汤姆·斯凯里特 Tom Skerritt
       迈克尔·艾恩塞德 Michael Ironside
       约翰·斯托克韦尔 John Stockwell
       里克·罗索维奇 Rick Rossovich
       蒂姆·罗宾斯 Tim Robbins
       小克拉伦斯·吉尔亚德 Clarence Gilyard Jr.
       维普哈布莱 Whip Hubley
       詹姆斯·托根 James Tolkan
       梅格·瑞恩 Meg Ryan
       亚德里安·帕斯达 Adrian Pasdar
       Barry Tubb


标  签 美国 | 汤姆·克鲁斯 | TomCruise | 战争 | 爱情 | 经典 | 动作 | 美国电影

简  介  

  “独行侠”皮特·米切尔(汤姆?克鲁斯 Tom Cruise 饰)的父亲是个战功显赫的老飞行员,他决心也要成为父亲那样的英雄。终于机会来了,他与军官“笨鹅”尼克·布拉德肖(安东尼?爱德华兹 Anthony Edwards 饰)一起被派到了Top Gun训练基地接受最严格的飞行训练。可是,“独行侠”的训练并不像预想中顺利,他的成绩一直不令人满意,一起训练的”冰人”汤姆·卡赞斯基(方·基默 Val Kilmer 饰)也对他也颇有微词。与此同时,“独行侠”遇到了美丽的女教官查莉(凯莉?麦吉利斯 Kelly McGillis 饰),两人对彼此暗生情愫,这令本来有些心灰意冷的“独行侠”重拾信心。在毕业前的一次训练中,“独行侠”搭档“笨鹅”再次同驾一机,但由于马达发生故障,“独行侠”与“笨鹅”被迫跳海,结果“笨鹅”不幸身亡。这次事件给“独行侠”带来了沉重的打击,本来因学业不顺就郁郁寡欢的他更加消沉了,甚至想要彻底放弃成为飞行员的梦想。“独行侠”最终能否克服心障重回蓝天?

获奖情况  

  第59届奥斯卡金像奖(1987)
  最佳剪辑(提名) 克里斯·莱本森 / 比利·韦伯
  最佳音效剪辑(提名) George Watters II / Cecelia Hall
  最佳音响(提名) 威廉·B·卡普兰 / 凯文·奥康奈尔 / 里克·克莱恩 / Donald O. Mitchell
  最佳原创歌曲 乔治·莫罗德 / Tom Whitlock

  1. Video
  2. ID                                       : 1
  3. Format                                   : HEVC
  4. Format/Info                              : High Efficiency Video Coding
  5. Format profile                           : Main 10@L5.1@High
  6. HDR format                               : SMPTE ST 2086, HDR10 compatible
  7. Codec ID                                 : V_MPEGH/ISO/HEVC
  8. Duration                                 : 1 h 49 min
  9. Bit rate                                 : 33.5 Mb/s
  10. Width                                    : 3 840 pixels
  11. Height                                   : 1 600 pixels
  12. Display aspect ratio                     : 2.40:1
  13. Frame rate mode                          : Constant
  14. Frame rate                               : 23.976 (24000/1001/45165) FPS
  15. Color space                              : YUV
  16. Chroma subsampling                       : 4:2:0 (Type 2)
  17. Bit depth                                : 10 bits
  18. Bits/(Pixel*Frame)                       : 0.228
  19. Stream size                              : 25.6 GiB (85%)
  20. Writing library                          : x265 3.3+31-d5695e28999e:[Windows][MSVC 1900][64 bit] 10bit
  21. Encoding settings                        : cpuid=1111039 / frame-threads=5 / numa-pools=32 / wpp / no-pmode / no-pme / no-psnr / no-ssim / log-level=2 / input-csp=1 / input-res=3840x1600 / interlace=0 / total-frames=157446 / level-idc=51 / high-tier=1 / uhd-bd=0 / ref=4 / no-allow-non-conformance / repeat-headers / annexb / aud / hrd / info / hash=0 / no-temporal-layers / no-open-gop / min-keyint=24 / keyint=240 / gop-lookahead=0 / bframes=4 / b-adapt=2 / b-pyramid / bframe-bias=0 / rc-lookahead=25 / lookahead-slices=4 / scenecut=40 / hist-scenecut=0 / radl=0 / no-splice / no-intra-refresh / ctu=64 / min-cu-size=8 / rect / no-amp / max-tu-size=32 / tu-inter-depth=1 / tu-intra-depth=1 / limit-tu=0 / rdoq-level=2 / dynamic-rd=0.00 / no-ssim-rd / signhide / no-tskip / nr-intra=0 / nr-inter=0 / no-constrained-intra / no-strong-intra-smoothing / max-merge=3 / limit-refs=3 / limit-modes / me=3 / subme=3 / merange=57 / temporal-mvp / no-frame-dup / no-hme / weightp / no-weightb / no-analyze-src-pics / deblock=-3:-3 / no-sao / no-sao-non-deblock / rd=4 / selective-sao=0 / no-early-skip / rskip / no-fast-intra / no-tskip-fast / no-cu-lossless / no-b-intra / no-splitrd-skip / rdpenalty=0 / psy-rd=2.00 / psy-rdoq=1.00 / no-rd-refine / no-lossless / cbqpoffs=0 / crqpoffs=0 / rc=crf / crf=16.9 / qcomp=0.60 / qpstep=4 / stats-write=0 / stats-read=0 / vbv-maxrate=160000 / vbv-bufsize=160000 / vbv-init=0.9 / crf-max=0.0 / crf-min=0.0 / ipratio=1.40 / pbratio=1.30 / aq-mode=2 / aq-strength=1.00 / cutree / zone-count=0 / no-strict-cbr / qg-size=32 / no-rc-grain / qpmax=69 / qpmin=0 / no-const-vbv / sar=1 / overscan=0 / videoformat=5 / range=0 / colorprim=9 / transfer=16 / colormatrix=9 / chromaloc=1 / chromaloc-top=2 / chromaloc-bottom=2 / display-window=0 / master-display=G(13250,34500)B(7500,3000)R(34000,16000)WP(15635,16450)L(40000000,50) / cll=1000,401 / min-luma=0 / max-luma=1023 / log2-max-poc-lsb=8 / vui-timing-info / vui-hrd-info / slices=1 / no-opt-qp-pps / no-opt-ref-list-length-pps / no-multi-pass-opt-rps / scenecut-bias=0.05 / hist-threshold=0.01 / no-opt-cu-delta-qp / no-aq-motion / hdr10 / hdr10-opt / no-dhdr10-opt / no-idr-recovery-sei / analysis-reuse-level=0 / analysis-save-reuse-level=0 / analysis-load-reuse-level=0 / scale-factor=0 / refine-intra=0 / refine-inter=0 / refine-mv=1 / refine-ctu-distortion=0 / no-limit-sao / ctu-info=0 / no-lowpass-dct / refine-analysis-type=0 / copy-pic=1 / max-ausize-factor=1.0 / no-dynamic-refine / no-single-sei / no-hevc-aq / no-svt / no-field / qp-adaptation-range=1.00 / no-scenecut-aware-qpconformance-window-offsets / right=0 / bottom=0 / decoder-max-rate=0
  22. Default                                  : Yes
  23. Forced                                   : No
  24. Color range                              : Limited
  25. Color primaries                          : BT.2020
  26. Transfer characteristics                 : PQ
  27. Matrix coefficients                      : BT.2020 non-constant
  28. Mastering display color primaries        : Display P3
  29. Mastering display luminance              : min: 0.0050 cd/m2, max: 4000 cd/m2
  30. Maximum Content Light Level              : 1000 cd/m2
  31. Maximum Frame-Average Light Level        : 401 cd/m2

  32. Audio #1
  33. ID                                       : 2
  34. Format                                   : MLP FBA 16-ch
  35. Format/Info                              : Meridian Lossless Packing FBA with 16-channel presentation
  36. Commercial name                          : Dolby TrueHD with Dolby Atmos
  37. Codec ID                                 : A_TRUEHD
  38. Duration                                 : 1 h 49 min
  39. Bit rate mode                            : Variable
  40. Bit rate                                 : 4 476 kb/s
  41. Maximum bit rate                         : 8 049 kb/s
  42. Channel(s)                               : 8 channels
  43. Channel layout                           : L R C LFE Ls Rs Lb Rb
  44. Sampling rate                            : 48.0 kHz
  45. Frame rate                               : 1 200.000 FPS (40 SPF)
  46. Compression mode                         : Lossless
  47. Stream size                              : 3.42 GiB (11%)
  48. Title                                    : Atmos 7.1
  49. Language                                 : English
  50. Default                                  : Yes
  51. Forced                                   : No
  52. Number of dynamic objects                : 11
  53. Bed channel count                        : 1 channel
  54. Bed channel configuration                : LFE

  55. Audio #2
  56. ID                                       : 3
  57. Format                                   : AC-3
  58. Format/Info                              : Audio Coding 3
  59. Commercial name                          : Dolby Digital
  60. Codec ID                                 : A_AC3
  61. Duration                                 : 1 h 49 min
  62. Bit rate mode                            : Constant
  63. Bit rate                                 : 640 kb/s
  64. Channel(s)                               : 6 channels
  65. Channel layout                           : L R C LFE Ls Rs
  66. Sampling rate                            : 48.0 kHz
  67. Frame rate                               : 31.250 FPS (1536 SPF)
  68. Bit depth                                : 16 bits
  69. Compression mode                         : Lossy
  70. Stream size                              : 501 MiB (2%)
  71. Title                                    : AC-3 5.1
  72. Language                                 : English
  73. Service kind                             : Complete Main
  74. Default                                  : No
  75. Forced                                   : No

  76. Audio #3
  77. ID                                       : 4
  78. Format                                   : AAC LC
  79. Format/Info                              : Advanced Audio Codec Low Complexity
  80. Codec ID                                 : A_AAC-2
  81. Duration                                 : 1 h 49 min
  82. Bit rate                                 : 118 kb/s
  83. Channel(s)                               : 2 channels
  84. Channel layout                           : L R
  85. Sampling rate                            : 48.0 kHz
  86. Frame rate                               : 46.875 FPS (1024 SPF)
  87. Compression mode                         : Lossy
  88. Delay relative to video                  : 9 ms
  89. Stream size                              : 92.3 MiB (0%)
  90. Title                                    : Commentary with Producer Jerry Bruckheimer, Director Tony Scott, Co-Screenwriter Jack Epps, Jr., and Naval Experts
  91. Language                                 : English
  92. Default                                  : No
  93. Forced                                   : No

  94. Text #1
  95. ID                                       : 5
  96. Format                                   : UTF-8
  97. Codec ID                                 : S_TEXT/UTF8
  98. Codec ID/Info                            : UTF-8 Plain Text
  99. Duration                                 : 1 h 40 min
  100. Bit rate                                 : 60 b/s
  101. Count of elements                        : 1395
  102. Stream size                              : 44.6 KiB (0%)
  103. Title                                    : Stripped SRT
  104. Language                                 : English
  105. Default                                  : No
  106. Forced                                   : No

  107. Text #2
  108. ID                                       : 6
  109. Format                                   : UTF-8
  110. Codec ID                                 : S_TEXT/UTF8
  111. Codec ID/Info                            : UTF-8 Plain Text
  112. Duration                                 : 1 h 40 min
  113. Bit rate                                 : 60 b/s
  114. Count of elements                        : 1391
  115. Stream size                              : 44.5 KiB (0%)
  116. Title                                    : Full SRT
  117. Language                                 : English
  118. Default                                  : No
  119. Forced                                   : No

  120. Text #3
  121. ID                                       : 7
  122. Format                                   : UTF-8
  123. Codec ID                                 : S_TEXT/UTF8
  124. Codec ID/Info                            : UTF-8 Plain Text
  125. Duration                                 : 1 h 42 min
  126. Bit rate                                 : 62 b/s
  127. Count of elements                        : 1499
  128. Stream size                              : 47.0 KiB (0%)
  129. Title                                    : SDH SRT
  130. Language                                 : English
  131. Default                                  : No
  132. Forced                                   : No

  133. Text #4
  134. ID                                       : 8
  135. Format                                   : PGS
  136. Muxing mode                              : zlib
  137. Codec ID                                 : S_HDMV/PGS
  138. Codec ID/Info                            : Picture based subtitle format used on BDs/HD-DVDs
  139. Duration                                 : 1 h 40 min
  140. Bit rate                                 : 38.7 kb/s
  141. Count of elements                        : 2782
  142. Stream size                              : 27.8 MiB (0%)
  143. Title                                    : Full
  144. Language                                 : English
  145. Default                                  : No
  146. Forced                                   : No

  147. Text #5
  148. ID                                       : 9
  149. Format                                   : PGS
  150. Muxing mode                              : zlib
  151. Codec ID                                 : S_HDMV/PGS
  152. Codec ID/Info                            : Picture based subtitle format used on BDs/HD-DVDs
  153. Duration                                 : 1 h 42 min
  154. Bit rate                                 : 40.5 kb/s
  155. Count of elements                        : 2998
  156. Stream size                              : 29.8 MiB (0%)
  157. Title                                    : SDH
  158. Language                                 : English
  159. Default                                  : No
  160. Forced                                   : No

  161. Text #6
  162. ID                                       : 10
  163. Format                                   : PGS
  164. Muxing mode                              : zlib
  165. Codec ID                                 : S_HDMV/PGS
  166. Codec ID/Info                            : Picture based subtitle format used on BDs/HD-DVDs
  167. Duration                                 : 1 h 49 min
  168. Bit rate                                 : 80.2 kb/s
  169. Count of elements                        : 4215
  170. Stream size                              : 62.6 MiB (0%)
  171. Title                                    : Commentary with Producer Jerry Bruckheimer, Director Tony Scott, Co-Screenwriter Jack Epps, Jr., and Naval Experts
  172. Language                                 : English
  173. Default                                  : No
  174. Forced                                   : No

  175. Text #7
  176. ID                                       : 11
  177. Format                                   : PGS
  178. Muxing mode                              : zlib
  179. Codec ID                                 : S_HDMV/PGS
  180. Codec ID/Info                            : Picture based subtitle format used on BDs/HD-DVDs
  181. Duration                                 : 1 h 48 min
  182. Bit rate                                 : 27.3 kb/s
  183. Count of elements                        : 2490
  184. Stream size                              : 21.2 MiB (0%)
  185. Title                                    : French
  186. Language                                 : French
  187. Default                                  : No
  188. Forced                                   : No

  189. Text #8
  190. ID                                       : 12
  191. Format                                   : PGS
  192. Muxing mode                              : zlib
  193. Codec ID                                 : S_HDMV/PGS
  194. Codec ID/Info                            : Picture based subtitle format used on BDs/HD-DVDs
  195. Duration                                 : 1 h 49 min
  196. Bit rate                                 : 68.1 kb/s
  197. Count of elements                        : 4217
  198. Stream size                              : 53.2 MiB (0%)
  199. Title                                    : Commentary with Producer Jerry Bruckheimer, Director Tony Scott, Co-Screenwriter Jack Epps, Jr., and Naval Experts
  200. Language                                 : French
  201. Default                                  : No
  202. Forced                                   : No

  203. Text #9
  204. ID                                       : 13
  205. Format                                   : PGS
  206. Muxing mode                              : zlib
  207. Codec ID                                 : S_HDMV/PGS
  208. Codec ID/Info                            : Picture based subtitle format used on BDs/HD-DVDs
  209. Duration                                 : 1 h 48 min
  210. Bit rate                                 : 27.2 kb/s
  211. Count of elements                        : 2474
  212. Stream size                              : 21.1 MiB (0%)
  213. Title                                    : Castilian
  214. Language                                 : Spanish
  215. Default                                  : No
  216. Forced                                   : No

  217. Text #10
  218. ID                                       : 14
  219. Format                                   : PGS
  220. Muxing mode                              : zlib
  221. Codec ID                                 : S_HDMV/PGS
  222. Codec ID/Info                            : Picture based subtitle format used on BDs/HD-DVDs
  223. Duration                                 : 1 h 43 min
  224. Bit rate                                 : 34.7 kb/s
  225. Count of elements                        : 2746
  226. Stream size                              : 25.8 MiB (0%)
  227. Title                                    : LA
  228. Language                                 : Spanish
  229. Default                                  : No
  230. Forced                                   : No

  231. Text #11
  232. ID                                       : 15
  233. Format                                   : PGS
  234. Muxing mode                              : zlib
  235. Codec ID                                 : S_HDMV/PGS
  236. Codec ID/Info                            : Picture based subtitle format used on BDs/HD-DVDs
  237. Duration                                 : 1 h 49 min
  238. Bit rate                                 : 67.8 kb/s
  239. Count of elements                        : 4217
  240. Stream size                              : 53.0 MiB (0%)
  241. Title                                    : Commentary with Producer Jerry Bruckheimer, Director Tony Scott, Co-Screenwriter Jack Epps, Jr., and Naval Experts
  242. Language                                 : Spanish
  243. Default                                  : No
  244. Forced                                   : No

  245. Text #12
  246. ID                                       : 16
  247. Format                                   : PGS
  248. Muxing mode                              : zlib
  249. Codec ID                                 : S_HDMV/PGS
  250. Codec ID/Info                            : Picture based subtitle format used on BDs/HD-DVDs
  251. Duration                                 : 1 h 49 min
  252. Bit rate                                 : 72.3 kb/s
  253. Count of elements                        : 4121
  254. Stream size                              : 56.5 MiB (0%)
  255. Title                                    : Commentary with Producer Jerry Bruckheimer, Director Tony Scott, Co-Screenwriter Jack Epps, Jr., and Naval Experts
  256. Language                                 : Spanish
  257. Default                                  : No
  258. Forced                                   : No

  259. Text #13
  260. ID                                       : 17
  261. Format                                   : PGS
  262. Muxing mode                              : zlib
  263. Codec ID                                 : S_HDMV/PGS
  264. Codec ID/Info                            : Picture based subtitle format used on BDs/HD-DVDs
  265. Duration                                 : 1 h 48 min
  266. Bit rate                                 : 31.1 kb/s
  267. Count of elements                        : 2422
  268. Stream size                              : 24.2 MiB (0%)
  269. Title                                    : BR
  270. Language                                 : Portuguese
  271. Default                                  : No
  272. Forced                                   : No

  273. Text #14
  274. ID                                       : 18
  275. Format                                   : PGS
  276. Muxing mode                              : zlib
  277. Codec ID                                 : S_HDMV/PGS
  278. Codec ID/Info                            : Picture based subtitle format used on BDs/HD-DVDs
  279. Duration                                 : 1 h 48 min
  280. Bit rate                                 : 26.6 kb/s
  281. Count of elements                        : 2494
  282. Stream size                              : 20.6 MiB (0%)
  283. Title                                    : EU
  284. Language                                 : Portuguese
  285. Default                                  : No
  286. Forced                                   : No

  287. Text #15
  288. ID                                       : 19
  289. Format                                   : PGS
  290. Muxing mode                              : zlib
  291. Codec ID                                 : S_HDMV/PGS
  292. Codec ID/Info                            : Picture based subtitle format used on BDs/HD-DVDs
  293. Duration                                 : 1 h 49 min
  294. Bit rate                                 : 69.6 kb/s
  295. Count of elements                        : 3470
  296. Stream size                              : 54.4 MiB (0%)
  297. Title                                    : Commentary with Producer Jerry Bruckheimer, Director Tony Scott, Co-Screenwriter Jack Epps, Jr., and Naval Experts
  298. Language                                 : Portuguese
  299. Default                                  : No
  300. Forced                                   : No

  301. Text #16
  302. ID                                       : 20
  303. Format                                   : PGS
  304. Muxing mode                              : zlib
  305. Codec ID                                 : S_HDMV/PGS
  306. Codec ID/Info                            : Picture based subtitle format used on BDs/HD-DVDs
  307. Duration                                 : 1 h 48 min
  308. Bit rate                                 : 25.0 kb/s
  309. Count of elements                        : 2472
  310. Stream size                              : 19.4 MiB (0%)
  311. Title                                    : Italian
  312. Language                                 : Italian
  313. Default                                  : No
  314. Forced                                   : No

  315. Text #17
  316. ID                                       : 21
  317. Format                                   : PGS
  318. Muxing mode                              : zlib
  319. Codec ID                                 : S_HDMV/PGS
  320. Codec ID/Info                            : Picture based subtitle format used on BDs/HD-DVDs
  321. Duration                                 : 1 h 49 min
  322. Bit rate                                 : 64.1 kb/s
  323. Count of elements                        : 4217
  324. Stream size                              : 50.1 MiB (0%)
  325. Title                                    : Commentary with Producer Jerry Bruckheimer, Director Tony Scott, Co-Screenwriter Jack Epps, Jr., and Naval Experts
  326. Language                                 : Italian
  327. Default                                  : No
  328. Forced                                   : No

  329. Text #18
  330. ID                                       : 22
  331. Format                                   : PGS
  332. Muxing mode                              : zlib
  333. Codec ID                                 : S_HDMV/PGS
  334. Codec ID/Info                            : Picture based subtitle format used on BDs/HD-DVDs
  335. Duration                                 : 1 h 48 min
  336. Bit rate                                 : 28.6 kb/s
  337. Count of elements                        : 2502
  338. Stream size                              : 22.3 MiB (0%)
  339. Title                                    : German
  340. Language                                 : German
  341. Default                                  : No
  342. Forced                                   : No

  343. Text #19
  344. ID                                       : 23
  345. Format                                   : PGS
  346. Muxing mode                              : zlib
  347. Codec ID                                 : S_HDMV/PGS
  348. Codec ID/Info                            : Picture based subtitle format used on BDs/HD-DVDs
  349. Duration                                 : 1 h 49 min
  350. Bit rate                                 : 75.3 kb/s
  351. Count of elements                        : 4217
  352. Stream size                              : 58.8 MiB (0%)
  353. Title                                    : Commentary with Producer Jerry Bruckheimer, Director Tony Scott, Co-Screenwriter Jack Epps, Jr., and Naval Experts
  354. Language                                 : German
  355. Default                                  : No
  356. Forced                                   : No

  357. Text #20
  358. ID                                       : 24
  359. Format                                   : PGS
  360. Muxing mode                              : zlib
  361. Codec ID                                 : S_HDMV/PGS
  362. Codec ID/Info                            : Picture based subtitle format used on BDs/HD-DVDs
  363. Duration                                 : 1 h 48 min
  364. Bit rate                                 : 26.1 kb/s
  365. Count of elements                        : 2178
  366. Stream size                              : 20.3 MiB (0%)
  367. Title                                    : Dutch
  368. Language                                 : Dutch
  369. Default                                  : No
  370. Forced                                   : No

  371. Text #21
  372. ID                                       : 25
  373. Format                                   : PGS
  374. Muxing mode                              : zlib
  375. Codec ID                                 : S_HDMV/PGS
  376. Codec ID/Info                            : Picture based subtitle format used on BDs/HD-DVDs
  377. Duration                                 : 1 h 48 min
  378. Bit rate                                 : 23.8 kb/s
  379. Count of elements                        : 2404
  380. Stream size                              : 18.5 MiB (0%)
  381. Title                                    : Swedish
  382. Language                                 : Swedish
  383. Default                                  : No
  384. Forced                                   : No

  385. Text #22
  386. ID                                       : 26
  387. Format                                   : PGS
  388. Muxing mode                              : zlib
  389. Codec ID                                 : S_HDMV/PGS
  390. Codec ID/Info                            : Picture based subtitle format used on BDs/HD-DVDs
  391. Duration                                 : 1 h 48 min
  392. Bit rate                                 : 27.8 kb/s
  393. Count of elements                        : 2508
  394. Stream size                              : 21.6 MiB (0%)
  395. Title                                    : Norwegian
  396. Language                                 : Norwegian
  397. Default                                  : No
  398. Forced                                   : No

  399. Text #23
  400. ID                                       : 27
  401. Format                                   : PGS
  402. Muxing mode                              : zlib
  403. Codec ID                                 : S_HDMV/PGS
  404. Codec ID/Info                            : Picture based subtitle format used on BDs/HD-DVDs
  405. Duration                                 : 1 h 48 min
  406. Bit rate                                 : 24.0 kb/s
  407. Count of elements                        : 2426
  408. Stream size                              : 18.7 MiB (0%)
  409. Title                                    : Danish
  410. Language                                 : Danish
  411. Default                                  : No
  412. Forced                                   : No

  413. Text #24
  414. ID                                       : 28
  415. Format                                   : PGS
  416. Muxing mode                              : zlib
  417. Codec ID                                 : S_HDMV/PGS
  418. Codec ID/Info                            : Picture based subtitle format used on BDs/HD-DVDs
  419. Duration                                 : 1 h 48 min
  420. Bit rate                                 : 26.8 kb/s
  421. Count of elements                        : 2230
  422. Stream size                              : 20.8 MiB (0%)
  423. Title                                    : Finnish
  424. Language                                 : Finnish
  425. Default                                  : No
  426. Forced                                   : No

  427. Text #25
  428. ID                                       : 29
  429. Format                                   : PGS
  430. Muxing mode                              : zlib
  431. Codec ID                                 : S_HDMV/PGS
  432. Codec ID/Info                            : Picture based subtitle format used on BDs/HD-DVDs
  433. Duration                                 : 1 h 48 min
  434. Bit rate                                 : 36.4 kb/s
  435. Count of elements                        : 2592
  436. Stream size                              : 28.3 MiB (0%)
  437. Title                                    : Russian
  438. Language                                 : Russian
  439. Default                                  : No
  440. Forced                                   : No

  441. Text #26
  442. ID                                       : 30
  443. Format                                   : PGS
  444. Muxing mode                              : zlib
  445. Codec ID                                 : S_HDMV/PGS
  446. Codec ID/Info                            : Picture based subtitle format used on BDs/HD-DVDs
  447. Duration                                 : 1 h 48 min
  448. Bit rate                                 : 30.2 kb/s
  449. Count of elements                        : 2822
  450. Stream size                              : 23.4 MiB (0%)
  451. Title                                    : Czech
  452. Language                                 : Czech
  453. Default                                  : No
  454. Forced                                   : No

  455. Text #27
  456. ID                                       : 31
  457. Format                                   : PGS
  458. Muxing mode                              : zlib
  459. Codec ID                                 : S_HDMV/PGS
  460. Codec ID/Info                            : Picture based subtitle format used on BDs/HD-DVDs
  461. Duration                                 : 1 h 48 min
  462. Bit rate                                 : 26.4 kb/s
  463. Count of elements                        : 2480
  464. Stream size                              : 20.5 MiB (0%)
  465. Title                                    : Romanian
  466. Language                                 : Romanian
  467. Default                                  : No
  468. Forced                                   : No

  469. Text #28
  470. ID                                       : 32
  471. Format                                   : PGS
  472. Muxing mode                              : zlib
  473. Codec ID                                 : S_HDMV/PGS
  474. Codec ID/Info                            : Picture based subtitle format used on BDs/HD-DVDs
  475. Duration                                 : 1 h 43 min
  476. Bit rate                                 : 18.9 kb/s
  477. Count of elements                        : 1898
  478. Stream size                              : 14.0 MiB (0%)
  479. Title                                    : Japanese
  480. Language                                 : Japanese
  481. Default                                  : No
  482. Forced                                   : No

  483. Text #29
  484. ID                                       : 33
  485. Format                                   : PGS
  486. Muxing mode                              : zlib
  487. Codec ID                                 : S_HDMV/PGS
  488. Codec ID/Info                            : Picture based subtitle format used on BDs/HD-DVDs
  489. Duration                                 : 1 h 49 min
  490. Bit rate                                 : 47.4 kb/s
  491. Count of elements                        : 2886
  492. Stream size                              : 37.0 MiB (0%)
  493. Title                                    : Commentary with Producer Jerry Bruckheimer, Director Tony Scott, Co-Screenwriter Jack Epps, Jr., and Naval Experts
  494. Language                                 : Japanese
  495. Default                                  : No
  496. Forced                                   : No

  497. Text #30
  498. ID                                       : 34
  499. Format                                   : PGS
  500. Muxing mode                              : zlib
  501. Codec ID                                 : S_HDMV/PGS
  502. Codec ID/Info                            : Picture based subtitle format used on BDs/HD-DVDs
  503. Duration                                 : 1 h 48 min
  504. Bit rate                                 : 25.6 kb/s
  505. Count of elements                        : 2612
  506. Stream size                              : 19.9 MiB (0%)
  507. Title                                    : Cantonese
  508. Language                                 : Chinese
  509. Default                                  : No
  510. Forced                                   : No

  511. Text #31
  512. ID                                       : 35
  513. Format                                   : PGS
  514. Muxing mode                              : zlib
  515. Codec ID                                 : S_HDMV/PGS
  516. Codec ID/Info                            : Picture based subtitle format used on BDs/HD-DVDs
  517. Duration                                 : 1 h 48 min
  518. Bit rate                                 : 22.1 kb/s
  519. Count of elements                        : 2690
  520. Stream size                              : 17.2 MiB (0%)
  521. Title                                    : Mandarin
  522. Language                                 : Chinese
  523. Default                                  : No
  524. Forced                                   : No

  525. Text #32
  526. ID                                       : 36
  527. Format                                   : PGS
  528. Muxing mode                              : zlib
  529. Codec ID                                 : S_HDMV/PGS
  530. Codec ID/Info                            : Picture based subtitle format used on BDs/HD-DVDs
  531. Duration                                 : 1 h 48 min
  532. Bit rate                                 : 27.5 kb/s
  533. Count of elements                        : 2596
  534. Stream size                              : 21.4 MiB (0%)
  535. Title                                    : Mandarin Simplified
  536. Language                                 : Chinese
  537. Default                                  : No
  538. Forced                                   : No

  539. Text #33
  540. ID                                       : 37
  541. Format                                   : PGS
  542. Muxing mode                              : zlib
  543. Codec ID                                 : S_HDMV/PGS
  544. Codec ID/Info                            : Picture based subtitle format used on BDs/HD-DVDs
  545. Duration                                 : 1 h 48 min
  546. Bit rate                                 : 26.2 kb/s
  547. Count of elements                        : 2596
  548. Stream size                              : 20.4 MiB (0%)
  549. Title                                    : Korean
  550. Language                                 : Korean
  551. Default                                  : No
  552. Forced                                   : No

  553. Text #34
  554. ID                                       : 38
  555. Format                                   : PGS
  556. Muxing mode                              : zlib
  557. Codec ID                                 : S_HDMV/PGS
  558. Codec ID/Info                            : Picture based subtitle format used on BDs/HD-DVDs
  559. Duration                                 : 1 h 49 min
  560. Bit rate                                 : 53.2 kb/s
  561. Count of elements                        : 4219
  562. Stream size                              : 41.6 MiB (0%)
  563. Title                                    : Commentary with Producer Jerry Bruckheimer, Director Tony Scott, Co-Screenwriter Jack Epps, Jr., and Naval Experts
  564. Language                                 : Korean
  565. Default                                  : No
  566. Forced                                   : No

  567. Text #35
  568. ID                                       : 39
  569. Format                                   : PGS
  570. Muxing mode                              : zlib
  571. Codec ID                                 : S_HDMV/PGS
  572. Codec ID/Info                            : Picture based subtitle format used on BDs/HD-DVDs
  573. Duration                                 : 1 h 48 min
  574. Bit rate                                 : 28.3 kb/s
  575. Count of elements                        : 2834
  576. Stream size                              : 22.0 MiB (0%)
  577. Title                                    : Thai
  578. Language                                 : Thai
  579. Default                                  : No
  580. Forced                                   : No

  581. Menu
  582. 00:00:00.000                             : en:Chapter 01
  583. 00:02:45.290                             : en:Chapter 02
  584. 00:12:50.353                             : en:Chapter 03
  585. 00:19:08.689                             : en:Chapter 04
  586. 00:25:45.419                             : en:Chapter 05
  587. 00:29:31.436                             : en:Chapter 06
  588. 00:39:12.392                             : en:Chapter 07
  589. 00:48:04.465                             : en:Chapter 08
  590. 00:55:28.033                             : en:Chapter 09
  591. 01:01:32.772                             : en:Chapter 10
  592. 01:04:04.507                             : en:Chapter 11
  593. 01:13:42.960                             : en:Chapter 12
  594. 01:21:14.828                             : en:Chapter 13
  595. 01:27:09.891                             : en:Chapter 14
  596. 01:34:23.992                             : en:Chapter 15
  597. 01:42:03.784                             : en:Chapter 16
复制代码
032546ou4mn4ng2ntuuqn4.png 032546kehbp88knoslo0un.png 032546rp9f0o15dhoc9upu.png




回复

使用道具 举报

发表于 2020-5-20 23:15:29 | 显示全部楼层
楼主发贴辛苦了,谢谢楼主分享!我觉得蓝光电影网是注册对了!
回复 支持 反对

使用道具 举报

发表于 2020-5-21 08:11:52 | 显示全部楼层
楼主发贴辛苦了,谢谢楼主分享!我觉得蓝光电影网是注册对了!
回复 支持 反对

使用道具 举报

 成长值: 1215

发表于 2020-5-21 08:36:06 | 显示全部楼层

楼主太厉害了!楼主,电影应该很好看我觉得蓝光电影网真是个好地方!
回复 支持 反对

使用道具 举报

发表于 2020-5-21 09:59:20 | 显示全部楼层
楼主发贴辛苦了,谢谢楼主分享!我觉得蓝光电影网是注册对了!
回复 支持 反对

使用道具 举报

发表于 2020-5-21 10:38:44 | 显示全部楼层
楼主发贴辛苦了,谢谢楼主分享!我觉得蓝光电影网是注册对了!
回复 支持 反对

使用道具 举报

发表于 2020-5-24 15:48:43 | 显示全部楼层
楼主发贴辛苦了,谢谢楼主分享!我觉得蓝光电影网是注册对了!
回复 支持 反对

使用道具 举报

发表于 7 天前 | 显示全部楼层
多谢楼主辛苦发片
回复 支持 反对

使用道具 举报

发表于 昨天 21:19 | 显示全部楼层
回复也不能啊
回复 支持 反对

使用道具 举报

懒得打字嘛,点击右侧快捷回复 【右侧内容,后台自定义】
您需要登录后才可以回帖 登录 | 立即加入

本版积分规则

现在加入蓝光电影网,注册一个账号
上个主题 下个主题 快速回复 收藏帖子 返回列表 客服中心 搜索

手机版|小黑屋| 蓝光电影网 |网站地图 

Copyright © 2015-2019 Comsenz Inc.  Template by 蓝光电影论坛 All Rights Reserved.

Powered by 蓝光电影网 X3.4

特别声明:本站所有资源均由网上收集而来,版权归原影音公司所有,如果侵犯了你的权益,请通知我们,我们会及时删除侵权内容.

快速回复 返回顶部 返回列表