找回密码

蓝光电影网

查看: 245|回复: 7

[REMUX.HEVC] 刺猬索尼克/超音鼠大电影 Sonic.the.Hedgehog.2020.2160p.BluRay.REMUX.HEVC.DTS-HD.MA.TrueHD.7.1.Atmos-FGT 59.49GB

[复制链接]

 成长值: 26155

发表于 2020-5-16 18:52:53 | 显示全部楼层 |阅读模式
刺猬索尼克/超音鼠大电影 Sonic.the.Hedgehog.2020.2160p.BluRay.REMUX.HEVC.DTS-HD.MA.TrueHD.7.1.Atmos-FGT 59.49GB-1.png

译  名 刺猬索尼克 / 超音鼠大电影(港) / 音速小子(台)
片  名 Sonic the Hedgehog
年  代 2020
产  地 加拿大 / 日本 / 美国
类  别 喜剧 / 动作 / 动画 / 冒险
语  言 英语
上映日期 2020(中国大陆) / 2020-02-14(美国)
IMDb评分  6.6/10 from 54920 users
IMDb链接  https://www.imdb.com/title/tt3794354
豆瓣评分 6.1/10 from 13688 users
豆瓣链接 https://movie.douban.com/subject/25905044/
片  长 99分钟
导  演 杰夫·福勒 Jeff Fowler
编  剧 范·罗比查乌克斯 Van Robichaux / 埃文·萨瑟 Evan Susser / 乔什·米勒 Josh Miller / Patrick Casey / 奥伦·尤济尔 Oren Uziel / 中裕司 Yuji Naka / Naoto Ohshima / Hirokazu Yasuhara
主  演 詹姆斯·麦斯登 James Marsden
       金·凯瑞 Jim Carrey
       本·施瓦茨 Ben Schwartz
       提卡·森普特 Tika Sumpter
       娜塔莎·罗斯韦尔 Natasha Rothwell
       亚当·佩里 Adam Pally
       李·马贾道布 Lee Majdoub
       尼尔·麦克唐纳 Neal McDonough
       汤姆·巴特勒 Tom Butler
       弗兰克·C·特纳 Frank C. Turner
       梅洛德·诺西普·尼曼 Melody Nosipho Niemann
       珊农·陈-肯特 Shannon Chan-Kent
       布拉德·凯利 Brad Kelly
       尔芬娜·卢克 Elfina Luk
       加里·切克 Gary Chalk
       迈克尔·霍根 Michael Hogan
       珍妮·克鲁蒂尔 Jeanie Cloutier
       贝利·斯科德里 Bailey Skodje
       杰夫·桑卡 Jeff Sanca
       丽莎·钱德勒 Lisa Chandler
       科琳·欧肖内希 Colleen O'Shaughnessey
       利安娜·拉普 Leanne Lapp


标  签 游戏改编 | 动画 | 美国 | 喜剧 | 科幻 | 2020 | 索尼克 | 游戏

简  介  

  改编自世嘉公司出品的风靡全球的电子游戏。电影讲述了拥有音速奔跑能力的刺猬索尼克在地球上展开新生活的故事。索尼克和他的新朋友汤姆(詹姆斯·麦斯登 饰)联手保护地球,阻止邪恶的蛋头博士(金·凯瑞 饰)统治世界的计划。这部适合全家观看的电影还邀请了迪卡·桑普特参演,本·施瓦茨为索尼克配音。
  1. Video #1
  2. ID                                       : 1
  3. ID in the original source medium         : 4113 (0x1011)
  4. Format                                   : HEVC
  5. Format/Info                              : High Efficiency Video Coding
  6. Format profile                           : Main High@L4@High
  7. HDR format                               : SMPTE ST 2086, HDR10 compatible
  8. Codec ID                                 : V_MPEGH/ISO/HEVC
  9. Duration                                 : 1 h 38 min
  10. Bit rate                                 : 64.5 Mb/s
  11. Width                                    : 3 840 pixels
  12. Height                                   : 2 160 pixels
  13. Display aspect ratio                     : 16:9
  14. Frame rate mode                          : Constant
  15. Frame rate                               : 23.976 (24000/1001/189150) FPS
  16. Color space                              : YUV
  17. Chroma subsampling                       : 4:2:0 (Type 2)
  18. Bit depth                                : 10 bits
  19. Bits/(Pixel*Frame)                       : 0.324
  20. Stream size                              : 44.5 GiB (75%)
  21. Title                                    : Sonic.the.Hedgehog.2020.2160p.BluRay.REMUX.HEVC.DTS-HD.MA.TrueHD.7.1.Atmos-FGT
  22. Language                                 : English
  23. Default                                  : Yes
  24. Forced                                   : No
  25. Color range                              : Limited
  26. Color primaries                          : BT.2020
  27. Transfer characteristics                 : PQ
  28. Matrix coefficients                      : BT.2020 non-constant
  29. Mastering display color primaries        : Display P3
  30. Mastering display luminance              : min: 0.0050 cd/m2, max: 4000 cd/m2
  31. Maximum Content Light Level              : 698 cd/m2
  32. Maximum Frame-Average Light Level        : 204 cd/m2
  33. Original source medium                   : Blu-ray

  34. Video #2
  35. ID                                       : 2
  36. ID in the original source medium         : 4117 (0x1015)
  37. Format                                   : HEVC
  38. Format/Info                              : High Efficiency Video Coding
  39. Format profile                           : Main High@L4@High
  40. HDR format                               : SMPTE ST 2086, HDR10 compatible
  41. Codec ID                                 : V_MPEGH/ISO/HEVC
  42. Duration                                 : 1 h 38 min
  43. Bit rate                                 : 4 961 kb/s
  44. Width                                    : 1 920 pixels
  45. Height                                   : 1 080 pixels
  46. Display aspect ratio                     : 16:9
  47. Frame rate mode                          : Constant
  48. Frame rate                               : 23.976 (24000/1001/189150) FPS
  49. Color space                              : YUV
  50. Chroma subsampling                       : 4:2:0 (Type 2)
  51. Bit depth                                : 10 bits
  52. Bits/(Pixel*Frame)                       : 0.100
  53. Stream size                              : 3.43 GiB (6%)
  54. Title                                    : Sonic.the.Hedgehog.2020.2160p.BluRay.REMUX.HEVC.DTS-HD.MA.TrueHD.7.1.Atmos-FGT
  55. Language                                 : English
  56. Default                                  : No
  57. Forced                                   : No
  58. Color range                              : Limited
  59. Color primaries                          : BT.2020
  60. Transfer characteristics                 : PQ
  61. Matrix coefficients                      : BT.2020 non-constant
  62. Mastering display color primaries        : Display P3
  63. Mastering display luminance              : min: 0.0050 cd/m2, max: 4000 cd/m2
  64. Original source medium                   : Blu-ray

  65. Audio #1
  66. ID                                       : 3
  67. ID in the original source medium         : 4352 (0x1100)
  68. Format                                   : MLP FBA 16-ch
  69. Format/Info                              : Meridian Lossless Packing FBA with 16-channel presentation
  70. Commercial name                          : Dolby TrueHD with Dolby Atmos
  71. Codec ID                                 : A_TRUEHD
  72. Duration                                 : 1 h 38 min
  73. Bit rate mode                            : Variable
  74. Bit rate                                 : 4 434 kb/s
  75. Maximum bit rate                         : 7 872 kb/s
  76. Channel(s)                               : 8 channels
  77. Channel layout                           : L R C LFE Ls Rs Lb Rb
  78. Sampling rate                            : 48.0 kHz
  79. Frame rate                               : 1 200.000 FPS (40 SPF)
  80. Compression mode                         : Lossless
  81. Stream size                              : 3.06 GiB (5%)
  82. Title                                    : Sonic.the.Hedgehog.2020.2160p.BluRay.REMUX.HEVC.DTS-HD.MA.TrueHD.7.1.Atmos-FGT
  83. Language                                 : English
  84. Default                                  : Yes
  85. Forced                                   : No
  86. Original source medium                   : Blu-ray
  87. Number of dynamic objects                : 11
  88. Bed channel count                        : 1 channel
  89. Bed channel configuration                : LFE

  90. Audio #2
  91. ID                                       : 4
  92. Format                                   : DTS XLL
  93. Format/Info                              : Digital Theater Systems
  94. Commercial name                          : DTS-HD Master Audio
  95. Codec ID                                 : A_DTS
  96. Duration                                 : 1 h 38 min
  97. Bit rate mode                            : Variable
  98. Bit rate                                 : 4 188 kb/s
  99. Channel(s)                               : 8 channels
  100. Channel layout                           : C L R LFE Lb Rb Lss Rss
  101. Sampling rate                            : 48.0 kHz
  102. Frame rate                               : 93.750 FPS (512 SPF)
  103. Bit depth                                : 24 bits
  104. Compression mode                         : Lossless
  105. Stream size                              : 2.89 GiB (5%)
  106. Title                                    : Sonic.the.Hedgehog.2020.2160p.BluRay.REMUX.HEVC.DTS-HD.MA.TrueHD.7.1.Atmos-FGT
  107. Language                                 : English
  108. Default                                  : No
  109. Forced                                   : No

  110. Audio #3
  111. ID                                       : 5
  112. ID in the original source medium         : 4352 (0x1100)
  113. Format                                   : AC-3
  114. Format/Info                              : Audio Coding 3
  115. Commercial name                          : Dolby Digital
  116. Codec ID                                 : A_AC3
  117. Duration                                 : 1 h 38 min
  118. Bit rate mode                            : Constant
  119. Bit rate                                 : 640 kb/s
  120. Channel(s)                               : 6 channels
  121. Channel layout                           : L R C LFE Ls Rs
  122. Sampling rate                            : 48.0 kHz
  123. Frame rate                               : 31.250 FPS (1536 SPF)
  124. Bit depth                                : 16 bits
  125. Compression mode                         : Lossy
  126. Stream size                              : 453 MiB (1%)
  127. Title                                    : Sonic.the.Hedgehog.2020.2160p.BluRay.REMUX.HEVC.DTS-HD.MA.TrueHD.7.1.Atmos-FGT
  128. Language                                 : English
  129. Service kind                             : Complete Main
  130. Default                                  : No
  131. Forced                                   : No
  132. Original source medium                   : Blu-ray

  133. Audio #4
  134. ID                                       : 6
  135. ID in the original source medium         : 4353 (0x1101)
  136. Format                                   : AC-3
  137. Format/Info                              : Audio Coding 3
  138. Commercial name                          : Dolby Digital
  139. Codec ID                                 : A_AC3
  140. Duration                                 : 1 h 38 min
  141. Bit rate mode                            : Constant
  142. Bit rate                                 : 640 kb/s
  143. Channel(s)                               : 6 channels
  144. Channel layout                           : L R C LFE Ls Rs
  145. Sampling rate                            : 48.0 kHz
  146. Frame rate                               : 31.250 FPS (1536 SPF)
  147. Bit depth                                : 16 bits
  148. Compression mode                         : Lossy
  149. Stream size                              : 453 MiB (1%)
  150. Title                                    : Sonic.the.Hedgehog.2020.2160p.BluRay.REMUX.HEVC.DTS-HD.MA.TrueHD.7.1.Atmos-FGT
  151. Language                                 : English
  152. Service kind                             : Complete Main
  153. Default                                  : No
  154. Forced                                   : No
  155. Original source medium                   : Blu-ray

  156. Audio #5
  157. ID                                       : 7
  158. ID in the original source medium         : 4354 (0x1102)
  159. Format                                   : AC-3
  160. Format/Info                              : Audio Coding 3
  161. Commercial name                          : Dolby Digital
  162. Codec ID                                 : A_AC3
  163. Duration                                 : 1 h 38 min
  164. Bit rate mode                            : Constant
  165. Bit rate                                 : 640 kb/s
  166. Channel(s)                               : 6 channels
  167. Channel layout                           : L R C LFE Ls Rs
  168. Sampling rate                            : 48.0 kHz
  169. Frame rate                               : 31.250 FPS (1536 SPF)
  170. Bit depth                                : 16 bits
  171. Compression mode                         : Lossy
  172. Stream size                              : 453 MiB (1%)
  173. Title                                    : Sonic.the.Hedgehog.2020.2160p.BluRay.REMUX.HEVC.DTS-HD.MA.TrueHD.7.1.Atmos-FGT
  174. Language                                 : German
  175. Service kind                             : Complete Main
  176. Default                                  : No
  177. Forced                                   : No
  178. Original source medium                   : Blu-ray

  179. Audio #6
  180. ID                                       : 8
  181. ID in the original source medium         : 4355 (0x1103)
  182. Format                                   : AC-3
  183. Format/Info                              : Audio Coding 3
  184. Commercial name                          : Dolby Digital
  185. Codec ID                                 : A_AC3
  186. Duration                                 : 1 h 38 min
  187. Bit rate mode                            : Constant
  188. Bit rate                                 : 640 kb/s
  189. Channel(s)                               : 6 channels
  190. Channel layout                           : L R C LFE Ls Rs
  191. Sampling rate                            : 48.0 kHz
  192. Frame rate                               : 31.250 FPS (1536 SPF)
  193. Bit depth                                : 16 bits
  194. Compression mode                         : Lossy
  195. Stream size                              : 453 MiB (1%)
  196. Title                                    : Sonic.the.Hedgehog.2020.2160p.BluRay.REMUX.HEVC.DTS-HD.MA.TrueHD.7.1.Atmos-FGT
  197. Language                                 : Spanish
  198. Service kind                             : Complete Main
  199. Default                                  : No
  200. Forced                                   : No
  201. Original source medium                   : Blu-ray

  202. Audio #7
  203. ID                                       : 9
  204. ID in the original source medium         : 4356 (0x1104)
  205. Format                                   : AC-3
  206. Format/Info                              : Audio Coding 3
  207. Commercial name                          : Dolby Digital
  208. Codec ID                                 : A_AC3
  209. Duration                                 : 1 h 38 min
  210. Bit rate mode                            : Constant
  211. Bit rate                                 : 640 kb/s
  212. Channel(s)                               : 6 channels
  213. Channel layout                           : L R C LFE Ls Rs
  214. Sampling rate                            : 48.0 kHz
  215. Frame rate                               : 31.250 FPS (1536 SPF)
  216. Bit depth                                : 16 bits
  217. Compression mode                         : Lossy
  218. Stream size                              : 453 MiB (1%)
  219. Title                                    : Sonic.the.Hedgehog.2020.2160p.BluRay.REMUX.HEVC.DTS-HD.MA.TrueHD.7.1.Atmos-FGT
  220. Language                                 : Spanish
  221. Service kind                             : Complete Main
  222. Default                                  : No
  223. Forced                                   : No
  224. Original source medium                   : Blu-ray

  225. Audio #8
  226. ID                                       : 10
  227. ID in the original source medium         : 4357 (0x1105)
  228. Format                                   : AC-3
  229. Format/Info                              : Audio Coding 3
  230. Commercial name                          : Dolby Digital
  231. Codec ID                                 : A_AC3
  232. Duration                                 : 1 h 38 min
  233. Bit rate mode                            : Constant
  234. Bit rate                                 : 640 kb/s
  235. Channel(s)                               : 6 channels
  236. Channel layout                           : L R C LFE Ls Rs
  237. Sampling rate                            : 48.0 kHz
  238. Frame rate                               : 31.250 FPS (1536 SPF)
  239. Bit depth                                : 16 bits
  240. Compression mode                         : Lossy
  241. Stream size                              : 453 MiB (1%)
  242. Title                                    : Sonic.the.Hedgehog.2020.2160p.BluRay.REMUX.HEVC.DTS-HD.MA.TrueHD.7.1.Atmos-FGT
  243. Language                                 : French
  244. Service kind                             : Complete Main
  245. Default                                  : No
  246. Forced                                   : No
  247. Original source medium                   : Blu-ray

  248. Audio #9
  249. ID                                       : 11
  250. ID in the original source medium         : 4358 (0x1106)
  251. Format                                   : AC-3
  252. Format/Info                              : Audio Coding 3
  253. Commercial name                          : Dolby Digital
  254. Codec ID                                 : A_AC3
  255. Duration                                 : 1 h 38 min
  256. Bit rate mode                            : Constant
  257. Bit rate                                 : 640 kb/s
  258. Channel(s)                               : 6 channels
  259. Channel layout                           : L R C LFE Ls Rs
  260. Sampling rate                            : 48.0 kHz
  261. Frame rate                               : 31.250 FPS (1536 SPF)
  262. Bit depth                                : 16 bits
  263. Compression mode                         : Lossy
  264. Stream size                              : 453 MiB (1%)
  265. Title                                    : Sonic.the.Hedgehog.2020.2160p.BluRay.REMUX.HEVC.DTS-HD.MA.TrueHD.7.1.Atmos-FGT
  266. Language                                 : French
  267. Service kind                             : Complete Main
  268. Default                                  : No
  269. Forced                                   : No
  270. Original source medium                   : Blu-ray

  271. Audio #10
  272. ID                                       : 12
  273. ID in the original source medium         : 4359 (0x1107)
  274. Format                                   : AC-3
  275. Format/Info                              : Audio Coding 3
  276. Commercial name                          : Dolby Digital
  277. Codec ID                                 : A_AC3
  278. Duration                                 : 1 h 38 min
  279. Bit rate mode                            : Constant
  280. Bit rate                                 : 640 kb/s
  281. Channel(s)                               : 6 channels
  282. Channel layout                           : L R C LFE Ls Rs
  283. Sampling rate                            : 48.0 kHz
  284. Frame rate                               : 31.250 FPS (1536 SPF)
  285. Bit depth                                : 16 bits
  286. Compression mode                         : Lossy
  287. Stream size                              : 453 MiB (1%)
  288. Title                                    : Sonic.the.Hedgehog.2020.2160p.BluRay.REMUX.HEVC.DTS-HD.MA.TrueHD.7.1.Atmos-FGT
  289. Language                                 : Italian
  290. Service kind                             : Complete Main
  291. Default                                  : No
  292. Forced                                   : No
  293. Original source medium                   : Blu-ray

  294. Audio #11
  295. ID                                       : 13
  296. ID in the original source medium         : 4360 (0x1108)
  297. Format                                   : AC-3
  298. Format/Info                              : Audio Coding 3
  299. Commercial name                          : Dolby Digital
  300. Codec ID                                 : A_AC3
  301. Duration                                 : 1 h 38 min
  302. Bit rate mode                            : Constant
  303. Bit rate                                 : 640 kb/s
  304. Channel(s)                               : 6 channels
  305. Channel layout                           : L R C LFE Ls Rs
  306. Sampling rate                            : 48.0 kHz
  307. Frame rate                               : 31.250 FPS (1536 SPF)
  308. Bit depth                                : 16 bits
  309. Compression mode                         : Lossy
  310. Stream size                              : 453 MiB (1%)
  311. Title                                    : Sonic.the.Hedgehog.2020.2160p.BluRay.REMUX.HEVC.DTS-HD.MA.TrueHD.7.1.Atmos-FGT
  312. Language                                 : Japanese
  313. Service kind                             : Complete Main
  314. Default                                  : No
  315. Forced                                   : No
  316. Original source medium                   : Blu-ray

  317. Audio #12
  318. ID                                       : 14
  319. ID in the original source medium         : 4361 (0x1109)
  320. Format                                   : AC-3
  321. Format/Info                              : Audio Coding 3
  322. Commercial name                          : Dolby Digital
  323. Codec ID                                 : A_AC3
  324. Duration                                 : 1 h 38 min
  325. Bit rate mode                            : Constant
  326. Bit rate                                 : 640 kb/s
  327. Channel(s)                               : 6 channels
  328. Channel layout                           : L R C LFE Ls Rs
  329. Sampling rate                            : 48.0 kHz
  330. Frame rate                               : 31.250 FPS (1536 SPF)
  331. Bit depth                                : 16 bits
  332. Compression mode                         : Lossy
  333. Stream size                              : 453 MiB (1%)
  334. Title                                    : Sonic.the.Hedgehog.2020.2160p.BluRay.REMUX.HEVC.DTS-HD.MA.TrueHD.7.1.Atmos-FGT
  335. Language                                 : Russian
  336. Service kind                             : Complete Main
  337. Default                                  : No
  338. Forced                                   : No
  339. Original source medium                   : Blu-ray

  340. Audio #13
  341. ID                                       : 15
  342. ID in the original source medium         : 4362 (0x110A)
  343. Format                                   : AC-3
  344. Format/Info                              : Audio Coding 3
  345. Commercial name                          : Dolby Digital
  346. Codec ID                                 : A_AC3
  347. Duration                                 : 1 h 38 min
  348. Bit rate mode                            : Constant
  349. Bit rate                                 : 640 kb/s
  350. Channel(s)                               : 6 channels
  351. Channel layout                           : L R C LFE Ls Rs
  352. Sampling rate                            : 48.0 kHz
  353. Frame rate                               : 31.250 FPS (1536 SPF)
  354. Bit depth                                : 16 bits
  355. Compression mode                         : Lossy
  356. Stream size                              : 453 MiB (1%)
  357. Title                                    : Sonic.the.Hedgehog.2020.2160p.BluRay.REMUX.HEVC.DTS-HD.MA.TrueHD.7.1.Atmos-FGT
  358. Language                                 : Thai
  359. Service kind                             : Complete Main
  360. Default                                  : No
  361. Forced                                   : No
  362. Original source medium                   : Blu-ray

  363. Audio #14
  364. ID                                       : 16
  365. ID in the original source medium         : 4363 (0x110B)
  366. Format                                   : AC-3
  367. Format/Info                              : Audio Coding 3
  368. Commercial name                          : Dolby Digital
  369. Codec ID                                 : A_AC3
  370. Duration                                 : 1 h 38 min
  371. Bit rate mode                            : Constant
  372. Bit rate                                 : 224 kb/s
  373. Channel(s)                               : 2 channels
  374. Channel layout                           : L R
  375. Sampling rate                            : 48.0 kHz
  376. Frame rate                               : 31.250 FPS (1536 SPF)
  377. Bit depth                                : 16 bits
  378. Compression mode                         : Lossy
  379. Stream size                              : 158 MiB (0%)
  380. Title                                    : Sonic.the.Hedgehog.2020.2160p.BluRay.REMUX.HEVC.DTS-HD.MA.TrueHD.7.1.Atmos-FGT
  381. Language                                 : English
  382. Service kind                             : Complete Main
  383. Default                                  : No
  384. Forced                                   : No
  385. Original source medium                   : Blu-ray

  386. Text #1
  387. ID                                       : 17
  388. Format                                   : UTF-8
  389. Codec ID                                 : S_TEXT/UTF8
  390. Codec ID/Info                            : UTF-8 Plain Text
  391. Duration                                 : 1 h 31 min
  392. Bit rate                                 : 65 b/s
  393. Count of elements                        : 1276
  394. Stream size                              : 43.8 KiB (0%)
  395. Title                                    : English-SRT
  396. Language                                 : English
  397. Default                                  : Yes
  398. Forced                                   : No

  399. Text #2
  400. ID                                       : 18
  401. ID in the original source medium         : 4768 (0x12A0)
  402. Format                                   : PGS
  403. Muxing mode                              : zlib
  404. Codec ID                                 : S_HDMV/PGS
  405. Codec ID/Info                            : Picture based subtitle format used on BDs/HD-DVDs
  406. Duration                                 : 1 h 31 min
  407. Bit rate                                 : 45.2 kb/s
  408. Count of elements                        : 2564
  409. Stream size                              : 29.6 MiB (0%)
  410. Title                                    : English-PGS
  411. Language                                 : English
  412. Default                                  : No
  413. Forced                                   : No
  414. Original source medium                   : Blu-ray

  415. Text #3
  416. ID                                       : 19
  417. ID in the original source medium         : 4769 (0x12A1)
  418. Format                                   : PGS
  419. Muxing mode                              : zlib
  420. Codec ID                                 : S_HDMV/PGS
  421. Codec ID/Info                            : Picture based subtitle format used on BDs/HD-DVDs
  422. Duration                                 : 1 h 32 min
  423. Bit rate                                 : 51.8 kb/s
  424. Count of elements                        : 3184
  425. Stream size                              : 34.3 MiB (0%)
  426. Title                                    : English-SDH-PGS
  427. Language                                 : English
  428. Default                                  : No
  429. Forced                                   : No
  430. Original source medium                   : Blu-ray

  431. Text #4
  432. ID                                       : 20
  433. ID in the original source medium         : 4770 (0x12A2)
  434. Format                                   : PGS
  435. Muxing mode                              : zlib
  436. Codec ID                                 : S_HDMV/PGS
  437. Codec ID/Info                            : Picture based subtitle format used on BDs/HD-DVDs
  438. Duration                                 : 1 h 37 min
  439. Bit rate                                 : 47.9 kb/s
  440. Count of elements                        : 2614
  441. Stream size                              : 33.5 MiB (0%)
  442. Title                                    : Malay-PGS
  443. Language                                 : Malay
  444. Default                                  : No
  445. Forced                                   : No
  446. Original source medium                   : Blu-ray

  447. Text #5
  448. ID                                       : 21
  449. ID in the original source medium         : 4771 (0x12A3)
  450. Format                                   : PGS
  451. Muxing mode                              : zlib
  452. Codec ID                                 : S_HDMV/PGS
  453. Codec ID/Info                            : Picture based subtitle format used on BDs/HD-DVDs
  454. Duration                                 : 1 h 37 min
  455. Bit rate                                 : 32.0 kb/s
  456. Count of elements                        : 2588
  457. Stream size                              : 22.3 MiB (0%)
  458. Title                                    : Chinese-PGS
  459. Language                                 : Chinese
  460. Default                                  : No
  461. Forced                                   : No
  462. Original source medium                   : Blu-ray

  463. Text #6
  464. ID                                       : 22
  465. ID in the original source medium         : 4772 (0x12A4)
  466. Format                                   : PGS
  467. Muxing mode                              : zlib
  468. Codec ID                                 : S_HDMV/PGS
  469. Codec ID/Info                            : Picture based subtitle format used on BDs/HD-DVDs
  470. Duration                                 : 1 h 37 min
  471. Bit rate                                 : 36.4 kb/s
  472. Count of elements                        : 2540
  473. Stream size                              : 25.4 MiB (0%)
  474. Title                                    : Czech-PGS
  475. Language                                 : Czech
  476. Default                                  : No
  477. Forced                                   : No
  478. Original source medium                   : Blu-ray

  479. Text #7
  480. ID                                       : 23
  481. ID in the original source medium         : 4773 (0x12A5)
  482. Format                                   : PGS
  483. Muxing mode                              : zlib
  484. Codec ID                                 : S_HDMV/PGS
  485. Codec ID/Info                            : Picture based subtitle format used on BDs/HD-DVDs
  486. Duration                                 : 1 h 37 min
  487. Bit rate                                 : 36.0 kb/s
  488. Count of elements                        : 2512
  489. Stream size                              : 25.1 MiB (0%)
  490. Title                                    : Danish-PGS
  491. Language                                 : Danish
  492. Default                                  : No
  493. Forced                                   : No
  494. Original source medium                   : Blu-ray

  495. Text #8
  496. ID                                       : 24
  497. ID in the original source medium         : 4774 (0x12A6)
  498. Format                                   : PGS
  499. Muxing mode                              : zlib
  500. Codec ID                                 : S_HDMV/PGS
  501. Codec ID/Info                            : Picture based subtitle format used on BDs/HD-DVDs
  502. Duration                                 : 1 h 37 min
  503. Bit rate                                 : 41.7 kb/s
  504. Count of elements                        : 2494
  505. Stream size                              : 29.1 MiB (0%)
  506. Title                                    : German-PGS
  507. Language                                 : German
  508. Default                                  : No
  509. Forced                                   : No
  510. Original source medium                   : Blu-ray

  511. Text #9
  512. ID                                       : 25
  513. ID in the original source medium         : 4774 (0x12A6)
  514. Format                                   : PGS
  515. Muxing mode                              : zlib
  516. Codec ID                                 : S_HDMV/PGS
  517. Codec ID/Info                            : Picture based subtitle format used on BDs/HD-DVDs
  518. Duration                                 : 1 h 34 min
  519. Bit rate                                 : 492 b/s
  520. Count of elements                        : 38
  521. Stream size                              : 342 KiB (0%)
  522. Title                                    : German-FORCED-PGS
  523. Language                                 : German
  524. Default                                  : No
  525. Forced                                   : No
  526. Original source medium                   : Blu-ray

  527. Text #10
  528. ID                                       : 26
  529. ID in the original source medium         : 4775 (0x12A7)
  530. Format                                   : PGS
  531. Muxing mode                              : zlib
  532. Codec ID                                 : S_HDMV/PGS
  533. Codec ID/Info                            : Picture based subtitle format used on BDs/HD-DVDs
  534. Duration                                 : 1 h 37 min
  535. Bit rate                                 : 40.9 kb/s
  536. Count of elements                        : 2252
  537. Stream size                              : 28.5 MiB (0%)
  538. Title                                    : Greek-PGS
  539. Language                                 : Greek
  540. Default                                  : No
  541. Forced                                   : No
  542. Original source medium                   : Blu-ray

  543. Text #11
  544. ID                                       : 27
  545. ID in the original source medium         : 4776 (0x12A8)
  546. Format                                   : PGS
  547. Muxing mode                              : zlib
  548. Codec ID                                 : S_HDMV/PGS
  549. Codec ID/Info                            : Picture based subtitle format used on BDs/HD-DVDs
  550. Duration                                 : 1 h 37 min
  551. Bit rate                                 : 38.6 kb/s
  552. Count of elements                        : 2528
  553. Stream size                              : 26.9 MiB (0%)
  554. Title                                    : Spanish-PGS
  555. Language                                 : Spanish
  556. Default                                  : No
  557. Forced                                   : No
  558. Original source medium                   : Blu-ray

  559. Text #12
  560. ID                                       : 28
  561. ID in the original source medium         : 4776 (0x12A8)
  562. Format                                   : PGS
  563. Muxing mode                              : zlib
  564. Codec ID                                 : S_HDMV/PGS
  565. Codec ID/Info                            : Picture based subtitle format used on BDs/HD-DVDs
  566. Duration                                 : 1 h 35 min
  567. Bit rate                                 : 651 b/s
  568. Count of elements                        : 48
  569. Stream size                              : 454 KiB (0%)
  570. Title                                    : Spanish-FORCED-PGS
  571. Language                                 : Spanish
  572. Default                                  : No
  573. Forced                                   : No
  574. Original source medium                   : Blu-ray

  575. Text #13
  576. ID                                       : 29
  577. ID in the original source medium         : 4777 (0x12A9)
  578. Format                                   : PGS
  579. Muxing mode                              : zlib
  580. Codec ID                                 : S_HDMV/PGS
  581. Codec ID/Info                            : Picture based subtitle format used on BDs/HD-DVDs
  582. Duration                                 : 1 h 37 min
  583. Bit rate                                 : 40.7 kb/s
  584. Count of elements                        : 2618
  585. Stream size                              : 28.4 MiB (0%)
  586. Title                                    : Spanish-PGS
  587. Language                                 : Spanish
  588. Default                                  : No
  589. Forced                                   : No
  590. Original source medium                   : Blu-ray

  591. Text #14
  592. ID                                       : 30
  593. ID in the original source medium         : 4777 (0x12A9)
  594. Format                                   : PGS
  595. Muxing mode                              : zlib
  596. Codec ID                                 : S_HDMV/PGS
  597. Codec ID/Info                            : Picture based subtitle format used on BDs/HD-DVDs
  598. Duration                                 : 1 h 35 min
  599. Bit rate                                 : 645 b/s
  600. Count of elements                        : 48
  601. Stream size                              : 449 KiB (0%)
  602. Title                                    : Spanish-FORCED-PGS
  603. Language                                 : Spanish
  604. Default                                  : No
  605. Forced                                   : No
  606. Original source medium                   : Blu-ray

  607. Text #15
  608. ID                                       : 31
  609. ID in the original source medium         : 4778 (0x12AA)
  610. Format                                   : PGS
  611. Muxing mode                              : zlib
  612. Codec ID                                 : S_HDMV/PGS
  613. Codec ID/Info                            : Picture based subtitle format used on BDs/HD-DVDs
  614. Duration                                 : 1 h 37 min
  615. Bit rate                                 : 32.9 kb/s
  616. Count of elements                        : 2468
  617. Stream size                              : 23.0 MiB (0%)
  618. Title                                    : French-PGS
  619. Language                                 : French
  620. Default                                  : No
  621. Forced                                   : No
  622. Original source medium                   : Blu-ray

  623. Text #16
  624. ID                                       : 32
  625. ID in the original source medium         : 4778 (0x12AA)
  626. Format                                   : PGS
  627. Muxing mode                              : zlib
  628. Codec ID                                 : S_HDMV/PGS
  629. Codec ID/Info                            : Picture based subtitle format used on BDs/HD-DVDs
  630. Duration                                 : 1 h 35 min
  631. Bit rate                                 : 739 b/s
  632. Count of elements                        : 56
  633. Stream size                              : 515 KiB (0%)
  634. Title                                    : French-FORCED-PGS
  635. Language                                 : French
  636. Default                                  : No
  637. Forced                                   : No
  638. Original source medium                   : Blu-ray

  639. Text #17
  640. ID                                       : 33
  641. ID in the original source medium         : 4779 (0x12AB)
  642. Format                                   : PGS
  643. Muxing mode                              : zlib
  644. Codec ID                                 : S_HDMV/PGS
  645. Codec ID/Info                            : Picture based subtitle format used on BDs/HD-DVDs
  646. Duration                                 : 1 h 37 min
  647. Bit rate                                 : 44.1 kb/s
  648. Count of elements                        : 2594
  649. Stream size                              : 30.8 MiB (0%)
  650. Title                                    : French-PGS
  651. Language                                 : French
  652. Default                                  : No
  653. Forced                                   : No
  654. Original source medium                   : Blu-ray

  655. Text #18
  656. ID                                       : 34
  657. ID in the original source medium         : 4779 (0x12AB)
  658. Format                                   : PGS
  659. Muxing mode                              : zlib
  660. Codec ID                                 : S_HDMV/PGS
  661. Codec ID/Info                            : Picture based subtitle format used on BDs/HD-DVDs
  662. Duration                                 : 1 h 35 min
  663. Bit rate                                 : 725 b/s
  664. Count of elements                        : 52
  665. Stream size                              : 505 KiB (0%)
  666. Title                                    : French-FORCED-PGS
  667. Language                                 : French
  668. Default                                  : No
  669. Forced                                   : No
  670. Original source medium                   : Blu-ray

  671. Text #19
  672. ID                                       : 35
  673. ID in the original source medium         : 4780 (0x12AC)
  674. Format                                   : PGS
  675. Muxing mode                              : zlib
  676. Codec ID                                 : S_HDMV/PGS
  677. Codec ID/Info                            : Picture based subtitle format used on BDs/HD-DVDs
  678. Duration                                 : 1 h 37 min
  679. Bit rate                                 : 39.2 kb/s
  680. Count of elements                        : 2572
  681. Stream size                              : 27.4 MiB (0%)
  682. Title                                    : Italian-PGS
  683. Language                                 : Italian
  684. Default                                  : No
  685. Forced                                   : No
  686. Original source medium                   : Blu-ray

  687. Text #20
  688. ID                                       : 36
  689. ID in the original source medium         : 4780 (0x12AC)
  690. Format                                   : PGS
  691. Muxing mode                              : zlib
  692. Codec ID                                 : S_HDMV/PGS
  693. Codec ID/Info                            : Picture based subtitle format used on BDs/HD-DVDs
  694. Duration                                 : 1 h 35 min
  695. Bit rate                                 : 759 b/s
  696. Count of elements                        : 56
  697. Stream size                              : 529 KiB (0%)
  698. Title                                    : Italian-FORCED-PGS
  699. Language                                 : Italian
  700. Default                                  : No
  701. Forced                                   : No
  702. Original source medium                   : Blu-ray

  703. Text #21
  704. ID                                       : 37
  705. ID in the original source medium         : 4781 (0x12AD)
  706. Format                                   : PGS
  707. Muxing mode                              : zlib
  708. Codec ID                                 : S_HDMV/PGS
  709. Codec ID/Info                            : Picture based subtitle format used on BDs/HD-DVDs
  710. Duration                                 : 1 h 31 min
  711. Bit rate                                 : 26.5 kb/s
  712. Count of elements                        : 2410
  713. Stream size                              : 17.4 MiB (0%)
  714. Title                                    : Japanese-PGS
  715. Language                                 : Japanese
  716. Default                                  : No
  717. Forced                                   : No
  718. Original source medium                   : Blu-ray

  719. Text #22
  720. ID                                       : 38
  721. ID in the original source medium         : 4781 (0x12AD)
  722. Format                                   : PGS
  723. Muxing mode                              : zlib
  724. Codec ID                                 : S_HDMV/PGS
  725. Codec ID/Info                            : Picture based subtitle format used on BDs/HD-DVDs
  726. Duration                                 : 1 h 25 min
  727. Bit rate                                 : 1 034 b/s
  728. Count of elements                        : 90
  729. Stream size                              : 652 KiB (0%)
  730. Title                                    : Japanese-FORCED-PGS
  731. Language                                 : Japanese
  732. Default                                  : No
  733. Forced                                   : No
  734. Original source medium                   : Blu-ray

  735. Text #23
  736. ID                                       : 39
  737. ID in the original source medium         : 4782 (0x12AE)
  738. Format                                   : PGS
  739. Muxing mode                              : zlib
  740. Codec ID                                 : S_HDMV/PGS
  741. Codec ID/Info                            : Picture based subtitle format used on BDs/HD-DVDs
  742. Duration                                 : 1 h 37 min
  743. Bit rate                                 : 23.6 kb/s
  744. Count of elements                        : 2630
  745. Stream size                              : 16.5 MiB (0%)
  746. Title                                    : Korean-PGS
  747. Language                                 : Korean
  748. Default                                  : No
  749. Forced                                   : No
  750. Original source medium                   : Blu-ray

  751. Text #24
  752. ID                                       : 40
  753. ID in the original source medium         : 4783 (0x12AF)
  754. Format                                   : PGS
  755. Muxing mode                              : zlib
  756. Codec ID                                 : S_HDMV/PGS
  757. Codec ID/Info                            : Picture based subtitle format used on BDs/HD-DVDs
  758. Duration                                 : 1 h 37 min
  759. Bit rate                                 : 30.0 kb/s
  760. Count of elements                        : 2624
  761. Stream size                              : 20.9 MiB (0%)
  762. Title                                    : Chinese-PGS
  763. Language                                 : Chinese
  764. Default                                  : No
  765. Forced                                   : No
  766. Original source medium                   : Blu-ray

  767. Text #25
  768. ID                                       : 41
  769. ID in the original source medium         : 4784 (0x12B0)
  770. Format                                   : PGS
  771. Muxing mode                              : zlib
  772. Codec ID                                 : S_HDMV/PGS
  773. Codec ID/Info                            : Picture based subtitle format used on BDs/HD-DVDs
  774. Duration                                 : 1 h 37 min
  775. Bit rate                                 : 34.5 kb/s
  776. Count of elements                        : 2466
  777. Stream size                              : 24.1 MiB (0%)
  778. Title                                    : Dutch-PGS
  779. Language                                 : Dutch
  780. Default                                  : No
  781. Forced                                   : No
  782. Original source medium                   : Blu-ray

  783. Text #26
  784. ID                                       : 42
  785. ID in the original source medium         : 4785 (0x12B1)
  786. Format                                   : PGS
  787. Muxing mode                              : zlib
  788. Codec ID                                 : S_HDMV/PGS
  789. Codec ID/Info                            : Picture based subtitle format used on BDs/HD-DVDs
  790. Duration                                 : 1 h 37 min
  791. Bit rate                                 : 34.5 kb/s
  792. Count of elements                        : 2584
  793. Stream size                              : 24.1 MiB (0%)
  794. Title                                    : Norwegian-PGS
  795. Language                                 : Norwegian
  796. Default                                  : No
  797. Forced                                   : No
  798. Original source medium                   : Blu-ray

  799. Text #27
  800. ID                                       : 43
  801. ID in the original source medium         : 4786 (0x12B2)
  802. Format                                   : PGS
  803. Muxing mode                              : zlib
  804. Codec ID                                 : S_HDMV/PGS
  805. Codec ID/Info                            : Picture based subtitle format used on BDs/HD-DVDs
  806. Duration                                 : 1 h 37 min
  807. Bit rate                                 : 38.2 kb/s
  808. Count of elements                        : 2588
  809. Stream size                              : 26.7 MiB (0%)
  810. Title                                    : Russian-PGS
  811. Language                                 : Russian
  812. Default                                  : No
  813. Forced                                   : No
  814. Original source medium                   : Blu-ray

  815. Text #28
  816. ID                                       : 44
  817. ID in the original source medium         : 4786 (0x12B2)
  818. Format                                   : PGS
  819. Muxing mode                              : zlib
  820. Codec ID                                 : S_HDMV/PGS
  821. Codec ID/Info                            : Picture based subtitle format used on BDs/HD-DVDs
  822. Duration                                 : 1 h 35 min
  823. Bit rate                                 : 708 b/s
  824. Count of elements                        : 50
  825. Stream size                              : 493 KiB (0%)
  826. Title                                    : Russian-FORCED-PGS
  827. Language                                 : Russian
  828. Default                                  : No
  829. Forced                                   : No
  830. Original source medium                   : Blu-ray

  831. Text #29
  832. ID                                       : 45
  833. ID in the original source medium         : 4787 (0x12B3)
  834. Format                                   : PGS
  835. Muxing mode                              : zlib
  836. Codec ID                                 : S_HDMV/PGS
  837. Codec ID/Info                            : Picture based subtitle format used on BDs/HD-DVDs
  838. Duration                                 : 1 h 37 min
  839. Bit rate                                 : 37.2 kb/s
  840. Count of elements                        : 2572
  841. Stream size                              : 26.0 MiB (0%)
  842. Title                                    : Romanian-PGS
  843. Language                                 : Romanian
  844. Default                                  : No
  845. Forced                                   : No
  846. Original source medium                   : Blu-ray

  847. Text #30
  848. ID                                       : 46
  849. ID in the original source medium         : 4788 (0x12B4)
  850. Format                                   : PGS
  851. Muxing mode                              : zlib
  852. Codec ID                                 : S_HDMV/PGS
  853. Codec ID/Info                            : Picture based subtitle format used on BDs/HD-DVDs
  854. Duration                                 : 1 h 37 min
  855. Bit rate                                 : 36.8 kb/s
  856. Count of elements                        : 2618
  857. Stream size                              : 25.7 MiB (0%)
  858. Title                                    : Finnish-PGS
  859. Language                                 : Finnish
  860. Default                                  : No
  861. Forced                                   : No
  862. Original source medium                   : Blu-ray

  863. Text #31
  864. ID                                       : 47
  865. ID in the original source medium         : 4789 (0x12B5)
  866. Format                                   : PGS
  867. Muxing mode                              : zlib
  868. Codec ID                                 : S_HDMV/PGS
  869. Codec ID/Info                            : Picture based subtitle format used on BDs/HD-DVDs
  870. Duration                                 : 1 h 37 min
  871. Bit rate                                 : 36.1 kb/s
  872. Count of elements                        : 2578
  873. Stream size                              : 25.2 MiB (0%)
  874. Title                                    : Swedish-PGS
  875. Language                                 : Swedish
  876. Default                                  : No
  877. Forced                                   : No
  878. Original source medium                   : Blu-ray

  879. Text #32
  880. ID                                       : 48
  881. ID in the original source medium         : 4789 (0x12B5)
  882. Format                                   : PGS
  883. Muxing mode                              : zlib
  884. Codec ID                                 : S_HDMV/PGS
  885. Codec ID/Info                            : Picture based subtitle format used on BDs/HD-DVDs
  886. Duration                                 : 1 h 17 min
  887. Bit rate                                 : 385 b/s
  888. Count of elements                        : 32
  889. Stream size                              : 220 KiB (0%)
  890. Title                                    : Swedish-FORCED-PGS
  891. Language                                 : Swedish
  892. Default                                  : No
  893. Forced                                   : No
  894. Original source medium                   : Blu-ray

  895. Text #33
  896. ID                                       : 49
  897. ID in the original source medium         : 4790 (0x12B6)
  898. Format                                   : PGS
  899. Muxing mode                              : zlib
  900. Codec ID                                 : S_HDMV/PGS
  901. Codec ID/Info                            : Picture based subtitle format used on BDs/HD-DVDs
  902. Duration                                 : 1 h 37 min
  903. Bit rate                                 : 33.5 kb/s
  904. Count of elements                        : 2630
  905. Stream size                              : 23.4 MiB (0%)
  906. Title                                    : Thai-PGS
  907. Language                                 : Thai
  908. Default                                  : No
  909. Forced                                   : No
  910. Original source medium                   : Blu-ray

  911. Text #34
  912. ID                                       : 50
  913. ID in the original source medium         : 4790 (0x12B6)
  914. Format                                   : PGS
  915. Muxing mode                              : zlib
  916. Codec ID                                 : S_HDMV/PGS
  917. Codec ID/Info                            : Picture based subtitle format used on BDs/HD-DVDs
  918. Duration                                 : 1 h 31 min
  919. Bit rate                                 : 315 b/s
  920. Count of elements                        : 30
  921. Stream size                              : 211 KiB (0%)
  922. Title                                    : Thai-FORCED-PGS
  923. Language                                 : Thai
  924. Default                                  : No
  925. Forced                                   : No
  926. Original source medium                   : Blu-ray

  927. Text #35
  928. ID                                       : 51
  929. ID in the original source medium         : 4791 (0x12B7)
  930. Format                                   : PGS
  931. Muxing mode                              : zlib
  932. Codec ID                                 : S_HDMV/PGS
  933. Codec ID/Info                            : Picture based subtitle format used on BDs/HD-DVDs
  934. Duration                                 : 1 h 37 min
  935. Bit rate                                 : 42.7 kb/s
  936. Count of elements                        : 2588
  937. Stream size                              : 29.8 MiB (0%)
  938. Title                                    : Turkish-PGS
  939. Language                                 : Turkish
  940. Default                                  : No
  941. Forced                                   : No
  942. Original source medium                   : Blu-ray

  943. Text #36
  944. ID                                       : 52
  945. ID in the original source medium         : 4791 (0x12B7)
  946. Format                                   : PGS
  947. Muxing mode                              : zlib
  948. Codec ID                                 : S_HDMV/PGS
  949. Codec ID/Info                            : Picture based subtitle format used on BDs/HD-DVDs
  950. Duration                                 : 1 h 35 min
  951. Bit rate                                 : 659 b/s
  952. Count of elements                        : 50
  953. Stream size                              : 459 KiB (0%)
  954. Title                                    : Turkish-FORCED-PGS
  955. Language                                 : Turkish
  956. Default                                  : No
  957. Forced                                   : No
  958. Original source medium                   : Blu-ray

  959. Text #37
  960. ID                                       : 53
  961. ID in the original source medium         : 4792 (0x12B8)
  962. Format                                   : PGS
  963. Muxing mode                              : zlib
  964. Codec ID                                 : S_HDMV/PGS
  965. Codec ID/Info                            : Picture based subtitle format used on BDs/HD-DVDs
  966. Duration                                 : 1 h 38 min
  967. Bit rate                                 : 80.3 kb/s
  968. Count of elements                        : 4008
  969. Stream size                              : 56.6 MiB (0%)
  970. Title                                    : English-COMMENTARY-PGS
  971. Language                                 : English
  972. Default                                  : No
  973. Forced                                   : No
  974. Original source medium                   : Blu-ray

  975. Text #38
  976. ID                                       : 54
  977. ID in the original source medium         : 4793 (0x12B9)
  978. Format                                   : PGS
  979. Muxing mode                              : zlib
  980. Codec ID                                 : S_HDMV/PGS
  981. Codec ID/Info                            : Picture based subtitle format used on BDs/HD-DVDs
  982. Duration                                 : 1 h 38 min
  983. Bit rate                                 : 66.4 kb/s
  984. Count of elements                        : 3899
  985. Stream size                              : 46.9 MiB (0%)
  986. Title                                    : German-COMMENTARY-PGS
  987. Language                                 : German
  988. Default                                  : No
  989. Forced                                   : No
  990. Original source medium                   : Blu-ray

  991. Text #39
  992. ID                                       : 55
  993. ID in the original source medium         : 4794 (0x12BA)
  994. Format                                   : PGS
  995. Muxing mode                              : zlib
  996. Codec ID                                 : S_HDMV/PGS
  997. Codec ID/Info                            : Picture based subtitle format used on BDs/HD-DVDs
  998. Duration                                 : 1 h 38 min
  999. Bit rate                                 : 71.0 kb/s
  1000. Count of elements                        : 3938
  1001. Stream size                              : 50.2 MiB (0%)
  1002. Title                                    : Spanish-COMMENTARY-PGS
  1003. Language                                 : Spanish
  1004. Default                                  : No
  1005. Forced                                   : No
  1006. Original source medium                   : Blu-ray

  1007. Text #40
  1008. ID                                       : 56
  1009. ID in the original source medium         : 4795 (0x12BB)
  1010. Format                                   : PGS
  1011. Muxing mode                              : zlib
  1012. Codec ID                                 : S_HDMV/PGS
  1013. Codec ID/Info                            : Picture based subtitle format used on BDs/HD-DVDs
  1014. Duration                                 : 1 h 38 min
  1015. Bit rate                                 : 67.1 kb/s
  1016. Count of elements                        : 4004
  1017. Stream size                              : 47.4 MiB (0%)
  1018. Title                                    : Spanish-COMMENTARY-PGS
  1019. Language                                 : Spanish
  1020. Default                                  : No
  1021. Forced                                   : No
  1022. Original source medium                   : Blu-ray

  1023. Text #41
  1024. ID                                       : 57
  1025. ID in the original source medium         : 4796 (0x12BC)
  1026. Format                                   : PGS
  1027. Muxing mode                              : zlib
  1028. Codec ID                                 : S_HDMV/PGS
  1029. Codec ID/Info                            : Picture based subtitle format used on BDs/HD-DVDs
  1030. Duration                                 : 1 h 38 min
  1031. Bit rate                                 : 66.1 kb/s
  1032. Count of elements                        : 3956
  1033. Stream size                              : 46.7 MiB (0%)
  1034. Title                                    : French-COMMENTARY-PGS
  1035. Language                                 : French
  1036. Default                                  : No
  1037. Forced                                   : No
  1038. Original source medium                   : Blu-ray

  1039. Text #42
  1040. ID                                       : 58
  1041. ID in the original source medium         : 4797 (0x12BD)
  1042. Format                                   : PGS
  1043. Muxing mode                              : zlib
  1044. Codec ID                                 : S_HDMV/PGS
  1045. Codec ID/Info                            : Picture based subtitle format used on BDs/HD-DVDs
  1046. Duration                                 : 1 h 38 min
  1047. Bit rate                                 : 78.0 kb/s
  1048. Count of elements                        : 3988
  1049. Stream size                              : 55.1 MiB (0%)
  1050. Title                                    : French-COMMENTARY-PGS
  1051. Language                                 : French
  1052. Default                                  : No
  1053. Forced                                   : No
  1054. Original source medium                   : Blu-ray

  1055. Text #43
  1056. ID                                       : 59
  1057. ID in the original source medium         : 4798 (0x12BE)
  1058. Format                                   : PGS
  1059. Muxing mode                              : zlib
  1060. Codec ID                                 : S_HDMV/PGS
  1061. Codec ID/Info                            : Picture based subtitle format used on BDs/HD-DVDs
  1062. Duration                                 : 1 h 38 min
  1063. Bit rate                                 : 64.8 kb/s
  1064. Count of elements                        : 3992
  1065. Stream size                              : 45.8 MiB (0%)
  1066. Title                                    : Italian-COMMENTARY-PGS
  1067. Language                                 : Italian
  1068. Default                                  : No
  1069. Forced                                   : No
  1070. Original source medium                   : Blu-ray

  1071. Text #44
  1072. ID                                       : 60
  1073. ID in the original source medium         : 4799 (0x12BF)
  1074. Format                                   : PGS
  1075. Muxing mode                              : zlib
  1076. Codec ID                                 : S_HDMV/PGS
  1077. Codec ID/Info                            : Picture based subtitle format used on BDs/HD-DVDs
  1078. Duration                                 : 1 h 38 min
  1079. Bit rate                                 : 44.8 kb/s
  1080. Count of elements                        : 3286
  1081. Stream size                              : 31.6 MiB (0%)
  1082. Title                                    : Japanese-COMMENTARY-PGS
  1083. Language                                 : Japanese
  1084. Default                                  : No
  1085. Forced                                   : No
  1086. Original source medium                   : Blu-ray

  1087. Menu
  1088. 00:00:00.000                             : en:Chapter 01
  1089. 00:03:51.648                             : en:Chapter 02
  1090. 00:09:32.989                             : en:Chapter 03
  1091. 00:12:45.973                             : en:Chapter 04
  1092. 00:18:09.046                             : en:Chapter 05
  1093. 00:22:20.464                             : en:Chapter 06
  1094. 00:27:33.693                             : en:Chapter 07
  1095. 00:35:09.774                             : en:Chapter 08
  1096. 00:41:37.328                             : en:Chapter 09
  1097. 00:51:24.623                             : en:Chapter 10
  1098. 01:01:04.786                             : en:Chapter 11
  1099. 01:04:38.040                             : en:Chapter 12
  1100. 01:10:20.257                             : en:Chapter 13
  1101. 01:18:54.020                             : en:Chapter 14
  1102. 01:25:38.341                             : en:Chapter 15
  1103. 01:30:27.296                             : en:Chapter 16
复制代码

刺猬索尼克/超音鼠大电影 Sonic.the.Hedgehog.2020.2160p.BluRay.REMUX.HEVC.DTS-HD.MA.TrueHD.7.1.Atmos-FGT 59.49GB-2.png 刺猬索尼克/超音鼠大电影 Sonic.the.Hedgehog.2020.2160p.BluRay.REMUX.HEVC.DTS-HD.MA.TrueHD.7.1.Atmos-FGT 59.49GB-3.png 刺猬索尼克/超音鼠大电影 Sonic.the.Hedgehog.2020.2160p.BluRay.REMUX.HEVC.DTS-HD.MA.TrueHD.7.1.Atmos-FGT 59.49GB-4.png







回复

使用道具 举报

 成长值: 2970

发表于 2020-5-16 21:04:59 | 显示全部楼层
谢谢楼主无私分享。
回复 支持 反对

使用道具 举报

 成长值: 1630

发表于 2020-5-17 09:59:29 | 显示全部楼层

楼主太厉害了!楼主,电影应该很好看我觉得蓝光电影网真是个好地方!
回复 支持 反对

使用道具 举报

发表于 2020-5-18 02:04:36 | 显示全部楼层
楼主发贴辛苦了,谢谢楼主分享!我觉得蓝光电影网是注册对了!
回复 支持 反对

使用道具 举报

发表于 2020-5-18 21:25:01 | 显示全部楼层
楼主的辛苦,我只有顶贴报答,赶紧蓝光电影网是注册对了
回复 支持 反对

使用道具 举报

发表于 2020-5-19 14:36:02 | 显示全部楼层
就喜欢金凯瑞的电影
回复 支持 反对

使用道具 举报

发表于 2020-5-21 00:18:33 | 显示全部楼层
真是好片子,非常感谢!
回复 支持 反对

使用道具 举报

发表于 3 天前 | 显示全部楼层
金凯瑞,厉害了,谢谢分享
回复 支持 反对

使用道具 举报

懒得打字嘛,点击右侧快捷回复 【右侧内容,后台自定义】
您需要登录后才可以回帖 登录 | 立即加入

本版积分规则

现在加入蓝光电影网,注册一个账号
上个主题 下个主题 快速回复 收藏帖子 返回列表 客服中心 搜索

手机版|小黑屋| 蓝光电影网 |网站地图 

Copyright © 2015-2019 Comsenz Inc.  Template by 蓝光电影论坛 All Rights Reserved.

Powered by 蓝光电影网 X3.4

特别声明:本站所有资源均由网上收集而来,版权归原影音公司所有,如果侵犯了你的权益,请通知我们,我们会及时删除侵权内容.

快速回复 返回顶部 返回列表