找回密码

蓝光电影网

查看: 208|回复: 8

[10bit.SDR] 四十七浪人/浪人四十七 47.Ronin.2013.2160p.BluRay.x265.10bit.SDR.DTS-X.7.1-SWTYBLZ 30.00GB

[复制链接]

 成长值: 26155

发表于 2020-5-3 17:12:16 | 显示全部楼层 |阅读模式
四十七浪人/浪人四十七 47.Ronin.2013.2160p.BluRay.x265.10bit.SDR.DTS-X.7.1-SWTYBLZ 30.00GB-1.png

译  名 四十七浪人 / 浪人四十七 / 浪魂 47(港)
片  名 47 Ronin
年  代 2013
产  地 美国
类  别 剧情 / 动作 / 奇幻
语  言 英语 / 日语
上映日期 2013-12-06(日本) / 2013-12-25(美国)
IMDb评分  6.3/10 from 141640 users
IMDb链接  https://www.imdb.com/title/tt1335975
豆瓣评分 5.7/10 from 14573 users
豆瓣链接 https://movie.douban.com/subject/3326730/
片  长 119分钟
导  演 Carl Rinsch
编  剧 Carl Rinsch / 霍辛·阿米尼 Hossein Amini
主  演 基努·李维斯 Keanu Reeves
       真田广之 Hiroyuki Sanada
       浅野忠信 Tadanobu Asano
       菊地凛子 Rinko Kikuchi
       柴崎幸 Kou Shibasaki
       赤西仁 Jin Akanishi


标  签 日本 | 美国 | 武士 | 动作 | KeanuReeves | 浪人四十七 | 美国电影 | 赤西仁

简  介  

  古老的日本进入江户时代,德川幕府闭关锁国,维持着与世隔绝的和平和将军家的绝对统治。五代将军纲吉(田川洋行 饰)在吉良上野介(浅野忠信 饰)的陪同下造访浅野内匠头(田中泯 饰)所领导的播州赤穗藩。吉良阴险狭隘,野心勃勃,他利用妖女美月(菊地凛子 饰)迷惑浅野藩主,令其对吉良挥刀相向。震怒的将军责令浅野切腹,并严禁赤穗藩的家老大石内藏助(真田广之 饰)挟私报复。高傲的武士们一瞬间沦为浪人,而藩主自由收养的混血儿魁(基努·李维斯 Keanu Reeves 饰)更遭到不公的对待。经过一段时间的忍辱负重,大石将四十六位忠勇的赤穗藩武士集结麾下,暗中展开针对吉良的复仇。他辗转找到了魁,自幼爱慕藩主女儿美伽(柴崎幸 饰)的魁,为了防止心上人被吉良玷污,选择加入了复仇集团。
  四十七浪人的经典故事,以别样的形式呈现出来……

获奖情况  

  第61届美国音效剪辑协会奖(2014)
  金卷轴奖 最佳配乐剪辑(提名) Andrew Silver / Peter Oso Snell / Julie Pearce / Kenneth Karman
  1. Video
  2. ID                                       : 1
  3. Format                                   : HEVC
  4. Format/Info                              : High Efficiency Video Coding
  5. Format profile                           : Main High@L4@High
  6. Codec ID                                 : V_MPEGH/ISO/HEVC
  7. Duration                                 : 1 h 58 min
  8. Bit rate                                 : 28.9 Mb/s
  9. Width                                    : 3 840 pixels
  10. Height                                   : 1 600 pixels
  11. Display aspect ratio                     : 2.40:1
  12. Frame rate mode                          : Constant
  13. Frame rate                               : 23.976 (24000/1001/189150) FPS
  14. Color space                              : YUV
  15. Chroma subsampling                       : 4:2:0
  16. Bit depth                                : 10 bits
  17. Bits/(Pixel*Frame)                       : 0.196
  18. Stream size                              : 23.9 GiB (80%)
  19. Title                                    : 47.Ronin.2013.2160p.BluRay.x265.10bit.SDR.DTS-X.7.1-SWTYBLZ
  20. Writing library                          : x265 3.0ed72af837053:[Windows][GCC 8.2.0][64 bit] 10bit
  21. Encoding settings                        : cpuid=1111039 / frame-threads=6 / numa-pools=40 / wpp / no-pmode / no-pme / no-psnr / no-ssim / log-level=2 / input-csp=1 / input-res=3840x1600 / interlace=0 / total-frames=170631 / level-idc=51 / high-tier=1 / uhd-bd=0 / ref=3 / no-allow-non-conformance / repeat-headers / annexb / aud / hrd / info / hash=0 / no-temporal-layers / no-open-gop / min-keyint=1 / keyint=24 / gop-lookahead=0 / bframes=4 / b-adapt=2 / b-pyramid / bframe-bias=0 / rc-lookahead=25 / lookahead-slices=4 / scenecut=40 / radl=0 / no-splice / no-intra-refresh / ctu=64 / min-cu-size=8 / no-rect / no-amp / max-tu-size=32 / tu-inter-depth=1 / tu-intra-depth=1 / limit-tu=0 / rdoq-level=0 / dynamic-rd=0.00 / no-ssim-rd / signhide / no-tskip / nr-intra=0 / nr-inter=0 / no-constrained-intra / strong-intra-smoothing / max-merge=2 / limit-refs=3 / no-limit-modes / me=1 / subme=2 / merange=57 / temporal-mvp / weightp / no-weightb / no-analyze-src-pics / deblock=0:0 / no-sao / no-sao-non-deblock / rd=3 / no-early-skip / rskip / no-fast-intra / no-tskip-fast / no-cu-lossless / no-b-intra / no-splitrd-skip / rdpenalty=0 / psy-rd=2.00 / psy-rdoq=0.00 / no-rd-refine / no-lossless / cbqpoffs=0 / crqpoffs=0 / rc=crf / crf=16.0 / qcomp=0.60 / qpstep=4 / stats-write=0 / stats-read=0 / vbv-maxrate=160000 / vbv-bufsize=160000 / vbv-init=0.9 / crf-max=0.0 / crf-min=0.0 / ipratio=1.40 / pbratio=1.30 / aq-mode=1 / aq-strength=1.00 / cutree / zone-count=0 / no-strict-cbr / qg-size=32 / no-rc-grain / qpmax=69 / qpmin=0 / no-const-vbv / sar=1 / overscan=0 / videoformat=5 / range=0 / colorprim=2 / transfer=2 / colormatrix=2 / chromaloc=0 / display-window=0 / max-cll=0,0 / min-luma=0 / max-luma=1023 / log2-max-poc-lsb=8 / vui-timing-info / vui-hrd-info / slices=1 / opt-qp-pps / opt-ref-list-length-pps / no-multi-pass-opt-rps / scenecut-bias=0.05 / no-opt-cu-delta-qp / no-aq-motion / no-hdr / no-hdr-opt / no-dhdr10-opt / no-idr-recovery-sei / analysis-reuse-level=5 / scale-factor=0 / refine-intra=0 / refine-inter=0 / refine-mv=0 / refine-ctu-distortion=0 / no-limit-sao / ctu-info=0 / no-lowpass-dct / refine-analysis-type=0 / copy-pic=1 / max-ausize-factor=1.0 / no-dynamic-refine / no-single-sei / no-hevc-aq / qp-adaptation-range=1.00
  22. Language                                 : English
  23. Default                                  : Yes
  24. Forced                                   : No

  25. Audio #1
  26. ID                                       : 2
  27. Format                                   : DTS XLL X
  28. Format/Info                              : Digital Theater Systems
  29. Commercial name                          : DTS-HD Master Audio
  30. Codec ID                                 : A_DTS
  31. Duration                                 : 1 h 58 min
  32. Bit rate mode                            : Variable
  33. Bit rate                                 : 6 543 kb/s
  34. Channel(s)                               : 8 channels
  35. Channel(s)_Original                      : Object Based
  36. Channel layout                           : Object Based
  37. Sampling rate                            : 48.0 kHz
  38. Frame rate                               : 93.750 FPS (512 SPF)
  39. Bit depth                                : 24 bits
  40. Stream size                              : 5.42 GiB (18%)
  41. Title                                    : 47.Ronin.2013.2160p.BluRay.x265.10bit.SDR.DTS-X.7.1-SWTYBLZ
  42. Language                                 : English
  43. Default                                  : Yes
  44. Forced                                   : No

  45. Audio #2
  46. ID                                       : 3
  47. Format                                   : AC-3
  48. Format/Info                              : Audio Coding 3
  49. Commercial name                          : Dolby Digital
  50. Codec ID                                 : A_AC3
  51. Duration                                 : 1 h 58 min
  52. Bit rate mode                            : Constant
  53. Bit rate                                 : 640 kb/s
  54. Channel(s)                               : 6 channels
  55. Channel layout                           : L R C LFE Ls Rs
  56. Sampling rate                            : 48.0 kHz
  57. Frame rate                               : 31.250 FPS (1536 SPF)
  58. Bit depth                                : 16 bits
  59. Compression mode                         : Lossy
  60. Stream size                              : 543 MiB (2%)
  61. Title                                    : 47.Ronin.2013.2160p.BluRay.x265.10bit.SDR.DTS-X.7.1-SWTYBLZ
  62. Language                                 : English
  63. Service kind                             : Complete Main
  64. Default                                  : No
  65. Forced                                   : No

  66. Text #1
  67. ID                                       : 4
  68. Format                                   : UTF-8
  69. Codec ID                                 : S_TEXT/UTF8
  70. Codec ID/Info                            : UTF-8 Plain Text
  71. Duration                                 : 1 h 47 min
  72. Bit rate                                 : 24 b/s
  73. Count of elements                        : 621
  74. Stream size                              : 19.3 KiB (0%)
  75. Title                                    : English-SRT
  76. Language                                 : English
  77. Default                                  : Yes
  78. Forced                                   : No

  79. Text #2
  80. ID                                       : 5
  81. Format                                   : PGS
  82. Muxing mode                              : zlib
  83. Codec ID                                 : S_HDMV/PGS
  84. Codec ID/Info                            : Picture based subtitle format used on BDs/HD-DVDs
  85. Duration                                 : 1 h 47 min
  86. Bit rate                                 : 16.8 kb/s
  87. Count of elements                        : 1484
  88. Stream size                              : 13.0 MiB (0%)
  89. Title                                    : English-PGS
  90. Language                                 : English
  91. Default                                  : No
  92. Forced                                   : No

  93. Text #3
  94. ID                                       : 6
  95. Format                                   : PGS
  96. Muxing mode                              : zlib
  97. Codec ID                                 : S_HDMV/PGS
  98. Codec ID/Info                            : Picture based subtitle format used on BDs/HD-DVDs
  99. Duration                                 : 1 h 47 min
  100. Bit rate                                 : 16.5 kb/s
  101. Count of elements                        : 1336
  102. Stream size                              : 12.8 MiB (0%)
  103. Title                                    : French-PGS
  104. Language                                 : French
  105. Default                                  : No
  106. Forced                                   : No

  107. Text #4
  108. ID                                       : 7
  109. Format                                   : PGS
  110. Muxing mode                              : zlib
  111. Codec ID                                 : S_HDMV/PGS
  112. Codec ID/Info                            : Picture based subtitle format used on BDs/HD-DVDs
  113. Duration                                 : 1 h 47 min
  114. Bit rate                                 : 15.5 kb/s
  115. Count of elements                        : 1384
  116. Stream size                              : 12.0 MiB (0%)
  117. Title                                    : Spanish-PGS
  118. Language                                 : Spanish
  119. Default                                  : No
  120. Forced                                   : No

  121. Text #5
  122. ID                                       : 8
  123. Format                                   : PGS
  124. Muxing mode                              : zlib
  125. Codec ID                                 : S_HDMV/PGS
  126. Codec ID/Info                            : Picture based subtitle format used on BDs/HD-DVDs
  127. Duration                                 : 1 h 57 min
  128. Bit rate                                 : 13.9 kb/s
  129. Count of elements                        : 1390
  130. Stream size                              : 11.7 MiB (0%)
  131. Title                                    : Portuguese-PGS
  132. Language                                 : Portuguese
  133. Default                                  : No
  134. Forced                                   : No

  135. Text #6
  136. ID                                       : 9
  137. Format                                   : PGS
  138. Muxing mode                              : zlib
  139. Codec ID                                 : S_HDMV/PGS
  140. Codec ID/Info                            : Picture based subtitle format used on BDs/HD-DVDs
  141. Duration                                 : 1 h 57 min
  142. Bit rate                                 : 59 b/s
  143. Count of elements                        : 6
  144. Stream size                              : 51.4 KiB (0%)
  145. Title                                    : Portuguese-FORCED-PGS
  146. Language                                 : Portuguese
  147. Default                                  : No
  148. Forced                                   : No

  149. Menu
  150. 00:00:00.000                             : en:Chapter 01
  151. 00:04:27.517                             : en:Chapter 02
  152. 00:11:11.962                             : en:Chapter 03
  153. 00:16:27.778                             : en:Chapter 04
  154. 00:20:11.835                             : en:Chapter 05
  155. 00:26:52.319                             : en:Chapter 06
  156. 00:31:02.652                             : en:Chapter 07
  157. 00:36:10.626                             : en:Chapter 08
  158. 00:43:36.614                             : en:Chapter 09
  159. 00:50:14.511                             : en:Chapter 10
  160. 00:54:59.337                             : en:Chapter 11
  161. 00:59:54.007                             : en:Chapter 12
  162. 01:09:57.735                             : en:Chapter 13
  163. 01:13:59.017                             : en:Chapter 14
  164. 01:19:12.247                             : en:Chapter 15
  165. 01:24:17.385                             : en:Chapter 16
  166. 01:33:00.825                             : en:Chapter 17
  167. 01:38:55.554                             : en:Chapter 18
  168. 01:44:41.608                             : en:Chapter 19
  169. 01:48:38.303                             : en:Chapter 20
复制代码

四十七浪人/浪人四十七 47.Ronin.2013.2160p.BluRay.x265.10bit.SDR.DTS-X.7.1-SWTYBLZ 30.00GB-2.png 四十七浪人/浪人四十七 47.Ronin.2013.2160p.BluRay.x265.10bit.SDR.DTS-X.7.1-SWTYBLZ 30.00GB-3.png 四十七浪人/浪人四十七 47.Ronin.2013.2160p.BluRay.x265.10bit.SDR.DTS-X.7.1-SWTYBLZ 30.00GB-4.png 四十七浪人/浪人四十七 47.Ronin.2013.2160p.BluRay.x265.10bit.SDR.DTS-X.7.1-SWTYBLZ 30.00GB-5.png 四十七浪人/浪人四十七 47.Ronin.2013.2160p.BluRay.x265.10bit.SDR.DTS-X.7.1-SWTYBLZ 30.00GB-6.png 四十七浪人/浪人四十七 47.Ronin.2013.2160p.BluRay.x265.10bit.SDR.DTS-X.7.1-SWTYBLZ 30.00GB-7.png 四十七浪人/浪人四十七 47.Ronin.2013.2160p.BluRay.x265.10bit.SDR.DTS-X.7.1-SWTYBLZ 30.00GB-8.png 四十七浪人/浪人四十七 47.Ronin.2013.2160p.BluRay.x265.10bit.SDR.DTS-X.7.1-SWTYBLZ 30.00GB-9.png







回复

使用道具 举报

发表于 2020-5-4 17:47:07 | 显示全部楼层
楼主发贴辛苦了,谢谢楼主分享!我觉得蓝光电影网是注册对了!
回复 支持 反对

使用道具 举报

发表于 2020-5-4 18:30:16 | 显示全部楼层

其实我一直觉得楼主的品味不错!呵呵!蓝光电影网太棒了!
回复 支持 反对

使用道具 举报

发表于 2020-5-4 18:31:25 | 显示全部楼层
怎么下蓝光比
回复 支持 反对

使用道具 举报

发表于 2020-5-5 00:44:45 | 显示全部楼层

楼主太厉害了!楼主,电影应该很好看我觉得蓝光电影网真是个好地方!
回复 支持 反对

使用道具 举报

发表于 2020-5-5 22:53:37 | 显示全部楼层

这东西我收了!谢谢楼主!蓝光电影网真好!
回复 支持 反对

使用道具 举报

发表于 2020-5-8 00:16:31 | 显示全部楼层
楼主发贴辛苦了,谢谢楼主分享!我觉得蓝光电影网是注册对了!
回复 支持 反对

使用道具 举报

发表于 2020-5-15 12:53:04 | 显示全部楼层
谢谢分享!!!!!
回复

使用道具 举报

懒得打字嘛,点击右侧快捷回复 【右侧内容,后台自定义】
您需要登录后才可以回帖 登录 | 立即加入

本版积分规则

现在加入蓝光电影网,注册一个账号
上个主题 下个主题 快速回复 收藏帖子 返回列表 客服中心 搜索

手机版|小黑屋| 蓝光电影网 |网站地图 

Copyright © 2015-2019 Comsenz Inc.  Template by 蓝光电影论坛 All Rights Reserved.

Powered by 蓝光电影网 X3.4

特别声明:本站所有资源均由网上收集而来,版权归原影音公司所有,如果侵犯了你的权益,请通知我们,我们会及时删除侵权内容.

快速回复 返回顶部 返回列表