找回密码

蓝光电影网

查看: 3147|回复: 117

[剧情] 理查德·朱维尔的哀歌 Richard.Jewell.2019.1080p.BluRay.x264.DTS-HD.MA.5.1-FGT 10.42GB

  [复制链接]

 成长值: 25375

发表于 2020-3-7 23:43:45 | 显示全部楼层 |阅读模式
理查德·朱维尔的哀歌 Richard.Jewell.2019.1080p.BluRay.x264.DTS-HD.MA.5.1-FGT 10.42GB-1.png

译  名 理查德·朱维尔的哀歌 / American Nightmare / American Nightmare: The Ballad of Richard Jewell / The Ballad of Richard Jewell / 李察朱威尔事件(台) / 李察朱维尔:惊世疑案(港) / 理查德·朱厄尔 / 理查德·朱厄尔的悲歌 / 理查德·朱厄尔的歌谣 / 理查德·朱维尔的歌谣 / 理查德·杰威尔的歌谣 / 美国噩梦
片  名 Richard Jewell
年  代 2019
产  地 美国
类  别 剧情
语  言 英语
上映日期 2019-11-20(AFI Fest) / 2019-12-13(美国) / 2020-01-10(中国大陆)
IMDb评分  7.5/10 from 20522 users
IMDb链接  https://www.imdb.com/title/tt3513548
豆瓣评分 8.3/10 from 38246 users
豆瓣链接 https://movie.douban.com/subject/25842038/
片  长 131分钟
导  演 克林特·伊斯特伍德 Clint Eastwood
编  剧 玛丽·布伦纳 Marie Brenner / 比利·雷 Billy Ray
主  演 保罗·沃尔特·豪泽 Paul Walter Hauser
       山姆·洛克威尔 Sam Rockwell
       凯西·贝茨 Kathy Bates
       奥利维亚·王尔德 Olivia Wilde
       乔恩·哈姆 Jon Hamm
       妮娜·阿里安达 Nina Arianda
       伊恩·戈麦斯 Ian Gomez
       兰德尔·P·海文斯 Randall P. Havens
       韦恩·杜瓦尔 Wayne Duvall
       亚历克斯·柯林斯 Alex Collins
       迈克·普涅夫斯基 Mike Pniewski
       米切尔·霍格 Mitchell Hoog
       大卫·莫拉蒂 David Moretti
       比利·斯洛特 Billy Slaughter
       迪伦·库斯曼 Dylan Kussman
       肯德里克·克罗斯 Kendrick Cross
       施奎塔·詹姆斯 Shiquita James
       吉尔-米歇尔·梅里恩 Jill-Michele Melean
       大卫·安 David An
       查尔斯·格林 Charles Green
       大卫·伦格尔 David Lengel
       马洛里·霍夫 Mallory Hoff
       罗伯特·廷斯利 Robert Tinsley
       约翰·盖蒂尔 John Gettier
       本杰明·韦弗 Benjamin Weaver
       德克斯特·蒂利什 Dexter Tillis
       布兰登·斯坦利 Brandon Stanley
       瑞安·博兹 Ryan Boz


标  签 真实事件改编 | 美国 | 人性 | 剧情 | 传记 | 2019 | 犯罪 | 媒体

简  介  

  影片改编自真实事件,理查德·朱维尔作为1996年亚特兰大奥运会爆炸案中发现炸弹装置的保安,而被全世界所熟知。当时他迅速采取行动,拯救了无数生命而成为英雄。但在几天之内,情况就急转直下,梦想成为执法者的他遭受媒体和公众的诽谤,竟成为联邦调查局的头号嫌疑犯,陷入了前所未有的 困境。朱维尔向独立律师沃森·布莱恩特寻求帮助,坚定地宣称自己无罪。然而,在为朱维尔洗脱罪名的过程中,布莱恩特发现自己对抗的是联邦调查局、佐治亚州调查局和警方的联合阻力;与此同时,他也不断提醒理查德不要相信任何试图毁灭他的人……

获奖情况  

  第92届奥斯卡金像奖(2020)
  最佳女配角(提名) 凯西·贝茨

  第77届金球奖(2020)
  电影类 最佳女配角(提名) 凯西·贝茨

  第91届美国国家评论协会奖(2019)
  最佳女配角 凯西·贝茨
  最佳新人演员 保罗·沃尔特·豪泽
  年度佳片

  第20届美国电影学会奖(2019)
  年度佳片
  1. Video
  2. ID                                       : 1
  3. Format                                   : AVC
  4. Format/Info                              : Advanced Video Codec
  5. Format profile                           : High@L4
  6. Format settings                          : CABAC / 5 Ref Frames
  7. Format settings, CABAC                   : Yes
  8. Format settings, Reference frames        : 5 frames
  9. Codec ID                                 : V_MPEG4/ISO/AVC
  10. Duration                                 : 2 h 10 min
  11. Bit rate                                 : 9 249 kb/s
  12. Width                                    : 1 920 pixels
  13. Height                                   : 808 pixels
  14. Display aspect ratio                     : 2.40:1
  15. Frame rate mode                          : Constant
  16. Frame rate                               : 23.976 (24000/1001/189150) FPS
  17. Color space                              : YUV
  18. Chroma subsampling                       : 4:2:0
  19. Bit depth                                : 8 bits
  20. Scan type                                : Progressive
  21. Bits/(Pixel*Frame)                       : 0.249
  22. Stream size                              : 8.46 GiB (81%)
  23. Title                                    : Richard.Jewell.2019.1080p.BluRay.x264.DTS-HD.MA.5.1-FGT
  24. Writing library                          : x264 core 159 r2991 1771b55
  25. Encoding settings                        : cabac=1 / ref=5 / deblock=1:-3:-3 / analyse=0x3:0x133 / me=umh / subme=8 / psy=1 / psy_rd=1.00:0.00 / mixed_ref=1 / me_range=16 / chroma_me=1 / trellis=1 / 8x8dct=1 / cqm=0 / deadzone=21,11 / fast_pskip=0 / chroma_qp_offset=-2 / threads=25 / lookahead_threads=4 / sliced_threads=0 / nr=0 / decimate=1 / interlaced=0 / bluray_compat=0 / constrained_intra=0 / bframes=3 / b_pyramid=2 / b_adapt=1 / b_bias=0 / direct=3 / weightb=1 / open_gop=0 / weightp=2 / keyint=250 / keyint_min=23 / scenecut=40 / intra_refresh=0 / rc_lookahead=50 / rc=2pass / mbtree=1 / bitrate=9249 / ratetol=1.0 / qcomp=0.60 / qpmin=0 / qpmax=69 / qpstep=4 / cplxblur=20.0 / qblur=0.5 / vbv_maxrate=62500 / vbv_bufsize=78125 / nal_hrd=none / filler=0 / ip_ratio=1.40 / aq=1:1.00
  26. Language                                 : English
  27. Default                                  : Yes
  28. Forced                                   : No

  29. Audio
  30. ID                                       : 2
  31. Format                                   : DTS XLL
  32. Format/Info                              : Digital Theater Systems
  33. Commercial name                          : DTS-HD Master Audio
  34. Codec ID                                 : A_DTS
  35. Duration                                 : 2 h 10 min
  36. Bit rate mode                            : Variable
  37. Bit rate                                 : 2 130 kb/s
  38. Channel(s)                               : 6 channels
  39. Channel layout                           : C L R Ls Rs LFE
  40. Sampling rate                            : 48.0 kHz
  41. Frame rate                               : 93.750 FPS (512 SPF)
  42. Bit depth                                : 16 bits
  43. Compression mode                         : Lossless
  44. Stream size                              : 1.95 GiB (19%)
  45. Title                                    : Richard.Jewell.2019.1080p.BluRay.x264.DTS-HD.MA.5.1-FGT
  46. Language                                 : English
  47. Default                                  : Yes
  48. Forced                                   : No

  49. Text #1
  50. ID                                       : 3
  51. Format                                   : UTF-8
  52. Codec ID                                 : S_TEXT/UTF8
  53. Codec ID/Info                            : UTF-8 Plain Text
  54. Duration                                 : 2 h 3 min
  55. Bit rate                                 : 80 b/s
  56. Count of elements                        : 2433
  57. Stream size                              : 72.5 KiB (0%)
  58. Title                                    : English-SRT
  59. Language                                 : English
  60. Default                                  : Yes
  61. Forced                                   : No

  62. Text #2
  63. ID                                       : 4
  64. Format                                   : PGS
  65. Muxing mode                              : zlib
  66. Codec ID                                 : S_HDMV/PGS
  67. Codec ID/Info                            : Picture based subtitle format used on BDs/HD-DVDs
  68. Duration                                 : 2 h 3 min
  69. Bit rate                                 : 52.5 kb/s
  70. Count of elements                        : 4644
  71. Stream size                              : 46.4 MiB (0%)
  72. Title                                    : English-PGS
  73. Language                                 : English
  74. Default                                  : No
  75. Forced                                   : No

  76. Menu
  77. 00:00:00.000                             : en:00:00:00.000
  78. 00:09:51.633                             : en:00:09:51.633
  79. 00:20:03.619                             : en:00:20:03.619
  80. 00:29:55.127                             : en:00:29:55.127
  81. 00:40:03.192                             : en:00:40:03.192
  82. 00:48:21.065                             : en:00:48:21.065
  83. 00:57:52.552                             : en:00:57:52.552
  84. 01:06:35.575                             : en:01:06:35.575
  85. 01:14:34.303                             : en:01:14:34.303
  86. 01:24:33.402                             : en:01:24:33.402
  87. 01:34:04.097                             : en:01:34:04.097
  88. 01:44:01.360                             : en:01:44:01.360
  89. 01:52:20.192                             : en:01:52:20.192
  90. 02:02:28.550                             : en:02:02:28.550
  91. 02:04:53.361                             : en:02:04:53.361
复制代码

理查德·朱维尔的哀歌 Richard.Jewell.2019.1080p.BluRay.x264.DTS-HD.MA.5.1-FGT 10.42GB-2.png 理查德·朱维尔的哀歌 Richard.Jewell.2019.1080p.BluRay.x264.DTS-HD.MA.5.1-FGT 10.42GB-3.png 理查德·朱维尔的哀歌 Richard.Jewell.2019.1080p.BluRay.x264.DTS-HD.MA.5.1-FGT 10.42GB-4.png






回复

使用道具 举报

发表于 2020-3-8 00:14:27 | 显示全部楼层
谢谢分享!!
回复

使用道具 举报

发表于 2020-3-8 01:24:43 | 显示全部楼层

既然你诚信诚意的推荐了,那我就勉为其难的看看吧!蓝光电影网不走平凡路。
回复 支持 反对

使用道具 举报

发表于 2020-3-8 07:42:41 | 显示全部楼层
看介绍不错!
回复 支持 反对

使用道具 举报

发表于 2020-3-8 10:16:20 | 显示全部楼层

既然你诚信诚意的推荐了,那我就勉为其难的看看吧!蓝光电影网不走平凡路。
回复 支持 反对

使用道具 举报

发表于 2020-3-8 10:27:21 | 显示全部楼层
这剧情,看起心痛!
回复 支持 反对

使用道具 举报

发表于 2020-3-8 10:35:08 | 显示全部楼层
谢谢楼主分享
回复 支持 反对

使用道具 举报

发表于 2020-3-8 11:15:28 | 显示全部楼层
既然你诚信诚意的推荐了,那我就勉为其难的看看吧!蓝光电影网不走平凡路。
回复 支持 反对

使用道具 举报

发表于 2020-3-8 11:20:07 | 显示全部楼层
感谢楼主分享!
回复 支持 反对

使用道具 举报

发表于 2020-3-8 11:42:38 | 显示全部楼层
楼主发贴辛苦了,谢谢楼主分享!我觉得蓝光电影网是注册对了!
回复 支持 反对

使用道具 举报

懒得打字嘛,点击右侧快捷回复 【右侧内容,后台自定义】
您需要登录后才可以回帖 登录 | 立即加入

本版积分规则

现在加入蓝光电影网,注册一个账号
上个主题 下个主题 快速回复 收藏帖子 返回列表 客服中心 搜索

手机版|小黑屋| 蓝光电影网 |网站地图 

Copyright © 2015-2019 Comsenz Inc.  Template by 蓝光电影论坛 All Rights Reserved.

Powered by 蓝光电影网 X3.4

特别声明:本站所有资源均由网上收集而来,版权归原影音公司所有,如果侵犯了你的权益,请通知我们,我们会及时删除侵权内容.

快速回复 返回顶部 返回列表