找回密码

蓝光电影网

查看: 926|回复: 37

[10bit.HDR] 皇后与瘦子/奎恩与斯里姆 Queen.and.Slim.2019.2160p.UHD.BluRay.X265.10bit.HDR.TrueHD.7.1.Atmos-WhiteRhino 13.94GB

[复制链接]

 成长值: 25360

发表于 2020-3-1 23:07:30 | 显示全部楼层 |阅读模式
皇后与瘦子/奎恩与斯里姆 Queen.and.Slim.2019.2160p.UHD.BluRay.X265.10bit.HDR.TrueHD.7.1.Atmos-WhiteRhino 13.94GB-1.png

译  名 皇后与瘦子 / 奎恩与斯里姆
片  名 Queen & Slim
年  代 2019
产  地 加拿大 / 美国
类  别 剧情
语  言 英语
上映日期 2019-11-27(美国)
IMDb评分  7.0/10 from 8192 users
IMDb链接  https://www.imdb.com/title/tt8722346
豆瓣评分 6.9/10 from 996 users
豆瓣链接 https://movie.douban.com/subject/30279172/
片  长 132分钟
导  演 梅丽娜·马苏卡斯 Melina Matsoukas
编  剧 丽娜·维特 Lena Waithe / 詹姆斯·弗雷 James Frey
主  演 朱迪·特纳-史密斯 Jodie Turner-Smith
       丹尼尔·卡卢亚 Daniel Kaluuya
       茵蒂娅·摩尔 Indya Moore
       科洛·塞维尼 Chlo? Sevigny
       博基姆·伍德拜因 Bokeem Woodbine
       弗利 Flea
       斯特吉尔·辛普森 Sturgill Simpson
       本尼托·马丁内斯 Benito Martinez
       贾西·迪阿洛·温斯顿 Jahi Di'Allo Winston
       格拉伦·布莱恩特·班克斯 Gralen Bryant Banks
       梅兰妮·哈夫肯尼 Melanie Halfkenny
       凯伦·凯亚·利韦尔斯 Karen Kaia Livers
       罗伯特·沃克·布兰乔德 Robert Walker Branchaud
       安迪·迪伦 Andy Dylan
       索莱达·奥布莱恩 Soledad O'Brien
       盖尔·金 Gayle King
       罗曼·阿姆斯特朗 Roman Armstrong
       贾斯汀·贾木什 Justin Carmouche


标  签 美国 | 犯罪 | 黑人 | 公路 | 2019 | 剧情 | 社会 | 惊悚

简  介  

  丹尼尔·卡卢亚(《逃出绝命镇》《黑豹》)将主演环球新片《皇后与瘦子》(Queen & Slim),已定档2019年11月27日北美上映,明年1月开拍。该片是一部复杂的剧情片,讲述一对黑人男女“皇后”和“瘦子”第一次约会,开车被警察叫停。之后的发展跟《逃出绝命镇》就不一样了:两人因自我防卫杀死了那名警察,随后没有自首,而是一起亡命天涯。希望藉由这个爱情故事探索美国的社会和政治。女主角皇后正在选演员,计划用新面孔。
  《无为大师》《头号玩家》的丽娜·维斯编剧,她的《无为大师》导演搭档Melina Matsoukas执导,这也是后者首次导演电影。剧本是基于《百万碎片》作者、争议作家詹姆斯·弗雷写的一版剧本进行改编,新电影公司Makeready注资。

获奖情况  

  第72届美国导演工会奖(2020)
  最佳新人导演奖(提名) 梅丽娜·马苏卡斯

  第22届美国服装设计工会奖(2020)
  现代电影最佳服装设计(提名) Shiona Turini

  第91届美国国家评论协会奖(2019)
  最佳导演处女作 梅丽娜·马苏卡斯

  第23届美国在线影评人协会奖(2020)
  最佳新导演(提名) 梅丽娜·马苏卡斯
  1. Video
  2. ID                                       : 1
  3. Format                                   : HEVC
  4. Format/Info                              : High Efficiency Video Coding
  5. Format profile                           : Main High@L4@High
  6. HDR format                               : SMPTE ST 2086, HDR10 compatible
  7. Codec ID                                 : V_MPEGH/ISO/HEVC
  8. Duration                                 : 2 h 12 min
  9. Bit rate                                 : 10.9 Mb/s
  10. Width                                    : 3 840 pixels
  11. Height                                   : 1 608 pixels
  12. Display aspect ratio                     : 2.40:1
  13. Frame rate mode                          : Constant
  14. Frame rate                               : 23.976 (24000/1001) FPS
  15. Color space                              : YUV
  16. Chroma subsampling                       : 4:2:0 (Type 2)
  17. Bit depth                                : 10 bits
  18. Bits/(Pixel*Frame)                       : 0.073
  19. Stream size                              : 10.0 GiB (72%)
  20. Writing library                          : x265 3.3gbe2d82093:[Windows][GCC 10.0.1][64 bit] 10bit
  21. Encoding settings                        : cpuid=1111039 / frame-threads=5 / numa-pools=36 / wpp / no-pmode / no-pme / no-psnr / no-ssim / log-level=2 / input-csp=1 / input-res=3840x1608 / interlace=0 / total-frames=190445 / level-idc=51 / high-tier=1 / uhd-bd=0 / ref=4 / no-allow-non-conformance / repeat-headers / annexb / aud / hrd / info / hash=0 / no-temporal-layers / no-open-gop / min-keyint=1 / keyint=24 / gop-lookahead=0 / bframes=4 / b-adapt=2 / b-pyramid / bframe-bias=0 / rc-lookahead=25 / lookahead-slices=4 / scenecut=40 / hist-scenecut=0 / radl=0 / no-splice / no-intra-refresh / ctu=64 / min-cu-size=8 / rect / no-amp / max-tu-size=32 / tu-inter-depth=1 / tu-intra-depth=1 / limit-tu=0 / rdoq-level=2 / dynamic-rd=0.00 / no-ssim-rd / signhide / no-tskip / nr-intra=0 / nr-inter=0 / no-constrained-intra / no-strong-intra-smoothing / max-merge=3 / limit-refs=3 / limit-modes / me=3 / subme=3 / merange=57 / temporal-mvp / no-frame-dup / no-hme / weightp / no-weightb / no-analyze-src-pics / deblock=-3:-3 / no-sao / no-sao-non-deblock / rd=4 / selective-sao=0 / no-early-skip / rskip / no-fast-intra / no-tskip-fast / no-cu-lossless / no-b-intra / no-splitrd-skip / rdpenalty=0 / psy-rd=2.00 / psy-rdoq=1.00 / no-rd-refine / no-lossless / cbqpoffs=0 / crqpoffs=0 / rc=crf / crf=17.0 / qcomp=0.60 / qpstep=4 / stats-write=0 / stats-read=0 / vbv-maxrate=160000 / vbv-bufsize=160000 / vbv-init=0.9 / crf-max=0.0 / crf-min=0.0 / ipratio=1.40 / pbratio=1.30 / aq-mode=2 / aq-strength=1.00 / cutree / zone-count=0 / no-strict-cbr / qg-size=32 / no-rc-grain / qpmax=69 / qpmin=0 / no-const-vbv / sar=1 / overscan=0 / videoformat=5 / range=0 / colorprim=9 / transfer=16 / colormatrix=9 / chromaloc=1 / chromaloc-top=2 / chromaloc-bottom=2 / display-window=0 / master-display=G(13250,34500)B(7500,3000)R(34000,16000)WP(15635,16450)L(10000000,50) / cll=614,67 / min-luma=0 / max-luma=1023 / log2-max-poc-lsb=8 / vui-timing-info / vui-hrd-info / slices=1 / no-opt-qp-pps / no-opt-ref-list-length-pps / no-multi-pass-opt-rps / scenecut-bias=0.05 / hist-threshold=0.01 / no-opt-cu-delta-qp / no-aq-motion / hdr10 / hdr10-opt / no-dhdr10-opt / no-idr-recovery-sei / analysis-reuse-level=0 / analysis-save-reuse-level=0 / analysis-load-reuse-level=0 / scale-factor=0 / refine-intra=0 / refine-inter=0 / refine-mv=1 / refine-ctu-distortion=0 / no-limit-sao / ctu-info=0 / no-lowpass-dct / refine-analysis-type=0 / copy-pic=1 / max-ausize-factor=1.0 / no-dynamic-refine / no-single-sei / no-hevc-aq / no-svt / no-field / qp-adaptation-range=1.00 / no-scenecut-aware-qpconformance-window-offsets / right=0 / bottom=0
  22. Default                                  : Yes
  23. Forced                                   : No
  24. Color range                              : Limited
  25. Color primaries                          : BT.2020
  26. Transfer characteristics                 : PQ
  27. Matrix coefficients                      : BT.2020 non-constant
  28. Mastering display color primaries        : Display P3
  29. Mastering display luminance              : min: 0.0050 cd/m2, max: 1000 cd/m2
  30. Maximum Content Light Level              : 614 cd/m2
  31. Maximum Frame-Average Light Level        : 67 cd/m2

  32. Audio #1
  33. ID                                       : 2
  34. Format                                   : MLP FBA 16-ch
  35. Format/Info                              : Meridian Lossless Packing FBA with 16-channel presentation
  36. Commercial name                          : Dolby TrueHD with Dolby Atmos
  37. Codec ID                                 : A_TRUEHD
  38. Duration                                 : 2 h 12 min
  39. Bit rate mode                            : Variable
  40. Bit rate                                 : 3 466 kb/s
  41. Maximum bit rate                         : 6 375 kb/s
  42. Channel(s)                               : 8 channels
  43. Channel layout                           : L R C LFE Ls Rs Lb Rb
  44. Sampling rate                            : 48.0 kHz
  45. Frame rate                               : 1 200.000 FPS (40 SPF)
  46. Compression mode                         : Lossless
  47. Stream size                              : 3.21 GiB (23%)
  48. Language                                 : English
  49. Default                                  : Yes
  50. Forced                                   : No
  51. Number of dynamic objects                : 11
  52. Bed channel count                        : 1 channel
  53. Bed channel configuration                : LFE

  54. Audio #2
  55. ID                                       : 3
  56. Format                                   : AC-3
  57. Format/Info                              : Audio Coding 3
  58. Commercial name                          : Dolby Digital
  59. Codec ID                                 : A_AC3
  60. Duration                                 : 2 h 12 min
  61. Bit rate mode                            : Constant
  62. Bit rate                                 : 448 kb/s
  63. Channel(s)                               : 6 channels
  64. Channel layout                           : L R C LFE Ls Rs
  65. Sampling rate                            : 48.0 kHz
  66. Frame rate                               : 31.250 FPS (1536 SPF)
  67. Compression mode                         : Lossy
  68. Stream size                              : 424 MiB (3%)
  69. Language                                 : English
  70. Service kind                             : Complete Main
  71. Default                                  : No
  72. Forced                                   : No

  73. Audio #3
  74. ID                                       : 4
  75. Format                                   : AC-3
  76. Format/Info                              : Audio Coding 3
  77. Commercial name                          : Dolby Digital
  78. Codec ID                                 : A_AC3
  79. Duration                                 : 2 h 12 min
  80. Bit rate mode                            : Constant
  81. Bit rate                                 : 192 kb/s
  82. Channel(s)                               : 2 channels
  83. Channel layout                           : L R
  84. Sampling rate                            : 48.0 kHz
  85. Frame rate                               : 31.250 FPS (1536 SPF)
  86. Compression mode                         : Lossy
  87. Stream size                              : 182 MiB (1%)
  88. Title                                    : Commentary with director producer Melina Matsoukas and writer prroducer Lena Waithe
  89. Language                                 : English
  90. Service kind                             : Complete Main
  91. Default                                  : No
  92. Forced                                   : No

  93. Text #1
  94. ID                                       : 5
  95. Format                                   : PGS
  96. Muxing mode                              : zlib
  97. Codec ID                                 : S_HDMV/PGS
  98. Codec ID/Info                            : Picture based subtitle format used on BDs/HD-DVDs
  99. Duration                                 : 2 h 10 min
  100. Bit rate                                 : 40.0 kb/s
  101. Count of elements                        : 3660
  102. Stream size                              : 37.4 MiB (0%)
  103. Language                                 : English
  104. Default                                  : No
  105. Forced                                   : No

  106. Text #2
  107. ID                                       : 6
  108. Format                                   : PGS
  109. Muxing mode                              : zlib
  110. Codec ID                                 : S_HDMV/PGS
  111. Codec ID/Info                            : Picture based subtitle format used on BDs/HD-DVDs
  112. Duration                                 : 2 h 11 min
  113. Bit rate                                 : 27.3 kb/s
  114. Count of elements                        : 2790
  115. Stream size                              : 25.6 MiB (0%)
  116. Language                                 : Spanish
  117. Default                                  : No
  118. Forced                                   : No

  119. Text #3
  120. ID                                       : 7
  121. Format                                   : PGS
  122. Muxing mode                              : zlib
  123. Codec ID                                 : S_HDMV/PGS
  124. Codec ID/Info                            : Picture based subtitle format used on BDs/HD-DVDs
  125. Duration                                 : 2 h 6 min
  126. Bit rate                                 : 272 b/s
  127. Count of elements                        : 26
  128. Stream size                              : 253 KiB (0%)
  129. Language                                 : Spanish
  130. Default                                  : No
  131. Forced                                   : No

  132. Menu
  133. 00:00:00.000                             : en:Chapter 01
  134. 00:05:46.763                             : en:Chapter 02
  135. 00:14:20.109                             : en:Chapter 03
  136. 00:18:58.637                             : en:Chapter 04
  137. 00:24:56.662                             : en:Chapter 05
  138. 00:31:21.880                             : en:Chapter 06
  139. 00:36:06.039                             : en:Chapter 07
  140. 00:41:30.822                             : en:Chapter 08
  141. 00:50:09.924                             : en:Chapter 09
  142. 00:58:42.102                             : en:Chapter 10
  143. 01:05:56.703                             : en:Chapter 11
  144. 01:11:14.520                             : en:Chapter 12
  145. 01:16:44.725                             : en:Chapter 13
  146. 01:23:59.826                             : en:Chapter 14
  147. 01:28:45.612                             : en:Chapter 15
  148. 01:34:28.830                             : en:Chapter 16
  149. 01:42:10.291                             : en:Chapter 17
  150. 01:50:00.469                             : en:Chapter 18
  151. 01:56:02.247                             : en:Chapter 19
  152. 02:04:41.140                             : en:Chapter 20
复制代码

皇后与瘦子/奎恩与斯里姆 Queen.and.Slim.2019.2160p.UHD.BluRay.X265.10bit.HDR.TrueHD.7.1.Atmos-WhiteRhino 13.94GB-2.png 皇后与瘦子/奎恩与斯里姆 Queen.and.Slim.2019.2160p.UHD.BluRay.X265.10bit.HDR.TrueHD.7.1.Atmos-WhiteRhino 13.94GB-3.png 皇后与瘦子/奎恩与斯里姆 Queen.and.Slim.2019.2160p.UHD.BluRay.X265.10bit.HDR.TrueHD.7.1.Atmos-WhiteRhino 13.94GB-4.png






回复

使用道具 举报

发表于 2020-3-1 23:47:27 | 显示全部楼层
楼主发贴辛苦了,谢谢楼主分享!我觉得蓝光电影网是注册对了!
回复 支持 反对

使用道具 举报

发表于 2020-3-2 00:25:41 | 显示全部楼层

这东西我收了!谢谢楼主!蓝光电影网真好!
回复 支持 反对

使用道具 举报

发表于 2020-3-2 06:33:01 | 显示全部楼层
楼主发贴辛苦了,谢谢楼主分享!我觉得蓝光电影网是注册对了!
回复 支持 反对

使用道具 举报

发表于 2020-3-2 08:38:45 | 显示全部楼层

这个帖子不回对不起自己!我想我是一天也不能离开蓝光电影网
回复 支持 反对

使用道具 举报

发表于 2020-3-2 11:10:03 | 显示全部楼层

这东西我收了!谢谢楼主!蓝光电影网真好!
回复 支持 反对

使用道具 举报

发表于 2020-3-2 11:56:46 | 显示全部楼层
楼主发贴辛苦了,谢谢楼主分享!我觉得蓝光电影网是注册对了!
回复 支持 反对

使用道具 举报

发表于 2020-3-2 12:08:06 | 显示全部楼层

这东西我收了!谢谢楼主!
回复 支持 反对

使用道具 举报

发表于 2020-3-2 13:15:56 | 显示全部楼层
感谢楼主
回复

使用道具 举报

发表于 2020-3-2 13:39:08 | 显示全部楼层
这东西我收了!谢谢楼主!蓝光电影网真好!
回复 支持 反对

使用道具 举报

懒得打字嘛,点击右侧快捷回复 【右侧内容,后台自定义】
您需要登录后才可以回帖 登录 | 立即加入

本版积分规则

现在加入蓝光电影网,注册一个账号
上个主题 下个主题 快速回复 收藏帖子 返回列表 客服中心 搜索

手机版|小黑屋| 蓝光电影网 |网站地图 

Copyright © 2015-2019 Comsenz Inc.  Template by 蓝光电影论坛 All Rights Reserved.

Powered by 蓝光电影网 X3.4

特别声明:本站所有资源均由网上收集而来,版权归原影音公司所有,如果侵犯了你的权益,请通知我们,我们会及时删除侵权内容.

快速回复 返回顶部 返回列表