找回密码

蓝光电影网

查看: 387|回复: 7

[10bit.HDR] 机器人总动员 WALL-E.2008.2160p.UHD.BluRay.X265.10bit.HDR.TrueHD.7.1.Atmos-AViATOR 9.40GB

[复制链接]

 成长值: 25360

发表于 2020-2-26 23:17:23 | 显示全部楼层 |阅读模式
机器人总动员 WALL-E.2008.2160p.UHD.BluRay.X265.10bit.HDR.TrueHD.7.1.Atmos-AViATOR 9.40GB-1.png

译  名 机器人总动员 / walle / 地球废品分装员 / 太空奇兵·威E(港) / 星际总动员 / 机器人瓦力 / 瓦力(台)
片  名 WALL·E
年  代 2008
产  地 美国
类  别 科幻 / 动画 / 冒险
语  言 英语
上映日期 2008-06-27(美国)
IMDb评分  8.4/10 from 945831 users
IMDb链接  https://www.imdb.com/title/tt0910970
豆瓣评分 9.3/10 from 912055 users
豆瓣链接 https://movie.douban.com/subject/2131459/
片  长 98分钟
导  演 安德鲁·斯坦顿 Andrew Stanton
编  剧 安德鲁·斯坦顿 Andrew Stanton / 吉姆·里尔顿 Jim Reardon / 彼特·道格特 Pete Docter
主  演 本·贝尔特 Ben Burtt
       艾丽莎·奈特 Elissa Knight
       杰夫·格尔林 Jeff Garlin
       佛莱德·威拉特 Fred Willard
       西格妮·韦弗 Sigourney Weaver
       MacInTalk
       约翰·拉岑贝格 John Ratzenberger
       凯茜·纳基麦 Kathy Najimy
       泰迪·牛顿 Teddy Newton
       鲍伯·伯根 Bob Bergen
       洛丽·理查德森 Lori Richardson
       吉姆·瓦德 Jim Ward
       彼特·道格特 Pete Docter
       安德鲁·斯坦顿 Andrew Stanton
       杰夫·皮金  Jeff Pidgeon
       约翰·齐甘 John Cygan
       米凯·麦高万 Mickie McGowan
       雪莉·琳恩 Sherry Lynn
       克莱特·惠特克 Colette Whitaker
       唐纳德·富利洛夫 Donald Fullilove
       罗里·艾伦 Lori Alan
       杰斯·哈梅尔 Jess Harnell
       拉瑞恩·纽曼 Laraine Newman
       扬·拉布森 Jan Rabson
       保罗·伊丁 Paul Eiding


标  签 动画 | 科幻 | 感人 | 美国 | 皮克斯 | 爱情 | 环保 | 迪斯尼

简  介  

  公元2805年,人类文明高度发展,却因污染和生活垃圾大量增加使得地球不再适于人类居住。地球人被迫乘坐飞船离开故乡,进行一次漫长无边的宇宙之旅。临行前他们委托Buynlarge的公司对地球垃圾进行清理,该公司开发了名为WALL·E(Waste Allocation Loa d Lifters – Earth 地球废品分装员)的机器人担当此重任。
  这些机器人按照程序日复一日、年复一年辛勤工作,但随着时间的流逝和恶劣环境的侵蚀,WALL·E们接连损坏、停止运动。最后只有一个仍在进行这项似乎永无止境的工作。经历了漫长的岁月,它开始拥有了自己的意识。它喜欢将收集来的宝贝小心翼翼藏起,喜欢收工后看看几百年前的歌舞片,此外还有一只蟑螂朋友作伴。直到有一天,一艘来自宇宙的飞船打破了它一成不变的生活……
  本片荣获2009年第81届奥斯卡最佳动画长片奖。

获奖情况  

  第81届奥斯卡金像奖(2009)
  最佳原创剧本(提名) 彼特·道格特 / 安德鲁·斯坦顿 / 吉姆·里尔顿
  最佳动画长片 安德鲁·斯坦顿
  最佳混音(提名) 本·贝尔特 / Tom Myers / 迈克尔·斯曼内科
  最佳音效剪辑(提名) 本·贝尔特 / 马修·伍德
  最佳原创配乐(提名) 托马斯·纽曼
  最佳原创歌曲(提名) 彼特·加布埃尔 / 托马斯·纽曼

  第66届金球奖(2009)
  电影类 最佳动画长片
  电影类 最佳原创歌曲(提名) 彼特·加布埃尔 / 托马斯·纽曼

  第36届动画安妮奖(2009)
  最佳动画长片(提名)
  最佳导演(提名) 安德鲁·斯坦顿
  最佳配音(提名) 本·贝尔特
  最佳分镜(提名) 罗纳尔多·德尔·卡门
  最佳艺术指导(提名) 拉夫·埃格尔斯顿
  最佳动画角色(提名) Victor Navone
  最佳动画效果(提名) Enrique Vila

  第9届美国电影学会奖(2008)
  年度佳片
  1. Video
  2. ID                                       : 1
  3. Format                                   : HEVC
  4. Format/Info                              : High Efficiency Video Coding
  5. Format profile                           : Main High@L4@High
  6. HDR format                               : SMPTE ST 2086, HDR10 compatible
  7. Codec ID                                 : V_MPEGH/ISO/HEVC
  8. Duration                                 : 1 h 38 min
  9. Bit rate                                 : 5 563 kb/s
  10. Width                                    : 3 840 pixels
  11. Height                                   : 1 606 pixels
  12. Display aspect ratio                     : 2.40:1
  13. Frame rate mode                          : Constant
  14. Frame rate                               : 23.976 (24000/1001) FPS
  15. Color space                              : YUV
  16. Chroma subsampling                       : 4:2:0 (Type 2)
  17. Bit depth                                : 10 bits
  18. Bits/(Pixel*Frame)                       : 0.038
  19. Stream size                              : 3.82 GiB (41%)
  20. Writing library                          : x265 3.330eb4de83092:[Windows][GCC 6.3.0][64 bit] 10bit
  21. Encoding settings                        : cpuid=1111039 / frame-threads=4 / numa-pools=20 / wpp / no-pmode / no-pme / no-psnr / no-ssim / log-level=2 / input-csp=1 / input-res=3840x1606 / interlace=0 / total-frames=141281 / level-idc=51 / high-tier=1 / uhd-bd=0 / ref=4 / no-allow-non-conformance / repeat-headers / annexb / aud / hrd / info / hash=0 / no-temporal-layers / no-open-gop / min-keyint=1 / keyint=24 / gop-lookahead=0 / bframes=4 / b-adapt=2 / b-pyramid / bframe-bias=0 / rc-lookahead=25 / lookahead-slices=4 / scenecut=40 / hist-scenecut=0 / radl=0 / no-splice / no-intra-refresh / ctu=64 / min-cu-size=8 / rect / no-amp / max-tu-size=32 / tu-inter-depth=1 / tu-intra-depth=1 / limit-tu=0 / rdoq-level=2 / dynamic-rd=0.00 / no-ssim-rd / signhide / no-tskip / nr-intra=0 / nr-inter=0 / no-constrained-intra / no-strong-intra-smoothing / max-merge=3 / limit-refs=3 / limit-modes / me=3 / subme=3 / merange=57 / temporal-mvp / no-frame-dup / no-hme / weightp / no-weightb / no-analyze-src-pics / deblock=-3:-3 / no-sao / no-sao-non-deblock / rd=4 / selective-sao=0 / no-early-skip / rskip / no-fast-intra / no-tskip-fast / no-cu-lossless / no-b-intra / no-splitrd-skip / rdpenalty=0 / psy-rd=2.00 / psy-rdoq=1.00 / no-rd-refine / no-lossless / cbqpoffs=0 / crqpoffs=0 / rc=crf / crf=17.0 / qcomp=0.60 / qpstep=4 / stats-write=0 / stats-read=0 / vbv-maxrate=160000 / vbv-bufsize=160000 / vbv-init=0.9 / crf-max=0.0 / crf-min=0.0 / ipratio=1.40 / pbratio=1.30 / aq-mode=1 / aq-strength=1.00 / cutree / zone-count=0 / no-strict-cbr / qg-size=32 / no-rc-grain / qpmax=69 / qpmin=0 / no-const-vbv / sar=1 / overscan=0 / videoformat=5 / range=0 / colorprim=9 / transfer=16 / colormatrix=9 / chromaloc=1 / chromaloc-top=2 / chromaloc-bottom=2 / display-window=0 / master-display=G(13250,34500)B(7500,3000)R(34000,16000)WP(15635,16450)L(10000000,0) / cll=0,0 / min-luma=0 / max-luma=1023 / log2-max-poc-lsb=8 / vui-timing-info / vui-hrd-info / slices=1 / no-opt-qp-pps / no-opt-ref-list-length-pps / no-multi-pass-opt-rps / scenecut-bias=0.05 / hist-threshold=0.01 / no-opt-cu-delta-qp / no-aq-motion / hdr10 / hdr10-opt / no-dhdr10-opt / no-idr-recovery-sei / analysis-reuse-level=0 / analysis-save-reuse-level=0 / analysis-load-reuse-level=0 / scale-factor=0 / refine-intra=0 / refine-inter=0 / refine-mv=1 / refine-ctu-distortion=0 / no-limit-sao / ctu-info=0 / no-lowpass-dct / refine-analysis-type=0 / copy-pic=1 / max-ausize-factor=1.0 / no-dynamic-refine / no-single-sei / no-hevc-aq / no-svt / no-field / qp-adaptation-range=1.00 / no-scenecut-aware-qpconformance-window-offsets / right=0 / bottom=0
  22. Default                                  : Yes
  23. Forced                                   : No
  24. Color range                              : Limited
  25. Color primaries                          : BT.2020
  26. Transfer characteristics                 : PQ
  27. Matrix coefficients                      : BT.2020 non-constant
  28. Mastering display color primaries        : Display P3
  29. Mastering display luminance              : min: 0.0000 cd/m2, max: 1000 cd/m2

  30. Audio #1
  31. ID                                       : 2
  32. Format                                   : MLP FBA 16-ch
  33. Format/Info                              : Meridian Lossless Packing FBA with 16-channel presentation
  34. Commercial name                          : Dolby TrueHD with Dolby Atmos
  35. Codec ID                                 : A_TRUEHD
  36. Duration                                 : 1 h 38 min
  37. Bit rate mode                            : Variable
  38. Bit rate                                 : 7 244 kb/s
  39. Maximum bit rate                         : 8 217 kb/s
  40. Channel(s)                               : 8 channels
  41. Channel layout                           : L R C LFE Ls Rs Lb Rb
  42. Sampling rate                            : 48.0 kHz
  43. Frame rate                               : 1 200.000 FPS (40 SPF)
  44. Compression mode                         : Lossless
  45. Stream size                              : 4.97 GiB (54%)
  46. Language                                 : English
  47. Default                                  : Yes
  48. Forced                                   : No
  49. Number of dynamic objects                : 13
  50. Bed channel count                        : 1 channel
  51. Bed channel configuration                : LFE

  52. Audio #2
  53. ID                                       : 3
  54. Format                                   : AC-3
  55. Format/Info                              : Audio Coding 3
  56. Commercial name                          : Dolby Digital
  57. Codec ID                                 : A_AC3
  58. Duration                                 : 1 h 38 min
  59. Bit rate mode                            : Constant
  60. Bit rate                                 : 640 kb/s
  61. Channel(s)                               : 6 channels
  62. Channel layout                           : L R C LFE Ls Rs
  63. Sampling rate                            : 48.0 kHz
  64. Frame rate                               : 31.250 FPS (1536 SPF)
  65. Compression mode                         : Lossy
  66. Stream size                              : 450 MiB (5%)
  67. Language                                 : English
  68. Service kind                             : Complete Main
  69. Default                                  : No
  70. Forced                                   : No

  71. Text #1
  72. ID                                       : 4
  73. Format                                   : PGS
  74. Muxing mode                              : zlib
  75. Codec ID                                 : S_HDMV/PGS
  76. Codec ID/Info                            : Picture based subtitle format used on BDs/HD-DVDs
  77. Duration                                 : 1 h 37 min
  78. Bit rate                                 : 29.0 kb/s
  79. Count of elements                        : 2726
  80. Stream size                              : 20.2 MiB (0%)
  81. Title                                    : SDH
  82. Language                                 : English
  83. Default                                  : No
  84. Forced                                   : No

  85. Text #2
  86. ID                                       : 5
  87. Format                                   : PGS
  88. Muxing mode                              : zlib
  89. Codec ID                                 : S_HDMV/PGS
  90. Codec ID/Info                            : Picture based subtitle format used on BDs/HD-DVDs
  91. Duration                                 : 1 h 37 min
  92. Bit rate                                 : 11.9 kb/s
  93. Count of elements                        : 994
  94. Stream size                              : 8.28 MiB (0%)
  95. Language                                 : French
  96. Default                                  : No
  97. Forced                                   : No

  98. Text #3
  99. ID                                       : 6
  100. Format                                   : PGS
  101. Muxing mode                              : zlib
  102. Codec ID                                 : S_HDMV/PGS
  103. Codec ID/Info                            : Picture based subtitle format used on BDs/HD-DVDs
  104. Duration                                 : 1 h 37 min
  105. Bit rate                                 : 11.8 kb/s
  106. Count of elements                        : 1044
  107. Stream size                              : 8.24 MiB (0%)
  108. Language                                 : Spanish
  109. Default                                  : No
  110. Forced                                   : No
复制代码

机器人总动员 WALL-E.2008.2160p.UHD.BluRay.X265.10bit.HDR.TrueHD.7.1.Atmos-AViATOR 9.40GB-2.png 机器人总动员 WALL-E.2008.2160p.UHD.BluRay.X265.10bit.HDR.TrueHD.7.1.Atmos-AViATOR 9.40GB-3.png 机器人总动员 WALL-E.2008.2160p.UHD.BluRay.X265.10bit.HDR.TrueHD.7.1.Atmos-AViATOR 9.40GB-4.png






回复

使用道具 举报

发表于 2020-2-27 00:07:49 | 显示全部楼层

楼主太厉害了!楼主,电影应该很好看我觉得蓝光电影网真是个好地方!
回复 支持 反对

使用道具 举报

发表于 2020-2-27 10:01:34 | 显示全部楼层
哇哇哇!!!!!感谢分享
回复 支持 反对

使用道具 举报

发表于 2020-2-27 10:22:21 | 显示全部楼层
我去,音频文件比视频文件还大,难怪画面看着雾蒙蒙的。
回复 支持 反对

使用道具 举报

发表于 2020-2-27 13:23:41 | 显示全部楼层

这个帖子不回对不起自己!我想我是一天也不能离开蓝光电影网
回复 支持 反对

使用道具 举报

发表于 2020-2-27 14:19:37 | 显示全部楼层

我看不错噢 谢谢楼主!蓝光电影网越来越好!
回复 支持 反对

使用道具 举报

发表于 2020-3-3 14:35:22 | 显示全部楼层

楼主太厉害了!楼主,电影应该很好看我觉得蓝光电影网真是个好地方!
回复 支持 反对

使用道具 举报

发表于 2020-3-21 13:22:19 | 显示全部楼层

楼主太厉害了!楼主,电影应该很好看我觉得蓝光电影网真是个好地方!
回复 支持 反对

使用道具 举报

懒得打字嘛,点击右侧快捷回复 【右侧内容,后台自定义】
您需要登录后才可以回帖 登录 | 立即加入

本版积分规则

现在加入蓝光电影网,注册一个账号
上个主题 下个主题 快速回复 收藏帖子 返回列表 客服中心 搜索

手机版|小黑屋| 蓝光电影网 |网站地图 

Copyright © 2015-2019 Comsenz Inc.  Template by 蓝光电影论坛 All Rights Reserved.

Powered by 蓝光电影网 X3.4

特别声明:本站所有资源均由网上收集而来,版权归原影音公司所有,如果侵犯了你的权益,请通知我们,我们会及时删除侵权内容.

快速回复 返回顶部 返回列表