找回密码

蓝光电影网

查看: 648|回复: 6

[2160p-WEB] 虫虫危机/虫虫特工队 A.Bugs.Life.1998.iNTERNAL.HDR.2160p.WEB.H265-WATCHER 11.18GB

[复制链接]

 成长值: 25285

发表于 2020-2-23 23:56:46 | 显示全部楼层 |阅读模式
虫虫危机/虫虫特工队 A.Bugs.Life.1998.iNTERNAL.HDR.2160p.WEB.H265-WATCHER 11.18GB-1.png

译  名 虫虫危机 / 虫虫特工队
片  名 A Bug's Life
年  代 1998
产  地 美国
类  别 喜剧 / 动画 / 冒险
语  言 英语
上映日期 1998-11-25(美国)
IMDb评分  7.2/10 from 254815 users
IMDb链接  https://www.imdb.com/title/tt0120623
豆瓣评分 7.9/10 from 73997 users
豆瓣链接 https://movie.douban.com/subject/1291573/
片  长 95 分钟
导  演 约翰·拉塞特 John Lasseter / 安德鲁·斯坦顿 Andrew Stanton
编  剧 安德鲁·斯坦顿 Andrew Stanton / Don McEnery / Bob Shaw
主  演 Dave Foley
       凯文·史派西 Kevin Spacey
       茱莉亚·路易斯-德瑞弗斯 Julia Louis-Dreyfus
       海顿·潘妮蒂尔 Hayden Panettiere


标  签 动画 | 美国 | 迪斯尼 | pixar | 动画片 | DISNEY | 美国电影 | 1998

简  介  

  菲力在蚂蚁王国里并不怎么受欢迎,尽管他发明了先进的收割机,然而阴差阳错,他竟然惹了大祸,公主妹妹小不点因此被蝗虫敌人捉去,而且蚂蚁的粮食也受到了蝗虫的威胁。即使菲力救出了小不点,但还是被赶出蚂蚁王国。只有他在外面的世界找到了对付蝗虫的办法,才有可能回到家园。
  菲力在城市中遇到了马戏团的一队昆虫。爬虫、蝴蝶、瓢虫、臭虫,他们都似乎身怀绝技,令菲力十分兴奋,于是菲力把他们请回蚂蚁王国对付蝗虫。一场恶战即将开始,昆虫们愈战愈勇,和菲力一同投入到斗争中。智勇双全的菲力也终于回到了蚂蚁王国中,受到大伙儿的赞赏。

获奖情况  

  第71届奥斯卡金像奖(1999)
  音乐/喜剧片最佳原创配乐(提名) 兰迪·纽曼

  第53届英国电影学院奖(2000)
  电影奖 最佳特殊视觉效果(提名) Eben Ostby / Bill Reeves / Rick Sayre / Sharon Calahan

  第27届动画安妮奖(1999)
  最佳动画长片(提名)
  最佳导演(提名) 安德鲁·斯坦顿 / 约翰·拉塞特
  最佳编剧(提名) 唐·麦肯内里 / 安德鲁·斯坦顿 / Bob Shaw / 约翰·拉塞特 / 乔·兰福特
  最佳艺术指导(提名) William Cone
  1. Video
  2. ID                                       : 1
  3. Format                                   : HEVC
  4. Format/Info                              : High Efficiency Video Coding
  5. Format profile                           : Main High@L4@High
  6. Codec ID                                 : V_MPEGH/ISO/HEVC
  7. Duration                                 : 1 h 37 min
  8. Bit rate                                 : 15.9 Mb/s
  9. Width                                    : 3 840 pixels
  10. Height                                   : 2 160 pixels
  11. Display aspect ratio                     : 16:9
  12. Frame rate mode                          : Constant
  13. Frame rate                               : 23.976 (24000/1001) FPS
  14. Color space                              : YUV
  15. Chroma subsampling                       : 4:2:0
  16. Bit depth                                : 10 bits
  17. Bits/(Pixel*Frame)                       : 0.080
  18. Stream size                              : 10.9 GiB (98%)
  19. Default                                  : Yes
  20. Forced                                   : No
  21. Color range                              : Limited
  22. Color primaries                          : BT.2020
  23. Transfer characteristics                 : PQ
  24. Matrix coefficients                      : BT.2020 non-constant

  25. Audio
  26. ID                                       : 2
  27. Format                                   : E-AC-3
  28. Format/Info                              : Enhanced AC-3
  29. Commercial name                          : Dolby Digital Plus
  30. Codec ID                                 : A_EAC3
  31. Duration                                 : 1 h 37 min
  32. Bit rate mode                            : Constant
  33. Bit rate                                 : 256 kb/s
  34. Channel(s)                               : 6 channels
  35. Channel layout                           : L R C LFE Ls Rs
  36. Sampling rate                            : 48.0 kHz
  37. Frame rate                               : 31.250 FPS (1536 SPF)
  38. Compression mode                         : Lossy
  39. Stream size                              : 179 MiB (2%)
  40. Title                                    : English
  41. Language                                 : English
  42. Service kind                             : Complete Main
  43. Default                                  : Yes
  44. Forced                                   : No
复制代码

虫虫危机/虫虫特工队 A.Bugs.Life.1998.iNTERNAL.HDR.2160p.WEB.H265-WATCHER 11.18GB-2.png 虫虫危机/虫虫特工队 A.Bugs.Life.1998.iNTERNAL.HDR.2160p.WEB.H265-WATCHER 11.18GB-3.png 虫虫危机/虫虫特工队 A.Bugs.Life.1998.iNTERNAL.HDR.2160p.WEB.H265-WATCHER 11.18GB-4.png






回复

使用道具 举报

 成长值: 760

发表于 2020-2-25 08:52:47 | 显示全部楼层

这个帖子不回对不起自己!我想我是一天也不能离开蓝光电影网
回复 支持 反对

使用道具 举报

发表于 2020-2-25 13:37:52 | 显示全部楼层
楼主发贴辛苦了,谢谢楼主分享!我觉得蓝光电影网是注册对了!
回复 支持 反对

使用道具 举报

发表于 2020-2-25 13:42:41 | 显示全部楼层

楼主太厉害了!楼主,电影应该很好看我觉得蓝光电影网真是个好地方!
回复 支持 反对

使用道具 举报

发表于 2020-2-25 22:05:32 | 显示全部楼层

这东西我收了!谢谢楼主!蓝光电影网真好!
回复 支持 反对

使用道具 举报

发表于 2020-2-28 01:27:11 | 显示全部楼层
感谢分享
回复

使用道具 举报

发表于 2020-3-26 22:05:40 | 显示全部楼层
谢谢楼主分享
回复 支持 反对

使用道具 举报

懒得打字嘛,点击右侧快捷回复 【右侧内容,后台自定义】
您需要登录后才可以回帖 登录 | 立即加入

本版积分规则

现在加入蓝光电影网,注册一个账号
上个主题 下个主题 快速回复 收藏帖子 返回列表 客服中心 搜索

手机版|小黑屋| 蓝光电影网 |网站地图 

Copyright © 2015-2019 Comsenz Inc.  Template by 蓝光电影论坛 All Rights Reserved.

Powered by 蓝光电影网 X3.4

特别声明:本站所有资源均由网上收集而来,版权归原影音公司所有,如果侵犯了你的权益,请通知我们,我们会及时删除侵权内容.

快速回复 返回顶部 返回列表