找回密码

蓝光电影网

查看: 432|回复: 8

沉睡魔咒2 Maleficent.Mistress.of.Evil.2019.1080p.3D.BluRay.Half-SBS.x264.DTS-HD.MA.7.1-FGT 18.80GB

[复制链接]

 成长值: 26200

发表于 2020-2-14 18:58:40 | 显示全部楼层 |阅读模式
沉睡魔咒2 Maleficent.Mistress.of.Evil.2019.1080p.3D.BluRay.Half-SBS.x264.DTS-HD.MA.7.1-FGT 18.80GB-1.png

译  名 沉睡魔咒2 / Maleficent 2 / 沉睡魔咒2:恶魔夫人 / 玛琳菲森2 / 黑魔后2(港) / 黑魔女2(台)
片  名 Maleficent: Mistress of Evil
年  代 2019
产  地 美国 / 英国
类  别 奇幻 / 冒险
语  言 英语
上映日期 2019-10-18(美国/中国大陆)
IMDb评分  6.7/10 from 51919 users
IMDb链接  https://www.imdb.com/title/tt4777008
豆瓣评分 6.1/10 from 100094 users
豆瓣链接 https://movie.douban.com/subject/26426056/
片  长 119分钟
导  演 乔阿吉姆·罗恩尼 Joachim R?nning
编  剧 迈卡·费兹曼-布卢 Micah Fitzerman-Blue / 诺亚·哈普斯特 Noah Harpster / 琳达·伍尔芙顿 Linda Woolverton
主  演 安吉丽娜·朱莉 Angelina Jolie
       艾丽·范宁 Elle Fanning
       米歇尔·菲佛 Michelle Pfeiffer
       萨姆·赖利 Sam Riley
       哈里斯·迪金森 Harris Dickinson
       艾德·斯克林 Ed Skrein
       切瓦特·埃加福特 Chiwetel Ejiofor
       朱诺·坦普尔 Juno Temple
       艾美达·斯丹顿 Imelda Staunton
       卡·亚历山大 Kae Alexander
       莱丝利·曼维尔 Lesley Manville
       弗莱迪·怀斯 Freddie Wise
       詹·穆瑞 Jenn Murray
       石原贵雅 Miyavi
       大卫·吉雅西 David Gyasi
       罗伯特·林德森 Robert Lindsay
       朱迪斯·沙克妮 Judith Shekoni
       伯纳多·桑托斯 Bernardo Santos
       萨克·霍兰 Zak Holland
       巴里·艾尔德 Barry Aird
       耶斯·利奥丹 Jess Liaudin
       拉塞尔·巴洛格 Russell Balogh
       拉亚·坎普贝尔 Rayna Campbell
       斯嘉丽·格兰特 Scarlett Grant
       汤姆·伯宁顿 Tom Bonington
       阿克塞尔·努 Axel Nu
       特蕾莎·马奥尼 Teresa Mahoney
       John Carew


标  签 迪士尼 | 魔幻 | 奇幻 | 童话改编 | 美国 | 2019 | 美 | 女性

简  介  

  《沉睡魔咒》续集将讲述魔女玛琳菲森(朱莉)和将成为女王的爱洛公主(范宁)关系缓和但依旧复杂,但两人要联手对付新的反派,保护森林王国和那里神奇的动物们。

获奖情况  

  第92届奥斯卡金像奖(2020)
  最佳化妆与发型设计(提名)

  第24届美国艺术指导工会奖(2020)
  电影奖 最佳幻想电影艺术指导(提名) 帕特里克·塔特普洛斯

  第22届美国服装设计工会奖(2020)
  科幻/奇幻题材电影最佳服装设计 艾伦·米罗伊尼克

  第7届美国化妆及发型设计工会奖(2020)
  电影类最佳年代戏发型设计(提名)

  第40届伦敦影评人协会奖(2020)
  年度英国/爱尔兰女演员(提名) 莱丝利·曼维尔
  1. Video
  2. ID                                       : 1
  3. Format                                   : AVC
  4. Format/Info                              : Advanced Video Codec
  5. Format profile                           : High@L4
  6. Format settings                          : CABAC / 3 Ref Frames
  7. Format settings, CABAC                   : Yes
  8. Format settings, Reference frames        : 3 frames
  9. Codec ID                                 : V_MPEG4/ISO/AVC
  10. Duration                                 : 1 h 58 min
  11. Bit rate                                 : 15.5 Mb/s
  12. Width                                    : 1 920 pixels
  13. Height                                   : 1 080 pixels
  14. Display aspect ratio                     : 16:9
  15. Frame rate mode                          : Constant
  16. Frame rate                               : 23.976 (24000/1001) FPS
  17. Color space                              : YUV
  18. Chroma subsampling                       : 4:2:0
  19. Bit depth                                : 8 bits
  20. Scan type                                : Progressive
  21. Bits/(Pixel*Frame)                       : 0.312
  22. Stream size                              : 12.7 GiB (67%)
  23. Title                                    : Maleficent.Mistress.of.Evil.2019.1080p.3D.BluRay.Half-SBS.x264.DTS-HD.MA.7.1-FGT
  24. Writing library                          : x264 core 148
  25. Encoding settings                        : cabac=1 / ref=3 / deblock=1:-1:-1 / analyse=0x3:0 / me=hex / subme=5 / psy=1 / psy_rd=1.00:0.00 / mixed_ref=0 / me_range=16 / chroma_me=1 / trellis=1 / 8x8dct=1 / cqm=0 / deadzone=21,11 / fast_pskip=0 / chroma_qp_offset=0 / threads=24 / lookahead_threads=6 / sliced_threads=0 / nr=0 / decimate=1 / interlaced=0 / bluray_compat=0 / constrained_intra=0 / bframes=2 / b_pyramid=0 / b_adapt=1 / b_bias=0 / direct=1 / weightb=0 / open_gop=0 / weightp=0 / keyint=24 / keyint_min=2 / scenecut=40 / intra_refresh=0 / rc=abr / mbtree=0 / bitrate=15500 / ratetol=1.0 / qcomp=0.60 / qpmin=0 / qpmax=69 / qpstep=4 / ip_ratio=1.40 / pb_ratio=1.30 / aq=1:1.00
  26. Default                                  : Yes
  27. Forced                                   : No
  28. Color range                              : Limited
  29. Color primaries                          : BT.709
  30. Transfer characteristics                 : BT.709
  31. Matrix coefficients                      : BT.709

  32. Audio #1
  33. ID                                       : 2
  34. Format                                   : DTS XLL
  35. Format/Info                              : Digital Theater Systems
  36. Commercial name                          : DTS-HD Master Audio
  37. Codec ID                                 : A_DTS
  38. Duration                                 : 1 h 58 min
  39. Bit rate mode                            : Variable
  40. Bit rate                                 : 5 249 kb/s
  41. Channel(s)                               : 8 channels
  42. Channel layout                           : C L R LFE Lb Rb Lss Rss
  43. Sampling rate                            : 48.0 kHz
  44. Frame rate                               : 93.750 FPS (512 SPF)
  45. Bit depth                                : 24 bits
  46. Compression mode                         : Lossless
  47. Stream size                              : 4.36 GiB (23%)
  48. Title                                    : Maleficent.Mistress.of.Evil.2019.1080p.3D.BluRay.Half-SBS.x264.DTS-HD.MA.7.1-FGT
  49. Language                                 : English
  50. Default                                  : Yes
  51. Forced                                   : No

  52. Audio #2
  53. ID                                       : 3
  54. Format                                   : AC-3
  55. Format/Info                              : Audio Coding 3
  56. Commercial name                          : Dolby Digital
  57. Codec ID                                 : A_AC3
  58. Duration                                 : 1 h 58 min
  59. Bit rate mode                            : Constant
  60. Bit rate                                 : 320 kb/s
  61. Channel(s)                               : 2 channels
  62. Channel layout                           : L R
  63. Sampling rate                            : 48.0 kHz
  64. Frame rate                               : 31.250 FPS (1536 SPF)
  65. Bit depth                                : 16 bits
  66. Compression mode                         : Lossy
  67. Stream size                              : 272 MiB (1%)
  68. Title                                    : Maleficent.Mistress.of.Evil.2019.1080p.3D.BluRay.Half-SBS.x264.DTS-HD.MA.7.1-FGT
  69. Language                                 : English
  70. Service kind                             : Complete Main
  71. Default                                  : No
  72. Forced                                   : No

  73. Audio #3
  74. ID                                       : 4
  75. Format                                   : E-AC-3
  76. Format/Info                              : Enhanced AC-3
  77. Commercial name                          : Dolby Digital Plus
  78. Format profile                           : Blu-ray Disc
  79. Codec ID                                 : A_EAC3
  80. Duration                                 : 1 h 58 min
  81. Bit rate mode                            : Constant
  82. Bit rate                                 : 896 kb/s
  83. Channel(s)                               : 8 channels
  84. Channel layout                           : L R C LFE Ls Rs Lb Rb
  85. Sampling rate                            : 48.0 kHz
  86. Frame rate                               : 31.250 FPS (1536 SPF)
  87. Compression mode                         : Lossy
  88. Stream size                              : 762 MiB (4%)
  89. Title                                    : Maleficent.Mistress.of.Evil.2019.1080p.3D.BluRay.Half-SBS.x264.DTS-HD.MA.7.1-FGT
  90. Language                                 : French
  91. Service kind                             : Complete Main
  92. Default                                  : No
  93. Forced                                   : No

  94. Audio #4
  95. ID                                       : 5
  96. Format                                   : E-AC-3
  97. Format/Info                              : Enhanced AC-3
  98. Commercial name                          : Dolby Digital Plus
  99. Format profile                           : Blu-ray Disc
  100. Codec ID                                 : A_EAC3
  101. Duration                                 : 1 h 58 min
  102. Bit rate mode                            : Constant
  103. Bit rate                                 : 896 kb/s
  104. Channel(s)                               : 8 channels
  105. Channel layout                           : L R C LFE Ls Rs Lb Rb
  106. Sampling rate                            : 48.0 kHz
  107. Frame rate                               : 31.250 FPS (1536 SPF)
  108. Compression mode                         : Lossy
  109. Stream size                              : 762 MiB (4%)
  110. Title                                    : Maleficent.Mistress.of.Evil.2019.1080p.3D.BluRay.Half-SBS.x264.DTS-HD.MA.7.1-FGT
  111. Language                                 : German
  112. Service kind                             : Complete Main
  113. Default                                  : No
  114. Forced                                   : No

  115. Text #1
  116. ID                                       : 6
  117. Format                                   : PGS
  118. Muxing mode                              : zlib
  119. Codec ID                                 : S_HDMV/PGS
  120. Codec ID/Info                            : Picture based subtitle format used on BDs/HD-DVDs
  121. Duration                                 : 1 h 53 min
  122. Bit rate                                 : 42.2 kb/s
  123. Count of elements                        : 3210
  124. Stream size                              : 34.1 MiB (0%)
  125. Title                                    : English-PGS
  126. Language                                 : English
  127. Default                                  : Yes
  128. Forced                                   : No

  129. Text #2
  130. ID                                       : 7
  131. Format                                   : PGS
  132. Muxing mode                              : zlib
  133. Codec ID                                 : S_HDMV/PGS
  134. Codec ID/Info                            : Picture based subtitle format used on BDs/HD-DVDs
  135. Duration                                 : 1 h 57 min
  136. Bit rate                                 : 25.8 kb/s
  137. Count of elements                        : 1960
  138. Stream size                              : 21.6 MiB (0%)
  139. Title                                    : French-PGS
  140. Language                                 : French
  141. Default                                  : No
  142. Forced                                   : No

  143. Menu
  144. 00:00:00.000                             : en:Chapter 01
  145. 00:06:47.907                             : en:Chapter 02
  146. 00:09:11.676                             : en:Chapter 03
  147. 00:14:45.551                             : en:Chapter 04
  148. 00:19:27.833                             : en:Chapter 05
  149. 00:23:10.555                             : en:Chapter 06
  150. 00:33:51.904                             : en:Chapter 07
  151. 00:39:10.264                             : en:Chapter 08
  152. 00:42:19.578                             : en:Chapter 09
  153. 00:48:31.992                             : en:Chapter 10
  154. 00:52:44.744                             : en:Chapter 11
  155. 00:57:15.140                             : en:Chapter 12
  156. 00:59:26.145                             : en:Chapter 13
  157. 01:05:47.568                             : en:Chapter 14
  158. 01:09:31.750                             : en:Chapter 15
  159. 01:19:07.242                             : en:Chapter 16
  160. 01:22:48.546                             : en:Chapter 17
  161. 01:29:09.218                             : en:Chapter 18
  162. 01:35:00.653                             : en:Chapter 19
  163. 01:44:26.510                             : en:Chapter 20
  164. 01:51:06.993                             : en:Chapter 21
复制代码

沉睡魔咒2 Maleficent.Mistress.of.Evil.2019.1080p.3D.BluRay.Half-SBS.x264.DTS-HD.MA.7.1-FGT 18.80GB-2.png 沉睡魔咒2 Maleficent.Mistress.of.Evil.2019.1080p.3D.BluRay.Half-SBS.x264.DTS-HD.MA.7.1-FGT 18.80GB-1.png 沉睡魔咒2 Maleficent.Mistress.of.Evil.2019.1080p.3D.BluRay.Half-SBS.x264.DTS-HD.MA.7.1-FGT 18.80GB-4.png







回复

使用道具 举报

 成长值: 2155

发表于 2020-2-15 13:54:15 | 显示全部楼层
好看的电影,蓝光电影网,会员开得值。
回复 支持 反对

使用道具 举报

发表于 2020-2-17 17:37:25 | 显示全部楼层
楼主发贴辛苦了,谢谢楼主分享!我觉得蓝光电影网是注册对了!
回复 支持 反对

使用道具 举报

发表于 2020-3-5 23:05:26 | 显示全部楼层
dddddddddd
回复 支持 反对

使用道具 举报

发表于 2020-3-9 11:42:18 | 显示全部楼层
好看的电影,蓝光电影网,会员开得值
回复 支持 反对

使用道具 举报

发表于 2020-3-14 11:32:47 | 显示全部楼层
好看的电影,蓝光电影网
回复 支持 反对

使用道具 举报

发表于 2020-3-24 21:38:22 | 显示全部楼层

好看的电影,蓝光电影网
回复 支持 反对

使用道具 举报

发表于 2020-4-11 16:45:00 | 显示全部楼层
谢谢分享   下载下来看看
回复 支持 反对

使用道具 举报

发表于 2020-4-20 21:22:10 来自手机 | 显示全部楼层
谢谢分享!!
回复

使用道具 举报

懒得打字嘛,点击右侧快捷回复 【右侧内容,后台自定义】
您需要登录后才可以回帖 登录 | 立即加入

本版积分规则

现在加入蓝光电影网,注册一个账号
上个主题 下个主题 快速回复 收藏帖子 返回列表 客服中心 搜索

手机版|小黑屋| 蓝光电影网 |网站地图 

Copyright © 2015-2019 Comsenz Inc.  Template by 蓝光电影论坛 All Rights Reserved.

Powered by 蓝光电影网 X3.4

特别声明:本站所有资源均由网上收集而来,版权归原影音公司所有,如果侵犯了你的权益,请通知我们,我们会及时删除侵权内容.

快速回复 返回顶部 返回列表